#TITLE:Zaveid The Exile;
#SUBTITLE:;
#ARTIST:Wigley Vogtner Feat. Motoi Sakuraba & Go Shiina;
#TITLETRANSLIT:;
#SUBTITLETRANSLIT:;
#ARTISTTRANSLIT:;
#GENRE:;
#CREDIT:;
#BANNER:;
#BACKGROUND:;
#LYRICSPATH:;
#CDTITLE:;
#MUSIC:Zaveid the Exile.mp3;
#OFFSET:0.002000;
#SAMPLESTART:38.397999;
#SAMPLELENGTH:12.800000;
#SELECTABLE:YES;
#BPMS:0.000000=150.000000
,92.000000=75.000000
,94.000000=150.000000
,266.000000=75.000000
;
#STOPS:
;
#BGCHANGES:;
#KEYSOUNDS:;
#ATTACKS:;

//---------------dance-single - ----------------
#NOTES:
     dance-single:
     Shortysnmn2010:
     Beginner:
     1:
     0.145711,0.276531,0.000000,0.045945,0.000000,111.000000,111.000000,0.000000,5.000000,0.000000,0.000000,0.145711,0.276531,0.000000,0.045945,0.000000,111.000000,111.000000,0.000000,5.000000,0.000000,0.000000:
0000
0000
0000
0000
,
0000
0000
0000
0000
,
0000
0000
0000
0000
,
0000
0000
0000
0000
,
0000
0001
0000
0000
0000
1000
0000
0000
,
0000
0001
0000
0000
0000
0000
0000
0000
,
0000
0100
0000
0000
0000
0010
0000
0000
,
0000
0100
0000
0000
0000
0000
0000
0000
,
0001
0000
0010
0000
,
0001
0000
0000
0000
,
1000
0000
0001
0000
,
1000
0000
0000
0000
,
0001
0001
1000
1000
,
0001
0001
1000
1000
,
0001
0000
1000
0000
,
0020
0000
0030
0000
,
0100
0000
0000
0000
,
1000
0000
0010
0000
,
1000
0000
0000
0000
,
0100
0000
0010
0000
,
0100
0000
0000
0000
,
1000
0000
0000
0000
,
0010
0000
0000
0000
,
0200
0300
0001
0000
,
1000
0000
0001
0001
,
0000
1000
1000
0000
,
0000
0000
0001
0000
,
1000
0000
0001
0000
,
0000
0000
0010
0010
,
0100
0100
0010
0010
,
0000
0000
0100
0000
,
1000
0000
0010
0000
,
0100
0000
0010
0010
,
0000
0100
0100
0000
,
0000
0000
0001
0000
,
0000
0000
1000
0000
,
0000
0000
0010
0000
,
1000
0000
0010
0000
,
0000
0000
0100
0100
,
0001
0001
0100
0000
,
0000
0000
0001
0000
,
0010
0000
0002
0000
,
0003
0000
1000
0000
,
0000
0000
0001
0000
,
0000
1000
0000
0000
0000
0001
0000
0000
,
0000
0000
0000
0000
0000
1000
0000
0000
,
0000
0100
0000
0000
0000
1000
0000
0000
,
0000
0000
0000
0000
0000
0010
0000
0000
,
0000
0100
0000
0000
0000
0010
0000
0000
,
0000
0000
0000
0000
0000
0100
0000
0000
,
0000
0001
0000
0000
0000
0100
0000
0000
,
0000
0000
0010
0000
,
1000
0000
0100
0000
,
0000
0000
0010
0000
,
0001
0000
0100
0000
,
0000
0000
0001
0001
,
0100
0100
1000
1000
,
0100
0100
0001
0000
,
0000
0000
2000
0000
,
3000
0000
0010
0000
,
0000
0000
0100
0000
,
0001
0000
0100
0000
,
0000
0000
0010
0000
,
1000
0000
0001
0000
,
1000
0000
0001
0000
,
0001
0000
1000
0000
,
1000
0000
0000
0000
0002
0000
0000
0003
;

//---------------dance-single - ----------------
#NOTES:
     dance-single:
     Shortysnmn2010:
     Easy:
     4:
     0.253353,0.337982,0.119457,0.257291,0.000000,193.000000,180.000000,13.000000,28.000000,0.000000,0.000000,0.253353,0.337982,0.119457,0.257291,0.000000,193.000000,180.000000,13.000000,28.000000,0.000000,0.000000:
0000
0000
0000
0000
,
0000
0000
0000
0000
,
0000
0000
0000
0000
,
0000
0000
0000
0000
,
0000
1000
0000
0000
0000
0100
0000
0000
,
0000
1000
0000
0000
0000
0001
0000
0010
,
0000
0001
0000
0000
0000
0100
0000
0000
,
0000
0010
0000
0000
0000
1000
0000
0100
,
0010
0001
0100
1001
,
0010
1000
0100
0010
,
0100
1000
0010
1001
,
0100
0001
0010
0100
,
2000
3000
0020
0030
,
0002
0003
2000
3000
,
0200
0300
0002
0003
,
1000
0100
0220
0330
,
0001
0000
1100
0000
,
0020
0030
0011
0110
,
1100
0000
1000
0000
,
0001
0000
0100
0000
,
0010
0010
1000
0001
,
0100
0100
0001
1000
,
0100
0100
0010
0001
,
2000
3000
0010
0020
,
0030
1000
0100
1000
,
0000
0010
0100
0200
,
0300
0000
0001
0010
,
0001
0100
0001
0002
,
0003
1000
0100
0001
,
0100
1000
0010
1000
,
0000
0001
0100
0001
,
1000
0100
0010
0020
,
0030
0001
1000
0010
,
0000
1000
0100
0200
,
0300
0000
0000
1000
,
0010
0100
0001
0000
,
1000
0000
0000
0010
,
0100
0010
2000
3000
,
0000
0100
0010
0001
,
0010
0100
2000
0000
,
3000
0000
0010
1000
,
0100
0010
0002
0000
,
0000
0100
2000
0000
,
3003
0000
0010
0000
,
0000
1000
0000
0000
0000
0100
0000
0000
,
0000
0010
0000
0001
0000
0100
0000
0000
,
0000
0001
0000
0000
0000
1000
0000
0000
,
0000
0100
0000
0010
0000
0100
0000
0000
,
0000
1000
0000
0000
0000
0001
0000
0000
,
0000
0010
0000
0001
0000
1000
0000
0000
,
0000
0100
0000
0000
0000
0001
0000
0000
,
0000
0100
0000
1000
0010
0000
0100
0000
,
0001
0110
1000
0100
,
0010
0001
1000
0100
,
0001
0110
1000
0001
,
0010
0100
2000
3000
,
0200
0300
0002
0003
,
2000
3000
0020
0030
,
0002
0003
1000
0010
,
0220
0330
1000
0000
,
0000
0000
0001
0000
,
1010
0110
0101
0000
,
1000
0000
0001
0000
,
1000
0100
0010
0010
,
0001
1000
0010
0010
,
1000
0001
0010
0100
,
1000
0000
0001
0000
2000
0000
0000
3000
;

//---------------dance-single - ----------------
#NOTES:
     dance-single:
     Shortysnmn2010:
     Medium:
     5:
     0.350494,0.368708,0.183780,0.174591,0.004594,267.000000,247.000000,20.000000,19.000000,0.000000,0.000000,0.350494,0.368708,0.183780,0.174591,0.004594,267.000000,247.000000,20.000000,19.000000,0.000000,0.000000:
0000
0000
0000
0000
,
0000
0000
0000
0000
,
0000
0000
0000
0000
,
0000
0000
0000
0000
,
0000
1001
0000
0010
0000
1001
0000
0000
,
0000
1000
0001
0000
0001
1000
0000
0001
,
0000
0110
0000
1000
0000
0110
0000
0000
,
0000
0001
1000
0000
1000
0001
0000
0000
,
1000
0000
0100
1000
0100
0000
1000
0000
,
0010
0000
1000
0100
1000
0000
0100
0010
,
0100
0000
1000
0100
1000
0000
0010
0000
,
0100
0000
0001
0100
0001
0000
0010
0001
,
0010
0100
1000
0010
,
0100
0010
1000
0100
,
0010
0001
0100
0010
,
0100
0001
2000
3000
,
0101
0000
0000
0001
1000
0000
0000
0000
,
2200
0300
0001
0010
,
3001
0000
0000
0100
0001
0000
0000
0000
,
0020
0030
0100
1000
,
0001
0100
0001
0000
1000
0000
0010
0000
,
0001
0010
1000
0100
,
1000
0100
1000
0000
0001
0000
0010
0000
,
0002
0000
0003
0000
1000
0100
2000
0000
,
0000
0010
3010
0110
,
0000
0000
0101
0000
0001
0010
0002
0000
,
0000
0003
1000
0100
,
0010
0000
0001
0000
1000
0001
2000
0000
,
3000
0000
0010
0100
0001
0000
0010
0000
,
0001
0100
0010
2000
,
3000
0001
0010
0001
,
1000
0000
0100
0010
0100
0010
0200
0000
,
0000
1000
1300
1001
,
0000
0000
0011
0000
0010
0001
0200
0000
,
0000
0300
0010
1000
,
0001
0000
1000
0000
0100
0000
0000
0100
,
1000
0010
0100
0001
,
1000
0001
0100
0220
,
0330
0001
1000
0100
,
0010
0100
2000
3000
,
0000
0001
0010
0001
0010
0000
0001
0000
,
1000
0000
0000
0000
0010
0000
0000
0000
4000
0004
0000
0000
0000
0000
0000
0000
,
3003
1000
0100
0010
,
0001
0000
1000
0000
0001
0100
0000
0000
,
0000
0110
0000
0000
0000
1000
0001
0000
,
0001
1000
0000
0100
0000
0110
0000
0001
,
0000
0110
0000
0000
0000
1000
0010
0000
,
0010
1000
0000
0100
0000
0011
0000
1000
,
0000
0011
0000
0000
0000
1000
0010
0000
,
0010
1000
0000
0100
0000
1100
0000
0001
,
0000
1100
0000
0000
0000
1000
0010
0000
,
0010
0100
0000
0000
0001
0000
0010
0001
,
0010
0000
0001
0000
0100
0000
0001
0100
,
0001
0000
0100
0010
0100
0000
0001
0100
,
0001
0000
0100
0000
0010
0000
1000
0100
,
1000
0000
0010
1000
0010
0000
1000
0000
,
0100
0010
0001
1000
,
0001
0100
1000
0100
,
0001
1000
0010
1000
,
2002
0000
3003
0000
0010
0000
0000
0001
,
1000
0000
2200
0300
,
0010
0000
0001
0000
3010
0000
0000
0100
,
0001
0000
1000
0000
,
0100
0010
0001
1000
,
0010
1000
0001
0100
,
0010
0001
0010
1000
,
0001
0000
0010
0000
0200
0000
0000
0300
;

//---------------dance-single - ----------------
#NOTES:
     dance-single:
     Shortysnmn2010:
     Hard:
     7:
     0.484391,0.521360,0.183780,0.339992,0.050539,369.000000,349.000000,20.000000,37.000000,0.000000,0.000000,0.484391,0.521360,0.183780,0.339992,0.050539,369.000000,349.000000,20.000000,37.000000,0.000000,0.000000:
// measure 0
0000
0000
0000
0000
,  // measure 1
0000
0000
0000
0000
,  // measure 2
0000
0000
0000
0000
,  // measure 3
0000
0000
0000
0000
,  // measure 4
0000
1100
0000
0010
0000
1002
0000
0000
,  // measure 5
0000
0100
0103
0000
0001
1000
0001
0010
,  // measure 6
0100
1000
0000
0010
0000
2001
0000
0000
,  // measure 7
0000
0100
3100
0000
0010
0001
0010
0100
,  // measure 8
1000
0000
0010
1000
0010
0000
1001
0000
,  // measure 9
0100
0000
0001
0010
0100
0000
0001
0100
,  // measure 10
1000
0000
0010
0100
0010
0000
1001
0000
,  // measure 11
0100
0000
0010
1000
0100
0000
0010
0001
,  // measure 12
1000
0010
1000
0010
0001
0010
0001
0010
,  // measure 13
1000
0100
1000
0100
0001
0100
0001
0100
,  // measure 14
1000
0001
1000
0001
0100
0010
0100
0010
,  // measure 15
1000
0001
0220
0330
,  // measure 16
0001
0002
0000
0103
0001
0200
0000
0000
,  // measure 17
0010
0310
0000
0200
0001
0000
0301
0000
,  // measure 18
1000
2000
0000
3100
1000
0200
0000
0000
,  // measure 19
0010
0310
0000
0000
0100
1000
0100
0010
,  // measure 20
0001
0100
0010
0100
0001
0010
0100
1000
,  // measure 21
0001
1000
0001
0100
0010
1000
0010
0100
,  // measure 22
0001
1000
0001
1000
0100
0010
0001
1000
,  // measure 23
0020
0000
0000
0000
0030
0000
1000
0000
0001
0100
0001
0100
0002
0000
0000
0000
,  // measure 24
0003
0000
0010
0100
1000
0100
0010
0000
,  // measure 25
0001
0000
0000
0000
1001
0000
0000
0000
1000
0100
1000
0100
2000
0000
0000
0000
,  // measure 26
0100
0001
3200
0010
,  // measure 27
1000
0000
0000
0000
0310
0000
0000
0000
0001
1000
0001
1000
0001
0000
0000
0000
,  // measure 28
0100
0000
0010
1000
0200
0000
0001
0000
,  // measure 29
2300
0010
3002
0200
,  // measure 30
0300
0023
0100
0031
,  // measure 31
1001
0000
0000
0000
1000
0000
0000
0000
0010
0100
0010
0100
0020
0000
0000
0000
,  // measure 32
0030
0000
1000
0001
0100
0001
1000
0000
,  // measure 33
0100
0000
0000
0000
0110
0000
0000
0000
0001
0010
0001
0010
0002
0000
0000
0000
,  // measure 34
0010
1000
0023
1000
,  // measure 35
0100
0000
0031
0000
2000
0000
3000
0100
,  // measure 36
1000
0000
0010
1000
0002
0000
0100
0000
,  // measure 37
1003
0000
0100
0000
0010
0000
0001
0000
2000
0000
0000
0000
0020
0000
0000
0030
,  // measure 38
0000
3010
0100
0001
1000
0000
0100
0000
,  // measure 39
0010
0000
0001
0000
1000
0100
1000
0001
,  // measure 40
0000
1000
0010
1000
0001
0000
0100
1000
,  // measure 41
0100
0000
0000
0000
0001
0000
0000
0000
4000
0004
0000
0000
0000
0000
0000
0000
,  // measure 42
0000
0000
0000
0000
,  // measure 43
0000
0000
3003
0000
1001
1001
0000
0100
,  // measure 44
0000
2010
0000
0000
0000
0001
3001
0000
,  // measure 45
0010
0100
1000
0010
0100
0001
0000
1000
,  // measure 46
0000
0102
0000
0000
0000
0010
0013
0000
,  // measure 47
0100
1000
0010
0100
0010
0001
0000
0110
,  // measure 48
0000
2001
0000
0000
0000
0010
3010
0000
,  // measure 49
0100
0001
0010
0100
1000
0001
0000
0110
,  // measure 50
0000
2100
0000
0000
0000
0001
3001
0000
,  // measure 51
1000
0010
1000
0100
0010
0000
0001
0100
,  // measure 52
0001
0000
0110
0000
1000
0000
0010
0100
,  // measure 53
0001
0000
0001
0010
1000
0000
0010
0100
,  // measure 54
1000
0000
1010
0000
0100
0000
0001
0010
,  // measure 55
0001
0000
1000
0100
0010
0001
0010
0001
,  // measure 56
1000
0010
1000
0010
0100
0001
0100
0001
,  // measure 57
0010
0100
0010
0100
1000
0010
1000
0010
,  // measure 58
0100
0001
0100
0001
1000
0000
0100
0000
,  // measure 59
2002
0000
3003
0000
1000
2000
0000
3010
,  // measure 60
0100
0020
0000
0000
1000
1030
0000
0002
,  // measure 61
0100
0000
0103
0000
0001
0002
0000
0013
,  // measure 62
0100
0020
0000
0000
0001
0031
0000
0000
,  // measure 63
1000
0100
0010
0001
1000
0001
0100
0010
,  // measure 64
0100
0001
0010
0100
0010
0001
1000
0010
,  // measure 65
0100
0001
1000
0100
0001
0100
1000
0001
,  // measure 66
0100
0010
1000
0001
0020
0000
0030
0000
;
