#TITLE:Upside Down;
#SUBTITLE:;
#ARTIST:Paloma Faith;
#TITLETRANSLIT:;
#SUBTITLETRANSLIT:;
#ARTISTTRANSLIT:;
#GENRE:;
#CREDIT:;
#MUSIC:Upside Down.mp3;
#BANNER:;
#BACKGROUND:;
#CDTITLE:;
#SAMPLESTART:31.773;
#SAMPLELENGTH:11.933;
#SELECTABLE:YES;
#OFFSET:-0.087;
#BPMS:0.000=176.000
,92.000=88.000
,94.000=176.000
,158.000=88.000
,166.000=176.000
,242.000=88.000
,244.000=176.000
;
#STOPS:;
#BGCHANGES:;
#FGCHANGES:;

//--------------- dance-single - ----------------
#NOTES:
     dance-single:
     Shortysnmn2010:
     Beginner:
     1:
     0.119281,0.209649,0.018151,0.009076,0,92,90,2,1,0,0,0.119281,0.209649,0.018151,0.009076,0,92,90,2,1,0,0:
0000
0000
0000
0000
,
0000
0000
0000
0000
,
0000
0000
0000
0000
,
0000
0000
0000
0000
,
1000
0000
0000
0000
,
0001
0000
0000
0000
,
1000
0000
0000
0000
,
0000
0000
0000
0000
,
0010
0000
0000
0000
,
0100
0000
0000
0000
,
0010
0000
0000
0000
,
0000
0000
0000
0000
,
0100
0000
0000
0000
,
0001
0000
0000
0000
,
0100
0000
0000
0000
,
0000
0000
0000
0000
,
0010
0000
0000
0000
,
1000
0000
0000
0000
,
0100
0000
0000
0000
,
0000
0000
0000
0000
,
0010
0000
0000
0000
,
0001
0000
0000
0000
,
0100
0000
0000
0000
,
0000
0000
0010
0000
,
1000
0000
0010
0000
,
0000
0000
1000
0000
,
0000
0000
0001
0000
,
0000
0000
1000
0000
,
0100
0000
1000
0000
,
0000
0000
0010
0000
,
0000
0000
0100
0000
,
0000
0000
0001
0000
,
0010
0000
0001
0000
,
0000
0000
0100
0000
,
0000
0000
0010
0000
,
0000
0000
0100
0000
,
0001
0000
0100
0000
,
0000
0000
0010
0000
,
0000
0000
1000
0000
,
0000
0000
0100
0000
,
0100
0000
0100
1000
,
0010
0000
0100
0000
,
0000
0000
0100
0000
,
0000
0000
0100
0000
,
0001
0000
0010
0000
,
0000
0000
0100
0000
,
1000
0000
0100
0000
,
0100
0000
1000
0000
,
0000
0000
0001
0000
,
0000
0000
0100
0000
,
0001
0000
0100
0000
,
0100
0000
0001
0000
,
0000
0000
1000
0000
,
0000
0000
0010
0000
,
0000
0000
0010
0000
,
1000
0000
0100
0000
,
0000
0000
0010
0000
,
0000
0000
0010
0000
,
0001
0000
0100
0000
,
0000
0000
0110
0000
,
0000
0000
1001
0000
,
1000
0000
0000
0000
,
0100
0000
0010
0000
,
0100
0000
0000
0000
,
0010
0000
0100
0000
,
0010
0000
0000
0000
,
0001
0000
1000
0000
,
0001
0000
0000
0000
,
1000
0000
0001
0000
,
1000
0000
0000
0000
,
0010
0000
0100
0000
,
0010
0000
0000
0000
,
0100
0000
0010
0000
,
0100
0000
0000
0000
,
0001
0000
0100
0000
,
0001
0000
0000
0000
,
2000
0000
0000
0000
,
3000
0000
0000
0000
;

//--------------- dance-single - ----------------
#NOTES:
     dance-single:
     Shortysnmn2010:
     Easy:
     3:
     0.165956,0.419299,0.072606,0.009076,0,128,120,8,1,0,0,0.165956,0.419299,0.072606,0.009076,0,128,120,8,1,0,0:
0000
0000
0000
0000
,
0000
0000
0000
0000
,
0000
0000
0000
0000
,
0000
0000
0000
0000
,
1000
0000
0001
0000
,
1000
0000
0100
0000
,
1000
0000
0001
0000
,
0001
0000
0000
0000
,
0100
0000
0001
0000
,
1000
0000
0001
0000
,
1000
0000
0010
0000
,
0010
0000
0000
0000
,
0100
0000
0001
0000
,
0010
0000
0001
0000
,
0100
0000
0010
0000
,
0010
0000
0000
0000
,
0110
0000
0000
0000
,
0000
0000
1000
0000
,
1001
0000
0000
0000
,
0000
0000
0010
0000
,
0100
0000
1000
0000
,
0100
0000
0010
0000
,
0001
0000
0000
0000
,
1001
0000
1000
0000
,
0010
0000
0001
0000
,
0000
0000
0010
0000
,
1000
0000
0100
0000
,
0000
0000
0001
0000
,
0100
0000
1000
0000
,
0000
0000
0010
0000
,
0100
0000
0010
0000
,
0000
0000
0100
0000
,
0001
0000
0010
0000
,
0000
0000
0001
0000
,
1000
0000
0010
0000
,
0000
0000
0100
0000
,
0001
0000
0010
0000
,
0000
0000
0100
0000
,
1000
0000
0100
0000
,
0000
0000
1000
1000
,
0100
1001
0001
0001
,
0100
0010
0100
0010
0100
0000
0000
0000
,
0100
0000
0001
0000
,
1001
0000
1000
0000
,
0100
0000
1000
0000
,
0000
0000
0010
0000
,
0010
0000
0100
0000
,
0001
0000
0010
0000
,
0001
0000
0001
0000
,
0000
0000
0100
0000
,
0010
0000
1000
0000
,
0100
0000
0010
0000
,
0100
0000
0100
0000
,
0000
0000
1100
0000
,
0000
0000
0000
0000
,
0001
0000
0011
0000
,
0000
0000
0000
0000
,
0100
0000
1000
0000
,
0001
0000
0100
0000
,
0010
0000
0100
0000
,
0000
0000
0110
0000
,
1000
0000
0001
0000
,
0100
0000
0000
0000
,
0010
0000
0100
0000
,
0001
0000
0000
0000
,
0010
0000
0001
0000
,
1000
0000
0000
0000
,
0100
0000
1000
0000
,
0100
0000
0000
0000
,
1000
0000
0010
0000
,
0001
0000
0000
0000
,
1000
0000
0100
0000
,
0001
0000
0000
0000
,
0010
0000
0100
0000
,
0010
0000
0000
0000
,
0100
0000
0010
0000
,
0200
0000
0000
0000
,
0300
0000
0000
0000
;

//--------------- dance-single - ----------------
#NOTES:
     dance-single:
     Shortysnmn2010:
     Medium:
     6:
     0.348767,0.419299,0.181515,0.163363,0.217817,269,249,20,18,0,0,0.348767,0.419299,0.181515,0.163363,0.217817,269,249,20,18,0,0:
0000
0000
0000
0000
,
0000
0000
0000
0000
,
0000
0000
0000
0000
,
0000
0000
0000
0000
,
1000
0000
0001
0000
,
0010
0000
0000
0000
0000
0100
0000
0000
0100
1000
0000
0000
,
0010
0000
0100
0000
,
0001
0000
2000
3000
,
0001
0010
0001
0100
,
0001
0000
0000
1000
0000
0010
0000
0000
0010
1000
0000
0000
,
0100
0000
0000
0001
0000
0000
0100
0000
0000
1000
0000
0002
,
0000
0000
0000
0003
0000
0000
0000
0000
0000
0000
0000
0001
,
1000
0010
1000
0001
,
0100
0000
0000
0001
0000
0010
0000
0000
0010
0001
0000
0000
,
2000
0000
3000
0000
,
1001
0000
0010
0000
,
0002
0000
0000
0000
0000
0000
0100
0000
0000
0000
0000
0103
,
0000
0000
0001
0000
0000
1000
0000
0000
0010
0000
0000
1000
,
0020
0000
0000
0000
0000
0000
0100
0000
0000
0000
0000
0130
,
0000
0000
0000
0000
,
0001
0000
0000
1000
0000
0100
0000
0000
0010
0000
0000
0001
,
0000
0000
0000
0000
0000
1000
0001
0000
1000
0000
0000
0220
,
0000
0000
0000
0330
,
1001
0000
1100
0010
,
0001
0100
0002
1000
,
1000
1003
0110
0001
,
1000
0100
0020
0100
,
0100
0130
1001
0001
,
0100
0000
0000
0010
0000
0000
1000
0000
0000
0001
0000
0001
,
1000
0001
0010
0100
,
1000
0010
0110
0000
,
0000
0000
0101
0010
,
1000
0100
0020
0001
,
0001
0031
1100
0010
,
0001
1000
0020
0100
,
0100
0130
1001
0001
,
0010
0000
0000
0001
0000
0000
1000
0000
0000
0100
0000
0100
,
0010
0000
0000
0100
0000
0000
1000
0000
0000
0010
0000
0010
,
0100
0001
0011
0000
,
0000
0000
1000
0100
,
1000
0010
0001
1000
,
0100
0001
0100
0010
1000
0000
0000
0000
,
0100
0000
0000
0000
0000
0000
0010
0000
0000
0000
0000
0001
,
0000
0000
0001
1000
0000
0000
0010
0000
0000
0000
0000
0000
,
0100
0000
0000
0000
0000
0001
0000
0000
1000
0000
0000
0001
,
0000
0000
1000
0100
,
0010
0000
0000
0001
0000
0000
0010
0000
0000
0000
0000
0100
,
0000
0000
0100
1000
0000
0000
0010
0000
0000
0100
0000
0000
,
0010
0000
0000
1000
0000
0000
0100
0000
0000
0000
0000
0010
,
0000
0000
0010
0100
0000
0000
1000
0000
0000
0010
0000
0000
,
0001
0000
0000
0010
0000
0000
0100
0000
0000
0000
0000
0001
,
0000
0000
0001
0100
0000
0000
0001
0000
0000
1000
0000
0000
,
0100
0000
0000
0010
0000
0000
0100
0000
0000
0000
0000
1000
,
0000
0000
1000
0100
0000
0000
2000
0000
0000
0000
0000
0000
,
0010
0000
0000
0000
0000
3010
0000
0000
0100
0000
0000
0001
,
0000
0000
1000
0000
0000
0010
0200
0000
0000
0000
0000
0000
,
0001
0000
0000
0000
0000
0301
0000
0000
0000
0000
0000
0000
,
0000
0000
1000
0000
,
0100
0000
0000
0000
0000
0000
0010
0000
0000
0000
0000
0001
,
0000
0000
0010
0000
0000
0110
0000
0000
0000
0000
0000
0000
,
0000
0000
1001
0000
,
1010
0100
0001
0010
,
0200
0010
0010
0310
,
1001
0100
0010
1000
,
0002
0010
0010
0013
,
1100
0010
0001
0100
,
0010
0000
0000
1000
0000
1000
0100
0000
0000
0010
0000
0000
,
0100
1000
0010
0100
,
1001
0000
0000
0000
,
0101
0010
1000
0100
,
0020
0100
0100
0130
,
0011
0100
1000
0010
,
0200
0001
0001
0301
,
1010
0100
0001
0010
,
0100
0000
0000
1000
0000
1000
0001
0000
0000
1000
0000
0000
,
0100
0000
0000
1000
0000
1000
0001
0000
0000
1000
0000
0000
,
0020
0000
0000
0000
,
0030
0000
0000
0000
;

//--------------- dance-single - ----------------
#NOTES:
     dance-single:
     Shortysnmn2010:
     Hard:
     8:
     0.552323,0.801046,0.490089,0.408408,0.598998,426,372,54,45,0,0,0.552323,0.801046,0.490089,0.408408,0.598998,426,372,54,45,0,0:
0000
0000
0000
0000
,
0000
0000
0000
0000
,
0000
0000
0000
0000
,
0000
0000
0000
0000
,
2100
3001
0012
0003
,
2010
0000
0000
3000
0000
0001
0000
0000
0001
0100
0000
0000
,
2010
3001
0012
0003
,
2100
0000
0000
0000
0000
0000
3000
0000
0000
1000
0000
0000
0001
0000
0000
0000
0000
0010
0000
0000
0000
0001
0000
0000
,
1000
1010
1000
1010
,
0001
0000
0000
0011
0000
0001
0010
0000
0001
0100
0000
0000
,
0010
0110
0010
0110
,
1000
0000
0000
1100
0000
0100
1000
0000
0100
0010
0000
0000
,
0001
1001
1000
1001
,
0001
0000
0000
0101
0000
0100
0001
0000
0010
0001
0000
0001
,
1000
0000
1000
0100
0000
0010
0000
0000
0001
0000
0000
2000
,
0000
0000
0000
3010
0000
0000
0100
0000
0001
0000
0000
2000
,
0100
0000
0000
0000
0000
0000
0100
0000
0000
0000
0000
3100
,
0000
0000
0010
0000
0000
0001
0000
0000
0100
0000
0000
0020
,
0100
0000
0000
0000
0000
0000
0100
0000
0000
0000
0000
0130
,
0000
0000
0000
0000
0000
0000
0001
0000
1000
0000
0000
0000
,
1100
0000
0000
0100
0000
0020
0000
0000
0001
0000
0000
0130
,
0000
0000
0000
0000
0000
1000
0010
0000
0100
0000
0000
0002
,
2000
0000
0000
3003
0000
0000
1000
0100
0010
0001
0010
0100
,
2000
0010
3010
0110
0101
0000
0002
0000
,
0010
0000
0000
0103
0000
0000
1001
0000
0000
1000
0000
0100
,
0000
0000
0010
0100
0000
0000
1100
0000
0000
2000
0000
0000
,
0010
0000
0000
3100
0000
0000
1001
0000
0000
0001
0000
0100
,
0000
0000
0010
0100
0000
0000
1010
0000
0000
0020
0000
0000
,
0001
0000
0000
1030
0000
0000
1001
0000
0000
0001
0000
0010
,
0001
0000
0010
0100
0000
0000
1100
0000
0000
2000
0000
0000
,
0010
0000
0000
3001
0000
0000
0101
0000
0000
1000
0000
0100
,
0010
0000
0100
1000
0000
0000
1010
0000
0000
0020
0000
0000
,
0001
0000
0000
1030
0000
0000
1001
0000
0000
0001
0000
0010
,
0000
0000
0010
0001
0000
0000
0101
0000
0000
0200
0000
0000
,
1000
0000
0000
0301
0000
0000
1001
0000
0000
1000
0000
0100
,
0000
0000
0001
0100
0000
0000
1100
0000
0000
2000
0000
0000
,
0010
0000
0000
3100
0000
0000
0011
0000
0000
1000
0000
0010
,
1000
0000
0001
0010
0000
0000
0110
0000
0000
1000
0000
1000
,
0010
0000
0000
0100
0000
0000
0002
0000
0000
1003
0000
0001
,
0100
0000
0000
0000
0001
0000
0010
0000
0000
0000
0000
0000
0012
0000
0000
1003
0000
0000
2100
0000
0000
3000
0000
0000
,
0102
0003
2010
3000
0102
1003
2010
3000
,
0001
0000
1000
0100
0000
0100
1000
0000
1000
0010
0000
0010
1000
0000
0000
0000
0000
0000
1100
0000
0000
0000
0000
0000
,
0010
0000
0001
0000
0000
0100
0010
0000
1000
0010
0000
0100
,
0001
0000
0010
0001
0000
0001
2000
0000
0000
3100
0000
0010
,
0000
0000
0001
0000
0000
0101
0000
0000
1001
0000
0000
2200
,
0000
0000
3300
0000
0000
0000
0010
0000
0000
0001
0000
0000
,
0100
0000
0000
0010
0000
1000
0100
0000
0010
0100
0000
1000
,
0010
0000
0100
0001
0000
0001
0100
0000
0000
0010
0000
0000
,
2000
0000
0000
0100
0000
0000
3001
0000
0000
1001
0000
1000
,
0010
0000
0010
1000
0000
0001
0100
0000
0000
0001
0000
0010
,
0100
0000
0000
1000
0000
0010
1000
0000
0100
0000
0000
0010
,
0100
0000
0100
1000
0000
0001
0100
0000
0000
0010
0000
1000
,
0001
0000
0100
0001
0000
0010
0001
0000
0000
1000
0000
0100
,
1000
0000
0100
0010
0000
0002
1000
0000
0000
0000
0000
0000
,
0010
0000
0000
0000
0000
0013
0000
0000
0100
0000
0000
1000
,
0000
0000
0100
0000
0000
2000
0010
0000
0000
0000
0000
0000
,
0100
0000
0000
0000
0000
3100
0000
0000
0000
0000
0000
0000
,
0010
0000
0001
0000
0000
1000
0000
0000
1010
0000
0000
1100
,
0000
0000
0000
0000
0000
0010
0100
0000
1000
0000
0000
0001
,
0000
0000
0100
0000
0000
0020
0200
0000
0000
0330
0000
0000
,
0010
0000
1000
0000
0010
0000
0100
0000
0001
0000
0100
0000
0020
0000
0000
1000
0000
0000
1000
0000
0000
1030
0000
0000
,
1001
0000
0000
0002
0000
0000
0100
0000
0000
0013
0000
0100
,
1000
0000
0000
1010
0000
1000
0001
0000
0001
1000
0000
1000
,
0001
0000
0000
0020
0000
0000
1000
0000
0000
0130
0000
1000
,
0001
0000
0000
0101
0000
0010
1000
0000
0001
0100
0000
0100
,
1000
0000
0000
0200
0000
0000
0001
0000
0000
0310
0000
1000
,
0001
0000
0000
1100
0000
0100
0001
0000
0100
1000
0000
0100
,
0010
0000
0000
0002
0000
0000
0100
0000
0000
1003
0000
0010
,
1000
0000
0000
0100
0000
0010
0100
0000
0010
0100
0000
0000
,
0011
0000
0000
2000
0000
0000
0010
0000
0000
3001
0000
0010
,
0001
0000
0000
0101
0000
0010
1000
0000
1000
0100
0000
0100
,
1000
0000
0000
0002
0000
0000
0010
0000
0000
1003
0000
0001
,
0100
0000
0000
0110
0000
0100
0001
0000
0010
0100
0000
1000
,
0010
0000
0000
2000
0000
0000
0100
0000
0000
3010
0000
0100
,
0001
0000
0000
0011
0000
0001
1000
0000
0001
0100
0000
0001
,
0010
0000
0000
0100
0000
1000
0010
0000
0000
1000
0000
0000
,
0220
0000
0000
0330
;
