#TITLE:The Planet's Dyin';
#SUBTITLE:;
#ARTIST:Daniel Tidwell;
#TITLETRANSLIT:;
#SUBTITLETRANSLIT:;
#ARTISTTRANSLIT:;
#GENRE:;
#CREDIT:;
#BANNER:;
#BACKGROUND:;
#LYRICSPATH:;
#CDTITLE:;
#MUSIC:The Planet's Dyin'.mp3;
#OFFSET:-0.104000;
#SAMPLESTART:24.104000;
#SAMPLELENGTH:9.600000;
#SELECTABLE:YES;
#BPMS:0.000000=200.000000
,144.000000=145.000000
,208.000000=135.000000
,208.125000=130.000000
,208.250000=124.999992
,208.375000=120.000000
,208.500000=115.000000
,208.625000=110.000000
,208.750000=105.000000
,208.875000=100.000000
,209.000000=95.000000
,209.125000=90.000000
,209.250000=85.000000
,209.375000=80.000000
,209.500000=75.000000
,209.625000=70.000000
,209.750000=65.000000
,209.875000=60.000000
,210.000000=55.000000
,210.125000=50.000000
,210.250000=48.000000
,210.375000=45.000000
,210.500000=42.000000
,210.625000=41.000000
,210.750000=39.000000
,210.875000=37.000000
,211.000000=140.000000
,326.000000=35.000000
;
#STOPS:211.000000=0.429000
;
#BGCHANGES:;
#KEYSOUNDS:;
#ATTACKS:;

//---------------dance-single - ----------------
#NOTES:
     dance-single:
     Shortysnmn2010:
     Beginner:
     1:
     0.105704,0.159912,0.023366,0.101253,0.000000,95.000000,92.000000,3.000000,13.000000,0.000000,0.000000,0.105704,0.159912,0.023366,0.101253,0.000000,95.000000,92.000000,3.000000,13.000000,0.000000,0.000000:
0000
0000
0000
0000
,
0000
0000
0000
0000
,
0000
0000
0000
0000
,
0000
0000
0000
0000
,
0020
0000
0000
0000
,
0030
0000
0000
0000
,
1000
0000
0000
0000
,
0100
0000
0000
0000
,
2002
0000
0000
0000
,
3003
0000
0000
0000
,
0010
0000
0010
0000
,
0010
0000
0000
0000
,
0200
0000
0000
0000
,
0300
0000
0000
0000
,
1000
0000
0000
0000
,
0001
0000
0000
0000
,
0000
0100
0200
0000
,
0000
0000
0300
0000
,
0010
0000
0010
0000
,
0010
0000
0000
0000
,
0100
0000
0000
0000
,
0001
0000
0000
0000
,
0010
0000
0000
0000
,
0100
0000
0000
0000
,
0010
0000
0000
0000
,
0001
0000
0000
0000
,
0100
0000
0000
0000
,
0010
0000
0000
0000
,
0100
0000
0100
0000
,
0100
0000
0000
0000
,
0010
0000
0000
0000
,
1000
0000
0000
0000
,
0001
0000
0000
0000
,
1000
0000
0000
0000
,
0010
0000
0010
0000
,
0010
0000
0000
0000
,
0200
0000
0300
0000
,
0002
0000
0003
0000
,
0020
0000
0030
0000
,
0200
0000
0300
0000
,
1000
0000
1000
0000
,
0001
0000
0001
0000
,
1000
0000
1000
0000
,
0001
0000
0001
0000
,
1000
0000
0000
0000
,
0100
0000
0100
0000
,
0100
0000
0000
0000
,
0010
0000
0010
0000
,
0010
0000
0000
0000
,
0001
0000
0001
0000
,
0001
0000
0000
0000
,
1000
0000
0000
0000
,
2002
0000
3003
0000
,
1000
0000
0001
0000
,
1000
0000
0000
0000
,
0100
0000
0000
0000
,
0010
0000
0000
0000
,
0001
0000
1000
0000
,
0001
0000
0000
0000
,
0100
0000
0000
0000
,
0010
0000
0000
0000
,
0100
0000
0001
0000
,
0100
0000
0000
0000
,
0010
0000
0000
0000
,
1000
0000
0000
0000
,
0100
0000
0010
0000
,
0100
0000
0000
0000
,
0010
0000
0000
0000
,
0001
0000
0000
0000
,
1000
0000
0001
0000
,
1000
0000
0000
0000
,
0010
0000
0000
0000
,
0100
0000
0000
0000
,
0010
0000
0000
0000
,
0100
0000
0000
0000
,
0010
0000
0000
0000
,
1000
0000
0000
0000
,
0001
0000
0000
0000
,
0010
0000
0000
0000
,
0100
0000
0000
0000
,
1000
0000
0000
0000
,
0010
0000
0220
0000
,
0000
0330
0000
0000
0000
0000
0000
0000
;

//---------------dance-single - ----------------
#NOTES:
     dance-single:
     Shortysnmn2010:
     Easy:
     4:
     0.233661,0.351806,0.218084,0.319337,0.000000,210.000000,182.000000,28.000000,41.000000,0.000000,0.000000,0.233661,0.351806,0.218084,0.319337,0.000000,210.000000,182.000000,28.000000,41.000000,0.000000,0.000000:
0000
0000
0000
0000
,
0000
0000
0000
0000
,
0000
0000
0000
0000
,
0000
0000
0000
0000
,
0220
0000
0000
0000
,
0330
0000
0000
0000
,
2000
0000
3000
0000
,
0002
0000
0003
0000
,
2200
0000
0000
0000
,
0000
0000
3300
0000
,
0010
0000
0010
0000
,
0010
0000
0000
0000
,
0022
0000
0000
0000
,
0033
0000
0000
0000
,
0200
0000
0300
0000
,
0020
0000
0030
0000
,
0010
0100
2002
0000
,
0000
3003
0000
0000
,
1000
0000
0010
0000
,
1000
0000
0000
0000
,
1001
0000
1000
0000
,
0001
0000
1000
0000
,
1100
0000
1000
0000
,
0001
0000
0010
0000
,
0110
0000
0100
0000
,
1000
0000
1010
0000
,
0110
0000
0100
0000
,
0101
0000
0010
0000
,
0001
0000
1000
0000
,
0200
0000
0000
0000
,
0001
0000
0000
0000
,
1000
0000
0000
0000
,
0310
0000
0001
0100
,
0002
0000
0000
0000
,
0100
0000
0000
0000
,
0013
0000
0000
0000
,
2100
3000
0102
0003
,
2010
3000
0012
0003
,
2100
3000
0102
0003
,
2010
3000
0012
0003
,
0220
0000
0000
0000
,
0000
0000
0330
1000
,
0001
1000
0001
1000
,
0010
1000
0001
0100
,
0010
0220
0000
0330
,
1000
0100
0001
0100
,
1000
2020
0000
3030
,
0001
0100
1000
0100
,
0001
0022
0000
0033
,
0100
0010
0100
1000
,
0010
0100
0001
0010
,
0001
0100
0010
1000
,
2002
0000
0000
3003
,
0010
1000
0100
1000
,
0001
0000
0100
0001
,
0010
0100
0100
0010
,
0001
0000
0100
0000
,
0010
1000
0100
1000
,
0001
0000
0100
1000
,
0100
0001
1000
0001
,
0010
0000
0100
0000
,
1000
0100
1000
0001
,
0100
0001
0001
0010
,
0001
1000
0100
0010
,
0200
0300
2002
3003
,
1000
0010
1000
1000
,
0001
0100
1000
0100
,
0001
0001
0010
0001
,
2000
3000
2002
3003
,
0001
0100
0010
0100
,
0002
0003
1100
1100
,
1000
1000
1000
0010
,
0100
0100
0100
0001
,
0010
0010
0010
0001
,
0100
0100
0010
0010
,
1000
0000
0001
0000
,
0010
0000
0100
0100
,
1000
0000
0001
0000
,
0100
0000
0010
0010
,
0010
0000
1000
0000
,
0100
0000
1000
1000
,
0001
0000
0220
0000
,
0000
0330
0000
0000
0000
0000
0000
0000
;

//---------------dance-single - ----------------
#NOTES:
     dance-single:
     Shortysnmn2010:
     Medium:
     6:
     0.318224,0.383789,0.202506,0.272605,0.085676,286.000000,260.000000,26.000000,35.000000,0.000000,0.000000,0.318224,0.383789,0.202506,0.272605,0.085676,286.000000,260.000000,26.000000,35.000000,0.000000,0.000000:
0000
0000
0000
0000
,
0000
0000
0000
0000
,
0000
0000
0000
0000
,
0000
0000
0000
0000
,
2002
0000
0000
0000
,
3003
0000
0000
0000
,
0020
0000
0030
0000
,
2002
0000
3003
0000
,
0100
0000
0000
0010
0000
0000
0100
0000
,
0010
0000
0000
1000
,
0001
0000
0000
0001
1000
0000
0000
0000
,
0100
0010
0100
0000
,
0220
0000
0000
0000
,
0330
0000
0000
0000
,
0002
0000
0003
0000
,
2000
0000
3000
0000
,
0010
0100
0001
0000
,
1000
0000
0000
1000
,
0100
0000
0000
1000
0100
0000
1000
0000
,
0001
0000
0000
0000
,
1000
0100
0010
0001
,
1000
0001
0100
0000
,
0001
0100
0001
0000
,
1000
0100
1000
0000
,
0010
0100
0010
1000
,
0100
0010
0100
0000
,
0010
0001
0010
0000
,
0001
0100
0001
0000
,
1000
0001
0100
0001
,
1000
0010
1000
0001
,
0010
0001
1000
0100
,
0010
0100
1000
0000
,
0001
0100
0001
1000
,
0010
0001
0010
0100
,
0010
1000
0100
0010
,
0200
0000
0000
0300
,
1000
0000
0000
0001
0000
0000
0000
0000
1000
0000
0000
0100
0000
0000
0000
0000
,
1000
0000
0000
0010
0000
0000
0000
0000
0110
0000
0000
0110
0000
0000
0000
0000
,
0001
0000
0000
0100
0000
0000
0000
0000
0001
0000
0000
1000
0000
0000
0000
0000
,
0001
0000
0000
0010
0000
0000
0000
0000
0110
0000
0000
0110
0000
0000
0000
0000
,
1000
0000
0000
0001
0000
0000
0000
0000
0010
0000
0000
0001
0000
0000
0000
0000
,
0100
0000
0000
0010
0000
0000
0000
0000
1001
0000
0000
1001
0000
0000
0000
0000
,
0001
0000
0000
0010
0000
0000
0000
0000
0100
0000
0000
1000
0000
0000
0000
0000
,
0010
0000
0000
0100
0000
0000
0000
0000
1001
0000
0000
1001
0000
0000
0000
0000
,
1000
0001
1000
0002
0000
0000
0000
0000
0000
0003
0000
0000
,
0100
0010
1000
0100
,
0010
0100
0010
0200
0000
0000
0000
0000
0000
0300
0000
0000
,
1000
0001
0100
0001
,
0010
0001
0010
0002
0000
0000
0000
0000
0000
0003
0000
0000
,
1000
0010
0001
0010
,
0100
0010
1000
0100
,
0010
0100
0001
0100
,
2000
0000
0000
3000
,
0010
1000
0001
0100
,
2002
3003
0010
1000
,
0100
0000
0010
0001
1000
0000
0100
0000
,
0110
0000
0000
0001
0100
0000
0001
0000
,
1000
0100
0010
0001
,
0101
0000
0000
0010
1000
0000
0100
0000
,
1000
0000
0001
0100
0001
0000
1000
0000
,
0020
0030
0010
0010
,
1000
2100
3001
0012
,
1003
0000
0100
1000
0100
0000
1000
0000
,
0010
0000
0100
0010
0100
0000
0001
0000
,
2002
3003
0220
0330
,
1000
0102
1003
2010
,
3001
0000
0100
0001
1000
0000
0010
0000
,
1000
0000
0001
1000
0001
0000
0010
0000
,
0220
0330
2002
3003
,
0001
0100
0010
1000
,
0002
0003
0001
0001
,
1000
0100
1000
0100
,
1000
0010
1000
0010
,
0100
0010
0100
0010
,
0100
0001
0100
0001
,
0020
0030
0010
0010
,
0001
0000
0100
0000
0010
0100
0010
0100
,
0020
0030
1000
1000
,
0100
0000
0010
0000
0001
1000
0001
1000
,
0002
0003
1000
1000
,
0100
0010
0011
1100
,
1001
0000
0220
0000
,
0000
0330
0000
0000
0000
0000
0000
0000
;

//---------------dance-single - ----------------
#NOTES:
     dance-single:
     Shortysnmn2010:
     Hard:
     9:
     0.486238,0.639648,0.389435,0.288182,0.186929,437.000000,387.000000,50.000000,37.000000,0.000000,0.000000,0.486238,0.639648,0.389435,0.288182,0.186929,437.000000,387.000000,50.000000,37.000000,0.000000,0.000000:
0000
0000
0000
0000
,
0000
0000
0000
0000
,
0000
0000
0000
0000
,
0000
0000
0000
0000
,
1000
0000
0000
0001
0000
0000
1000
0000
,
0200
0300
0000
2000
,
3010
0000
0000
0010
1000
0000
0000
0000
,
0011
0000
0011
0000
,
0100
0000
0000
1000
0000
0000
0010
0000
,
2000
3000
0000
0002
,
0013
0000
0000
0001
0100
0000
0000
0000
,
0001
1000
0100
0000
,
1000
0000
0000
0010
0000
0000
0001
0000
,
0020
0030
0000
0200
,
0301
0000
0000
0001
0010
0000
0000
0000
,
0011
0000
0011
0000
,
0100
1000
0010
0100
,
0020
0030
0000
0200
,
0310
0000
0000
0100
0010
0000
0100
0000
,
0001
1000
0100
0000
,
1000
0100
1000
0001
1000
0100
1000
0000
,
0001
0100
0001
1000
0001
0100
0001
0000
,
0010
0100
0010
0001
0010
0100
0010
0000
,
0100
1000
0100
0010
0100
1000
0100
0000
,
1000
0100
1000
0000
0001
0100
0001
0000
,
0010
0100
1000
0000
0010
0001
0010
0000
,
0100
0001
0010
0000
0100
1000
0001
0000
,
0100
0001
1000
0000
0010
0100
0010
0000
,
1000
0010
1000
0010
0100
0001
0010
0001
,
0100
0010
0100
0010
1000
0001
0010
1000
,
0001
0100
0001
0100
0010
0001
0100
0010
,
1000
0001
1000
0001
0100
0010
0100
0001
,
1000
0100
1000
0100
0001
0100
0010
0100
,
1000
0010
1000
0010
0100
0010
0001
0010
,
0100
0001
0100
0001
0010
0100
1000
0001
,
4000
0004
0000
0000
0000
0000
0000
0000
0000
0000
3003
0000
0000
0000
0000
0000
,
1000
0000
0000
1100
0000
0000
0000
0000
0001
0000
0000
0101
0000
0000
0000
0000
,
0010
0000
0000
0110
0000
0000
0000
0000
1000
0000
0000
1001
0000
0000
0000
0000
,
0010
0000
0000
0101
0000
0000
0000
0000
0001
0000
0000
1100
0000
0000
0000
0000
,
0010
0000
0000
1001
0000
0000
0000
0000
0100
0000
0000
1010
0000
0000
0000
0000
,
2001
0000
0000
0001
0000
0000
0000
0000
0010
0000
0000
0010
0000
0000
0000
0000
,
0100
0000
0000
3100
0000
0000
0000
0000
0110
0000
0000
0110
0000
0000
0000
0000
,
0102
0000
0000
0100
0000
0000
0000
0000
1000
0000
0000
1000
0000
0000
0000
0000
,
0010
0000
0000
0013
0000
0000
0000
0000
0110
0000
0000
0110
0000
0000
0000
0000
,
1000
0100
1000
0001
0100
0001
1000
0010
1000
0001
0000
0000
,
1100
0011
0110
1001
,
1000
0010
1000
0001
0100
0001
0010
0100
0010
0001
0000
0000
,
0101
0110
1010
1001
,
0001
0100
0001
0010
0100
0010
0001
1000
0001
0100
0000
0000
,
0110
1100
0101
1001
,
0102
0010
0100
0103
,
2010
0100
0010
3010
,
0220
0000
0330
0000
,
1000
0000
0000
0000
0001
0010
0001
0010
0001
0000
0000
0000
0100
0000
0000
0000
,
0202
0303
0010
1000
,
0100
0000
0000
0000
1000
0010
1000
0010
1000
0000
0000
0000
0010
0000
0000
0000
,
0220
0000
0000
0330
0000
0000
0100
0000
0002
0000
0000
0000
0003
0000
0000
0000
,
0010
0000
0000
0000
0100
1000
0100
1000
0100
0000
0000
0000
1000
0000
0000
0000
,
0220
0000
0000
0330
0000
0000
0001
0000
1000
0000
0000
0000
0010
0000
0000
0000
,
0100
0000
0000
0000
0001
1000
0001
1000
0001
0000
0000
0000
0010
0000
0000
0000
,
0120
0000
0000
0000
0130
0000
0000
0000
1000
0000
0001
0000
1000
0100
0010
0100
,
2000
3001
0102
1003
,
1010
0000
0000
0000
0100
0000
0100
0000
0001
0000
0010
0000
0001
0000
1000
0001
,
1000
0000
0001
0010
0001
0000
0100
0000
,
0020
0030
2002
3003
,
0012
1003
2010
3001
,
0101
0000
0000
0000
1000
0000
1000
0000
0100
0000
0010
0000
0100
0000
1000
0010
,
1000
0000
0010
0100
0001
0000
0010
0000
,
0004
4000
0000
0000
0000
0000
0000
0000
0000
0000
0000
0000
3003
0000
0000
0000
,
0001
0010
0100
1000
,
0020
0000
0100
0130
,
0001
1000
0001
1000
0001
1000
0100
0010
,
0001
0100
0001
0100
0001
0100
0010
1000
,
0100
0010
0100
0010
0100
0010
0001
1000
,
0010
0001
0010
0001
1000
0100
1000
0100
,
0002
0000
0010
0010
,
1003
0000
1100
0000
0010
0001
0010
0001
,
2000
0000
0100
0100
,
3001
0000
0101
0000
0010
1000
0010
1000
,
0002
0000
0100
0100
,
1003
1100
0011
0011
,
2200
3300
0220
0000
,
0000
0330
0000
0000
0000
0000
0000
0000
;

//---------------dance-single - ----------------
#NOTES:
     dance-single:
     Shortysnmn2010:
     Challenge:
     10:
     0.718786,0.862210,0.303760,0.327126,0.751610,646.000000,607.000000,39.000000,42.000000,0.000000,0.000000,0.718786,0.862210,0.303760,0.327126,0.751610,646.000000,607.000000,39.000000,42.000000,0.000000,0.000000:
// measure 0
0000
0000
0000
0000
,  // measure 1
0000
0000
0000
0000
,  // measure 2
0000
0000
0000
0000
,  // measure 3
0000
0000
0000
0000
,  // measure 4
1000
0000
0100
1000
0100
0000
0010
0000
0000
0000
0000
0000
0001
0000
0000
0000
,  // measure 5
0100
0000
0000
0000
0001
0000
0000
0000
0100
0000
0000
0000
0010
0000
0000
0000
0000
0000
0000
0000
0000
0000
0000
0000
0000
0000
0000
0000
0000
0000
0000
0000
0000
0000
0000
0000
1000
0000
0000
0100
0000
0000
0010
0000
0000
0001
0000
0000
,  // measure 6
1000
0000
0000
1000
0100
0000
0000
0000
,  // measure 7
1000
0010
1000
0010
0000
0000
0100
0001
0100
0010
0100
0001
,  // measure 8
0010
0000
0100
0010
0100
0000
1000
0000
0000
0000
0000
0000
1001
0000
0000
0000
,  // measure 9
1000
0000
0000
0000
0100
0000
0000
0000
1000
0000
0000
0000
0001
0000
0000
0000
0000
0000
0000
0000
0000
0000
0000
0000
0000
0000
0000
0000
0000
0000
0000
0000
0000
0000
0000
0000
0100
0000
0000
0001
0000
0000
0100
0000
0000
0010
0000
0000
,  // measure 10
1000
0000
0000
0001
1000
0000
0000
0000
,  // measure 11
1001
0000
0000
1000
0100
1000
0001
0010
0001
1000
0010
1000
,  // measure 12
0001
0000
0010
0001
0010
0000
0100
0000
0000
0000
0000
0000
1000
0000
0000
0000
,  // measure 13
0010
0000
0000
0000
1000
0000
0000
0000
0010
0000
0000
0000
0100
0000
0000
0000
0000
0000
0000
0000
0000
0000
0000
0000
0000
0000
0000
0000
0000
0000
0000
0000
0000
0000
0000
0000
0001
0000
0000
0100
0000
0000
0001
0000
0000
0100
0000
0000
,  // measure 14
0010
0000
0000
0100
0001
0000
0000
0000
,  // measure 15
1000
0100
1000
0100
0000
0000
1000
0001
1000
0010
1000
0010
,  // measure 16
0100
0000
0010
0100
0001
0000
1000
0000
0000
0000
0000
0000
0100
0000
0000
0000
,  // measure 17
1000
0000
0000
0000
0001
0000
0000
0000
1000
0000
0000
0000
0001
0000
0000
0000
0000
0000
0000
0000
0000
0000
0000
0000
0000
0000
0000
0000
0000
0000
0000
0000
0000
0000
0000
0000
1000
0000
0000
0010
0000
0000
1000
0000
0000
0001
0000
0000
,  // measure 18
0010
0000
0000
0000
0000
0000
0000
0000
0000
0100
0000
0000
1000
0000
0000
0000
0000
0000
0001
0000
1000
0000
0001
0000
,  // measure 19
1000
0001
1000
0001
1000
0001
1000
0001
1000
0001
1000
0001
,  // measure 20
1000
0100
1000
0100
0010
0100
1000
0100
,  // measure 21
0001
0100
0010
0100
1000
0100
1000
0100
,  // measure 22
0001
1000
0010
1000
0001
1000
0010
0001
,  // measure 23
0100
0001
1000
0001
0010
0100
1000
0001
,  // measure 24
0100
0010
0001
0010
0001
0010
1000
0010
,  // measure 25
0100
0010
0001
0010
0001
0010
0100
0010
,  // measure 26
0001
1000
0100
1000
0001
0010
1000
0100
,  // measure 27
0010
0000
0001
0000
1000
0000
0001
0000
1000
0001
1000
0000
0001
1000
0001
0000
,  // measure 28
0200
0010
0310
1000
0002
0010
0013
0100
,  // measure 29
2000
0100
3100
0010
0001
0100
0001
0010
,  // measure 30
0100
1000
0010
0100
1000
0100
0001
1000
,  // measure 31
0100
0010
0100
1000
0010
0100
0001
0000
,  // measure 32
1000
0000
0001
0000
0100
0010
0100
0000
0001
0000
1000
0000
0100
0010
0100
0000
,  // measure 33
1000
0000
0001
0000
0010
0100
0010
0000
0001
0000
1000
0000
0010
0100
0010
0000
,  // measure 34
1000
0001
1000
0001
0100
0001
1000
0001
,  // measure 35
0010
0100
0010
0100
0010
0100
0010
0100
0010
0100
0010
0100
,  // measure 36
1000
0000
0000
1010
0000
0000
0100
0001
0100
0000
0000
0110
0000
0000
0001
1000
,  // measure 37
0100
0000
0000
0011
0000
0000
0100
1000
0001
0000
0000
0110
0000
0000
1000
0010
,  // measure 38
0100
0000
0000
1001
0000
0000
0010
1000
0100
0000
0000
1001
0000
0000
0010
0001
,  // measure 39
1000
0000
0000
0011
0000
0000
0100
1000
0010
0000
0000
1001
0000
0000
0010
1000
,  // measure 40
0001
0100
0001
0100
0001
0100
0001
0100
0001
0100
0010
1000
,  // measure 41
0001
0000
0010
0000
0001
0000
0010
0000
0001
0000
0010
0000
0001
0000
0010
0000
0001
0000
0010
0000
0100
0010
0100
0010
,  // measure 42
0200
0001
0010
1300
,  // measure 43
1020
0100
0001
0130
,  // measure 44
1000
0100
1000
0001
0100
0001
1000
0010
1000
0001
0010
0001
,  // measure 45
0200
0010
0310
2000
0010
3010
0200
0010
0310
2000
0000
3000
,  // measure 46
0001
0010
0001
1000
0100
1000
0010
0100
0010
1000
0100
1000
,  // measure 47
0002
0100
0103
0020
0100
0130
0002
0100
0103
0020
0000
0030
,  // measure 48
1000
0100
1000
0010
0100
0010
1000
0001
1000
0100
0010
0100
,  // measure 49
2000
0001
3001
0200
0001
0301
2000
0001
3001
0100
0000
0000
,  // measure 50
0010
1000
0001
0010
0100
1000
0010
0100
0001
0010
0001
1000
,  // measure 51
0010
0100
0001
0010
0100
1000
0010
1000
0001
0010
0000
0000
,  // measure 52
2002
0000
0000
0000
0000
0000
0000
0000
0000
0000
0000
0000
0000
0000
0000
0000
0000
0000
0000
3003
0000
0000
0000
0000
,  // measure 53
1000
0000
0000
0000
0000
0000
0000
0000
0000
0000
0000
0000
0001
0000
0000
0100
0000
0000
0010
0000
0000
0100
0000
0000
0001
0000
0000
0000
0000
0000
0000
0000
0000
0000
0000
0000
1000
0000
0000
0000
0000
0000
0100
0000
1000
0000
0100
0000
,  // measure 54
2000
0000
0000
0000
0000
0000
3000
0000
0000
0001
1000
0001
1000
0000
0000
0000
0000
0000
1010
0000
0000
0000
0000
0000
,  // measure 55
0110
0000
0000
0000
0000
0000
0000
0000
0000
0000
0000
0000
0001
0000
0000
1000
0000
0000
0100
0000
0000
0010
0000
0000
0100
0000
0000
0000
0000
0000
0000
0000
0000
0000
0000
0000
1000
0000
0000
0000
0000
0000
0001
0000
0010
0000
0001
0000
,  // measure 56
0020
0000
0000
0000
0000
0000
0030
0000
0000
0001
1000
0001
1000
0000
0000
0010
0000
0000
2000
0000
0000
0000
0000
0000
,  // measure 57
3100
0000
0000
0000
0000
0000
0000
0000
0000
0000
0000
0000
0010
0000
0000
0001
0000
0000
0100
0000
0000
0001
0000
0000
1000
0000
0000
0000
0000
0000
0000
0000
0000
0000
0000
0000
0010
0000
0000
0000
0000
0000
0100
0000
0010
0000
0100
0000
,  // measure 58
0020
0000
0000
0000
0000
0000
0030
0000
0000
1000
0001
1000
0001
0000
0000
0000
0000
0000
0101
0000
0000
0000
0000
0000
,  // measure 59
0110
0000
0000
0000
0000
0000
0000
0000
0000
0000
0000
0000
1000
0000
0000
0100
0000
0000
0010
0000
0000
0001
0000
0000
1000
0000
0000
0000
0000
0000
0000
0000
0000
0000
0000
0000
0010
0000
0000
0000
0000
0000
1000
0000
0001
0000
1000
0000
,  // measure 60
0002
0000
0000
0000
0000
0000
0000
0000
0000
0000
0000
0000
0103
0000
0000
0000
0000
0000
0001
0000
1000
0000
0001
0000
1000
0000
0000
0000
0000
0000
0100
0000
0000
0000
0000
0000
0010
0000
0000
0100
0000
0000
1000
0000
0000
0100
0000
0000
,  // measure 61
0010
0000
2100
0000
3001
0100
0101
0000
,  // measure 62
0210
0000
0000
0000
0301
0000
1000
0000
0200
0000
0010
0000
0310
0000
0001
1000
,  // measure 63
0001
0000
0100
0010
2000
0001
3001
0000
,  // measure 64
0022
0000
0000
0000
0033
0000
0000
0000
0100
1000
0100
1000
0001
0100
0001
0100
,  // measure 65
0010
0000
2010
0000
3001
0010
0011
0000
,  // measure 66
0210
0000
0000
0000
1300
0000
0001
0000
0200
0000
0010
0000
0310
0000
1000
0001
,  // measure 67
1000
0010
0001
0010
1000
0000
1001
0000
,  // measure 68
0001
0010
0001
0010
0100
1000
0100
1000
0001
0100
0001
0100
0010
1000
0010
1000
,  // measure 69
0001
0102
0010
0103
,  // measure 70
2002
0003
0100
3100
,  // measure 71
0010
0001
0010
0001
0010
0001
0100
1000
,  // measure 72
0001
0010
0001
0010
0001
0010
1000
0100
,  // measure 73
0010
1000
0010
1000
0010
1000
0001
0100
,  // measure 74
1000
0010
1000
0010
0100
0001
0100
0001
,  // measure 75
2000
3000
1001
0101
,  // measure 76
1001
0000
1100
0000
0010
0001
1000
0010
,  // measure 77
0200
0300
0110
1010
,  // measure 78
1100
0000
0110
0000
0001
1000
0010
0100
,  // measure 79
0002
0003
0011
0101
,  // measure 80
0110
1010
2100
0001
,  // measure 81
0020
0000
0000
0000
0000
0000
3030
0000
0000
1000
0001
0200
0020
0000
0000
0000
0000
0000
0000
0000
0000
0000
0000
0000
,  // measure 82
0330
0000
0000
0000
;
