#TITLE:Tarzan & Jane;
#SUBTITLE:;
#ARTIST:Toy-Box;
#TITLETRANSLIT:;
#SUBTITLETRANSLIT:;
#ARTISTTRANSLIT:;
#GENRE:;
#CREDIT:;
#BANNER:;
#BACKGROUND:;
#LYRICSPATH:;
#CDTITLE:;
#MUSIC:Tarzan & Jane.mp3;
#OFFSET:-0.059000;
#SAMPLESTART:42.632000;
#SAMPLELENGTH:13.596999;
#SELECTABLE:YES;
#BPMS:0.000000=141.000000
;
#STOPS:
;
#BGCHANGES:;
#KEYSOUNDS:;
#ATTACKS:;

//---------------dance-single - ----------------
#NOTES:
     dance-single:
     Shortysnmn2010:
     Beginner:
     1:
     0.134693,0.174821,0.034920,0.000000,0.000000,108.000000,104.000000,4.000000,0.000000,0.000000,0.000000,0.134693,0.174821,0.034920,0.000000,0.000000,108.000000,104.000000,4.000000,0.000000,0.000000,0.000000:
0000
0000
0000
0000
,
0000
0000
0000
0000
,
0000
0000
0000
0000
,
0000
0000
0000
0000
,
1000
0000
0100
0000
,
0010
0000
0001
0000
,
1000
0000
0000
0000
,
0001
0000
0000
0000
,
0110
0000
0000
0000
,
0001
0000
0100
0000
,
0100
0000
0001
0000
,
1000
0000
0000
0000
,
0001
0000
0000
0000
,
1000
0000
0100
0000
,
0010
0000
0010
0000
,
0100
0000
0000
0000
,
0010
0000
0000
0000
,
0001
0000
0001
0000
,
1000
1000
1000
0000
,
0001
0000
0000
0000
,
1000
0000
0000
0000
,
0010
0000
0100
0000
,
0010
0010
0010
0000
,
0100
0000
0000
0000
,
0010
0000
0000
0000
,
0100
0000
0001
0000
,
0100
0000
0001
0000
,
1000
0000
0100
0000
,
1000
0000
0000
0000
,
0001
0000
0010
0000
,
0001
0000
0010
0000
,
0001
0000
1000
0000
,
0010
0000
0000
0000
,
0110
0000
0000
0000
,
0100
0000
0001
0000
,
1000
1000
1000
0000
,
0010
0000
0000
0000
,
0100
0000
0000
0000
,
0001
0000
1000
0000
,
0100
0100
0100
0000
,
0010
0000
0000
0000
,
0100
0000
0000
0000
,
1000
0000
0100
0000
,
0010
0000
0001
0000
,
1000
0000
0000
0000
,
0001
0000
0000
0000
,
1000
0000
0010
0000
,
0100
0000
0001
0000
,
1000
0000
0000
0000
,
0110
0000
0000
0000
,
0001
0000
0001
0000
,
0001
0001
0001
0000
,
1000
0000
0100
0000
,
1000
0000
0000
0000
,
0010
0000
0010
0000
,
0010
0010
0010
0000
,
0100
0000
0010
0000
,
0100
0000
0000
0000
,
0001
0000
1000
0000
,
0100
0000
0000
0000
,
0010
0000
0100
0000
,
1000
0000
0000
0000
,
0010
0000
0100
0000
,
0001
0000
0000
0000
,
1000
0000
0100
0000
,
0001
0000
0000
0000
,
0001
0000
0000
1001
;

//---------------dance-single - ----------------
#NOTES:
     dance-single:
     Shortysnmn2010:
     Hard:
     8:
     0.456460,0.495325,0.209523,0.270634,0.183332,366.000000,342.000000,24.000000,31.000000,0.000000,0.000000,0.456460,0.495325,0.209523,0.270634,0.183332,366.000000,342.000000,24.000000,31.000000,0.000000,0.000000:
0000
0000
0000
0000
,
0000
0000
0000
0000
,
0000
0000
0000
0000
,
0000
0000
0000
0000
,
1000
1100
0001
1100
,
0001
0000
0000
0100
0010
0000
1000
0000
0001
0000
0000
0000
0100
0000
0010
0000
,
0100
0000
0001
0010
0001
0000
1000
0000
,
0010
0000
0000
1000
0001
0000
0100
0000
1001
0000
0000
0000
0000
0000
0000
0000
,
0220
0000
0330
1001
,
1000
0010
0100
1000
0100
0001
0010
0100
,
0010
0001
1000
0100
0020
0000
0030
0000
,
0001
0000
0101
0000
0010
1000
0100
0000
,
0020
0000
0100
0200
0000
0330
0000
0000
,
0001
1000
0010
0001
0010
0100
0001
0010
,
0001
1000
0100
0010
0200
0000
0300
0000
,
1000
0000
1010
0000
0100
0001
0010
0000
,
0200
0000
0010
0020
0000
0330
0000
0000
,
1000
0000
0000
0100
0000
0000
0010
0000
0001
0000
0000
0100
0000
0000
0010
0000
,
0100
0000
0000
0001
0000
0000
0010
0000
0200
0000
0000
0000
0300
0000
0000
0000
,
1000
0000
0000
0010
0000
0000
1000
0000
0001
0000
0000
0100
0000
0000
1000
0000
,
0200
0000
0001
0002
0000
0303
0000
0000
,
0010
0000
0000
1000
0000
0000
0001
0000
0010
0000
0000
0001
0000
0000
1000
0000
,
0100
0000
0000
1000
0000
0000
0001
0000
0200
0000
0000
0000
0300
0000
0010
0000
,
1000
0001
0010
0001
1000
0000
1001
0000
,
0220
0000
0000
0330
0000
0110
0110
0000
,
0100
0000
0000
0001
0100
0000
0001
0000
0100
0000
0000
0001
0010
0000
0001
0000
,
0010
0000
0000
0100
0010
0000
0100
0000
1000
0000
0000
0000
0001
0000
0100
0000
,
0001
0000
0010
0100
0001
0000
0100
0000
,
1000
0001
0100
0001
2000
0000
3000
0000
,
0010
0000
0000
1000
0010
0000
1000
0000
0100
0000
0000
1000
0100
0000
1000
0000
,
0001
0000
0000
0100
0001
0000
0100
0000
0010
0000
0000
0000
0100
0000
0001
0000
,
0010
0000
0001
1000
0100
0000
0010
0000
,
0100
0000
0000
1000
0010
0000
0100
0000
1001
0000
0000
0000
0000
0000
0000
0000
,
0220
0000
0330
1001
,
0001
0100
0010
0100
0001
0010
0100
0010
,
1000
0010
0001
1000
0002
0000
0003
0000
,
0100
0000
0010
1000
0100
0000
0001
0100
,
2000
0000
0001
0002
0000
3003
0000
0000
,
1000
0010
0100
0010
1000
0100
0010
0100
,
0001
0100
1000
0001
0200
0000
0300
0000
,
0010
0000
1000
0000
1001
0000
0001
0010
,
0200
0000
0010
0020
0000
0330
0000
0000
,
0100
0000
0000
1000
0000
0000
0010
0000
1000
0000
0000
0001
0000
0000
0100
0000
,
0001
0000
0000
0010
0000
0000
0001
0000
2000
0000
0000
0000
3000
0000
0000
0000
,
0100
0000
0000
0010
0000
0000
0100
0000
1000
0000
0000
0010
0000
0000
1000
0000
,
0020
0000
0001
0002
0000
0033
0000
0000
,
0010
0000
0000
0100
0000
0000
0001
0000
0010
0000
0000
0001
0000
0000
0100
0000
,
0010
0000
0000
0001
0000
0000
0010
0000
0200
0000
0000
0000
0300
0000
0010
0000
,
1000
0001
0010
0001
1000
0000
0100
0000
,
0220
0000
0000
0330
0000
0110
0110
0000
,
0100
0000
0000
1000
0100
0000
1000
0000
0100
0000
0000
1000
0001
0000
1000
0000
,
0001
0000
0000
0100
0001
0000
0100
0000
0010
0000
0000
0000
0100
0000
0001
0000
,
0010
0000
0001
1000
0100
0000
0010
0000
,
1000
0010
0001
0010
2000
0000
3000
0000
,
0010
0000
0000
0001
0010
0000
0001
0000
1000
0000
0000
0001
1000
0000
0001
0000
,
0100
0000
0000
0010
0100
0000
0001
0000
0010
0000
0000
0000
0100
0000
1000
0000
,
0010
0000
0100
0001
1000
0000
0010
0000
,
0100
0000
0000
0001
0010
0000
0100
0000
1001
0000
0000
0000
0000
0000
0000
0000
,
1000
0000
0000
1000
0000
0000
0100
0000
1000
0000
0000
1010
0000
0000
1000
0000
,
0100
0000
0000
0010
0100
0000
1000
0000
0010
0000
0000
0000
0110
0000
0000
0000
,
0100
0000
0001
0000
0010
0000
0001
0000
0000
0010
0000
0001
0010
0000
0010
0000
,
0000
0001
0100
0001
0000
0010
0100
0010
,
0001
0000
0000
0001
0000
0000
0100
0000
0001
0000
0000
0011
0000
0000
0001
0000
,
0100
0000
0000
0010
0100
0000
0001
0000
0010
0000
0000
0000
0110
0000
0000
0000
,
0100
0000
1000
0000
0010
0000
1000
0000
0000
0100
0000
1000
0100
0000
0100
0000
,
0000
1000
0010
1000
0000
0001
1000
0001
,
0020
0000
0000
0000
0000
0030
1001
0000
;

//---------------dance-single - ----------------
#NOTES:
     dance-single:
     Shortysnmn2010:
     Easy:
     3:
     0.172108,0.203957,0.061111,0.017460,0.000000,138.000000,131.000000,7.000000,2.000000,0.000000,0.000000,0.172108,0.203957,0.061111,0.017460,0.000000,138.000000,131.000000,7.000000,2.000000,0.000000,0.000000:
// measure 0
0000
0000
0000
0000
,  // measure 1
0000
0000
0000
0000
,  // measure 2
0000
0000
0000
0000
,  // measure 3
0000
0000
0000
0000
,  // measure 4
1000
0000
0100
0000
,  // measure 5
0010
0000
0001
0000
,  // measure 6
0100
0000
0000
0000
,  // measure 7
0010
0000
0000
0000
,  // measure 8
1001
0000
0000
0110
,  // measure 9
0100
0000
0001
0000
,  // measure 10
0010
0010
0010
0000
,  // measure 11
0100
0000
1000
0000
,  // measure 12
0001
0000
0000
0001
0000
0000
0000
0000
,  // measure 13
1000
0000
0010
0000
,  // measure 14
0100
0100
0100
0000
,  // measure 15
0001
0000
1000
0000
,  // measure 16
0100
0000
0000
0100
0000
0000
0000
0000
,  // measure 17
1000
0000
1000
0000
,  // measure 18
0001
0000
0001
0000
,  // measure 19
1000
0000
0001
0000
,  // measure 20
1000
0000
1001
0000
,  // measure 21
0001
0000
1000
0000
,  // measure 22
0001
0000
0001
0000
,  // measure 23
1000
0001
1000
1000
,  // measure 24
0002
0000
0003
0000
,  // measure 25
0100
0000
0010
0000
,  // measure 26
0100
0100
0100
0000
,  // measure 27
0010
0000
1000
0000
,  // measure 28
0100
0000
0100
0000
,  // measure 29
0010
0000
0100
0000
,  // measure 30
1000
1000
1000
0000
,  // measure 31
0010
0000
0100
0000
,  // measure 32
0001
0000
0010
0000
,  // measure 33
0110
0000
0000
0010
,  // measure 34
0010
0000
0001
0000
,  // measure 35
0100
0001
0100
0000
,  // measure 36
0010
0000
1000
0000
,  // measure 37
0001
0000
0000
0001
0000
0000
0000
0000
,  // measure 38
1000
0000
0100
0000
,  // measure 39
0001
0100
1000
0000
,  // measure 40
0001
0000
0100
0000
,  // measure 41
0010
0000
0000
0010
0000
0000
0000
0000
,  // measure 42
0100
0000
0010
0000
,  // measure 43
0100
0000
0100
0000
,  // measure 44
0010
0000
0100
0000
,  // measure 45
0010
0000
0110
0000
,  // measure 46
0100
0000
0100
0000
,  // measure 47
0010
0000
0010
0000
,  // measure 48
0100
0010
0100
0100
,  // measure 49
0020
0000
0030
0000
,  // measure 50
0100
0000
0001
0000
,  // measure 51
1000
0100
1000
0000
,  // measure 52
0010
0000
1000
0000
,  // measure 53
0100
0000
0000
0000
,  // measure 54
0010
0000
0001
0000
,  // measure 55
1000
0001
0100
0000
,  // measure 56
0001
0000
0010
0000
,  // measure 57
0001
0000
0100
0000
,  // measure 58
0110
0000
0010
0000
,  // measure 59
0010
0000
0000
0000
,  // measure 60
1000
0000
0001
0000
,  // measure 61
1000
0000
0001
0000
,  // measure 62
0010
0000
0100
0000
,  // measure 63
0010
0000
0000
0000
,  // measure 64
0100
0000
1000
0000
,  // measure 65
0100
0000
0100
0000
,  // measure 66
1000
0000
0000
1001
;

//---------------dance-single - ----------------
#NOTES:
     dance-single:
     Shortysnmn2010:
     Medium:
     5:
     0.314284,0.349641,0.130952,0.043651,0.000000,252.000000,237.000000,15.000000,5.000000,0.000000,0.000000,0.314284,0.349641,0.130952,0.043651,0.000000,252.000000,237.000000,15.000000,5.000000,0.000000,0.000000:
// measure 0
0000
0000
0000
0000
,  // measure 1
0000
0000
0000
0000
,  // measure 2
0000
0000
0000
0000
,  // measure 3
0000
0000
0000
0000
,  // measure 4
1000
0100
1000
0001
,  // measure 5
0100
0000
0010
0100
0010
0000
0000
0000
,  // measure 6
1000
0100
0001
0100
,  // measure 7
1000
0001
1001
0000
,  // measure 8
0110
0000
0000
0010
,  // measure 9
1000
0100
0010
0001
,  // measure 10
1000
0001
1000
0000
0001
0000
0000
0000
,  // measure 11
0100
0010
0100
0001
,  // measure 12
0010
0000
0001
1000
0000
0000
0000
0000
,  // measure 13
0010
1000
0100
0010
,  // measure 14
1000
0000
0010
0100
0010
0000
0000
0000
,  // measure 15
0100
1000
0010
0100
,  // measure 16
0010
0000
0100
0010
0000
0000
0000
0000
,  // measure 17
0100
0101
0001
0101
,  // measure 18
0100
0000
0010
0100
0010
0000
0000
0000
,  // measure 19
1000
0100
1100
1000
,  // measure 20
0010
0000
1000
0100
0000
0000
0000
0000
,  // measure 21
1000
1010
0010
1010
,  // measure 22
1000
0000
0100
1000
0100
0000
0000
0010
,  // measure 23
0001
0100
1000
0100
,  // measure 24
0002
0000
0000
1003
,  // measure 25
0100
1000
0010
1000
,  // measure 26
0001
0000
0100
0001
0010
0000
0000
0000
,  // measure 27
0001
1000
0100
1000
,  // measure 28
0010
1000
0010
0000
0100
0000
0000
0000
,  // measure 29
0001
1000
0010
1000
,  // measure 30
0001
0000
0010
0100
0010
0000
0000
0000
,  // measure 31
0001
0000
1000
0010
1000
0000
0100
0000
,  // measure 32
0010
0001
0100
0000
,  // measure 33
0110
0000
0000
0010
,  // measure 34
1000
0001
0010
0001
,  // measure 35
1000
0000
0100
1000
0100
0000
0000
0000
,  // measure 36
1000
0001
0100
0001
,  // measure 37
1000
0000
0010
0100
0000
0000
0000
0000
,  // measure 38
0001
0010
0001
0100
,  // measure 39
0010
0000
0100
0010
0100
0000
0000
0000
,  // measure 40
0001
1000
0100
0010
,  // measure 41
0100
0000
1000
0100
0000
0000
0000
0000
,  // measure 42
1000
1001
0001
1001
,  // measure 43
1000
0000
0010
1000
0100
0000
0000
0000
,  // measure 44
1000
0001
0011
0001
,  // measure 45
0100
0000
0010
0100
0000
0000
0000
0000
,  // measure 46
0001
1001
1000
1001
,  // measure 47
1000
0000
0100
0010
0001
0000
0000
0010
,  // measure 48
0001
0100
1000
0100
,  // measure 49
0020
0000
0000
0130
,  // measure 50
0001
1000
0100
1000
,  // measure 51
0001
0000
0100
0001
1000
0000
0000
0000
,  // measure 52
0100
1000
0010
0100
,  // measure 53
0010
0100
0010
0000
0100
0000
0000
0000
,  // measure 54
0001
1000
0010
1000
,  // measure 55
0100
0000
1000
0010
1000
0000
0000
0000
,  // measure 56
0100
0010
0100
1000
,  // measure 57
0001
0000
0100
0001
0100
0000
0000
0000
,  // measure 58
0002
1000
0100
1003
,  // measure 59
0010
0000
1000
0100
1000
0000
0000
0000
,  // measure 60
1000
0001
1000
0010
,  // measure 61
1000
0001
0100
0110
,  // measure 62
2000
0001
0010
3001
,  // measure 63
0100
0000
0010
1000
0100
0000
0000
0000
,  // measure 64
1000
0100
0010
0001
,  // measure 65
1000
0001
0100
0010
,  // measure 66
2000
0000
3000
0110
;
