#TITLE:Swag;
#SUBTITLE:;
#ARTIST:Lindsey Stirling;
#TITLETRANSLIT:;
#SUBTITLETRANSLIT:;
#ARTISTTRANSLIT:;
#GENRE:;
#CREDIT:;
#MUSIC:Swag.mp3;
#BANNER:;
#BACKGROUND:;
#CDTITLE:;
#SAMPLESTART:95.046;
#SAMPLELENGTH:18.545;
#SELECTABLE:YES;
#OFFSET:-0.137;
#BPMS:0.000=110.000
,46.500=36.667
,47.000=110.000
,79.000=55.000
,81.750=11.000
,82.000=110.000
,128.500=36.667
,129.000=110.000
,161.000=55.000
,163.750=11.000
,164.000=110.000
;
#STOPS:228.000=1.636
,229.000=1.091
;
#BGCHANGES:;
#FGCHANGES:;

//--------------- dance-single - ----------------
#NOTES:
     dance-single:
     Shortysnmn2010:
     Beginner:
     1:
     0.099776,0.126821,0,0.051463,0,95,95,0,7,0,0,0.099776,0.126821,0,0.051463,0,95,95,0,7,0,0:
0000
0000
0000
0000
,
0000
0000
0000
0000
,
0000
0000
0000
0000
,
0000
0000
0000
0000
,
2000
3000
0002
0003
,
0010
0000
0010
0000
,
0100
0000
0000
0000
,
1000
0000
0000
0000
,
0001
0000
0010
0000
,
0001
0000
0000
0000
,
1000
0000
0000
0000
,
0010
0000
0010
0010
,
0000
1000
0000
0010
,
0000
1000
0000
1000
,
0000
0000
0000
0001
,
0000
0000
0000
0010
,
0000
0001
0000
0010
,
0000
0001
0000
0001
,
0000
0000
0000
1000
,
0000
0000
0000
0010
,
0010
0010
1000
0000
,
0001
0000
1000
0000
,
0000
0000
0100
0000
,
0010
0000
0100
0000
,
0000
0000
2000
3000
,
1000
0000
2000
3000
,
1000
0000
0001
0000
,
0010
0000
0001
0000
,
0000
0000
0100
0000
,
0010
0000
0100
0000
,
0010
0000
0010
0000
,
0000
0000
1000
0000
,
0100
0100
0000
0010
,
0000
0100
0000
0000
,
0000
1000
0000
0010
,
0000
0001
0000
0000
,
0000
0010
0000
0100
,
0000
0010
0000
0000
,
0000
1000
0000
0100
,
0000
1000
0000
0001
,
0000
0010
0010
0020
,
0130
0000
0100
0000
,
0100
0000
0010
0000
,
0001
0000
0001
0000
,
0001
0000
1000
0000
,
0020
0030
0010
0000
,
0020
0030
0010
0000
,
1000
0000
0100
0000
,
0010
0000
0000
0000
,
0001
0000
1000
0000
,
1000
0000
0001
0000
,
0001
0000
1000
0000
,
0001
0000
1000
0000
,
0001
0000
0001
0000
,
0001
0000
0000
0000
,
1000
0000
1000
0000
,
1000
0000
0000
0000
,
0010
0010
0010
0000
;

//--------------- dance-single - ----------------
#NOTES:
     dance-single:
     Shortysnmn2010:
     Easy:
     4:
     0.213206,0.253641,0.080871,0.19115,0,203,192,11,26,0,0,0.213206,0.253641,0.080871,0.19115,0,203,192,11,26,0,0:
0000
0000
0000
0000
,
0000
0000
0000
0000
,
0000
0000
0000
0000
,
0000
0000
0000
0000
,
1000
0110
0001
0110
,
2000
3000
0010
1001
,
0200
0000
0010
0310
,
1000
0100
0010
0001
,
1000
1000
0001
0100
,
2000
0000
0100
3100
,
0002
0003
2000
3000
,
0110
0000
0000
0000
0001
2000
3002
0000
,
0000
0000
0103
0010
,
1000
0100
0001
0200
,
0000
0000
1300
0000
0000
0001
0100
0000
,
0010
1000
0100
0020
,
0000
0000
0031
1000
,
0010
0100
1000
0200
,
0000
0301
0000
1000
,
0100
0000
0010
0000
0001
0000
1000
0001
,
1000
0001
1000
0002
2003
0000
3000
0000
,
0100
0000
0010
0000
0001
1000
0000
0000
,
0010
1000
0200
0300
,
0010
0000
0001
0000
0100
0010
0000
0000
,
1000
0001
0010
0000
,
0001
1000
0010
0000
,
0100
0000
0001
0010
,
0100
1000
0010
0010
,
0010
1000
0100
1001
,
0010
1001
0200
0300
,
0001
0110
2000
3000
,
0100
0010
0001
1001
,
1000
0002
2003
0000
0000
0000
0000
0000
,
3010
0100
0001
0010
,
0100
2000
0000
3010
,
0000
0100
0010
0000
1000
0000
0100
0000
,
0001
0200
0000
0000
,
1300
0001
0010
0001
,
0100
0020
0000
1030
,
0000
0001
0010
0100
,
0010
0000
0001
0100
0010
0100
0001
2000
,
3002
0003
1000
0010
,
1000
0100
0000
0000
0010
0000
0001
0000
,
2000
3000
0010
0001
,
0010
1000
0000
0000
0100
0000
0010
0000
,
0001
0000
1000
0010
,
1000
0000
0100
0000
,
0010
0001
0100
1000
,
0100
0100
0100
0001
,
2000
0100
0100
0001
,
0100
0001
3010
0100
,
0002
0100
0100
0100
,
1000
0100
0013
0100
,
2000
0010
0010
0001
,
0010
0010
3001
0010
,
0001
1000
0000
0100
0000
1000
0000
0001
,
1000
0010
0100
0001
,
1001
0110
1001
0000
;

//--------------- dance-single - ----------------
#NOTES:
     dance-single:
     Shortysnmn2010:
     Medium:
     5:
     0.286725,0.295915,0.15439,0.132334,0,273,252,21,18,0,0,0.286725,0.295915,0.15439,0.132334,0,273,252,21,18,0,0:
0000
0000
0000
0000
,
0000
0000
0000
0000
,
0000
0000
0000
0000
,
0000
0000
0000
0000
,
1000
0100
1000
0000
0010
0000
0100
0000
,
0001
0000
0000
1000
0100
0010
0001
0000
,
1000
0000
1001
0000
0001
0100
0001
0000
,
1000
0100
0020
0030
,
1100
0101
0010
1100
,
0010
0001
0100
0000
0001
0010
0001
0000
,
1000
0110
0001
1000
,
0200
0000
0300
0000
1000
0002
0103
0000
,
0010
0000
0100
0000
0001
0010
0001
0000
,
1000
0000
0110
0000
0001
0100
2000
0000
,
3100
0000
0002
0000
0103
0010
0200
0000
,
0000
0000
0300
0001
,
1000
0000
0001
0000
0010
0100
0010
0000
,
0001
0100
0010
2000
,
3000
0002
0003
1000
,
0010
0000
0001
0000
0010
0000
1000
0001
,
1000
0001
1000
0200
0310
0001
0000
0100
,
0000
0010
0000
0100
0001
0010
0000
0100
,
0000
1000
0100
1000
0100
1000
0000
0010
,
0000
1000
0000
0100
0010
0100
0000
0010
,
0000
0001
1000
0001
1000
0001
0000
0100
,
0000
0010
0000
0100
0001
0100
0000
0010
,
0000
1000
0000
0001
0000
0011
0000
1001
,
0000
1100
0000
1000
0001
0000
0001
0000
,
0002
0003
0220
0330
,
1000
0000
0100
0000
1001
0000
0000
0001
,
0100
0010
1000
0000
0100
1000
0100
0000
,
0010
0001
0100
0110
,
0001
2000
3100
0000
0010
0000
0001
1000
,
0001
0000
0100
0000
0010
0000
1000
0001
,
1000
0000
0100
0000
0010
0000
0001
1000
,
0001
0100
0010
0100
,
0001
0000
0010
0000
0001
0000
1000
0100
,
1000
0001
0010
0100
,
1000
0020
0030
0200
,
0300
0010
1000
0100
,
0010
0000
0001
1000
0001
1000
0100
0020
,
0130
1000
0000
0100
0000
1000
0100
1000
,
0000
0010
0000
0100
0000
0010
0100
0010
,
0100
0010
0000
1000
0000
0100
0010
0100
,
0000
0010
0000
0001
0000
0010
0001
0010
,
0001
0010
0000
0100
0000
0010
0001
0010
,
0000
0100
0000
1000
0000
0001
0000
0100
,
0000
0110
0000
1010
0000
0101
0000
0001
,
0010
0010
0020
0030
,
0100
1000
0100
1000
0100
1000
0100
0000
,
0000
1000
0001
1000
0000
0000
1001
0000
,
0001
0100
0001
0100
0001
0100
0001
0000
,
0000
0010
0100
0010
0000
0000
0110
0000
,
0100
1000
0100
1000
0100
0000
0010
0000
,
0001
1000
0001
1000
0001
0000
1000
0000
,
0020
1000
0000
0100
0000
1030
0000
1001
,
0000
0010
0100
1000
,
1001
0101
0110
0000
;

//--------------- dance-single - ----------------
#NOTES:
     dance-single:
     Shortysnmn2010:
     Hard:
     7:
     0.405406,0.465009,0.183798,0.257317,0.220557,386,361,25,35,0,0,0.405406,0.465009,0.183798,0.257317,0.220557,386,361,25,35,0,0:
0000
0000
0000
0000
,
0000
0000
0000
0000
,
0000
0000
0000
0000
,
0000
0000
0000
0000
0000
0000
0000
0000
0000
0000
0000
0000
0000
0000
0000
1000
,
0000
0000
0000
0010
0000
0000
1000
0000
0000
0000
0000
0000
0001
0000
0000
0100
0000
0000
0010
0000
0000
0100
0000
0001
,
0000
0000
0000
0000
0000
0000
0000
1000
0000
0000
0000
0000
0000
0000
0000
0000
0000
0000
0100
0000
0000
0000
0000
0000
0020
0000
0000
0000
0000
0000
0100
0000
0000
0000
0000
0000
0130
0000
0000
0000
0000
0000
1000
0000
0000
0000
0010
0000
,
0000
0000
0000
0100
0000
0000
0002
0000
0000
0000
0000
0000
1000
0000
0000
0000
0000
0000
0013
0000
0000
0000
0000
0110
,
0000
0000
0000
0100
0000
0000
1000
0000
0000
0010
0000
0000
0100
0000
0010
0000
1000
0000
0001
0000
1000
0000
0010
0000
,
0100
0000
0000
0000
0000
0000
1001
0000
0000
0000
0000
0000
1001
0000
0000
0000
0000
0000
0010
0000
0000
0100
0000
1000
,
0000
0000
0000
0000
0000
0000
0000
0000
0000
0000
0000
0000
0000
0000
0000
0010
0000
0000
0000
0000
0000
0000
0000
0000
0000
0000
0000
0000
0000
0000
0000
0000
0000
0000
0000
0000
0100
0000
0000
0000
0000
0000
0000
0000
0000
0000
0000
0000
0001
0000
0000
0000
0000
0000
0000
0000
0000
0000
0000
0000
0011
0000
0000
0000
0000
0000
0000
0000
0000
0000
0000
0000
0110
0000
0000
0000
0000
0000
0000
0000
0200
0000
0000
0000
0000
0000
0000
0000
0000
0000
0000
0000
0000
0000
0000
0000
,
1300
0000
0000
0000
0101
0000
0000
0001
0000
0000
1000
0000
0000
0100
0000
0000
,
0010
0000
0000
0001
0000
0000
0100
0000
0010
0000
2010
0000
3100
0000
0010
0000
,
0001
1000
0100
0001
0100
1000
0020
0000
,
0230
0000
0302
0000
1003
0100
0010
0000
,
0001
0000
0000
0000
0000
0000
0101
0000
0000
0000
0000
0000
0010
0000
0000
1000
0000
0001
1000
0000
0001
1000
0000
0000
,
0001
0000
0020
0000
0031
1000
0100
1000
,
0010
1000
0001
0100
1000
0100
0002
0000
,
0023
2030
3020
0031
,
0100
0000
0000
0110
0000
0000
0110
0000
0000
1000
0100
1000
,
0001
0000
0100
0000
0001
0000
1000
0000
0010
0000
1000
0000
0002
0000
0000
0000
0000
0000
1003
0000
0000
0100
0000
0000
,
0001
0000
1000
0000
0001
0100
1000
1020
0031
0000
0010
0000
0001
0000
0010
0000
,
0100
0001
0010
0001
0010
0200
0000
0310
,
0001
1000
0010
0100
0010
0001
0010
1000
,
0001
0010
0100
1000
0010
2000
0000
3001
,
0010
0000
0001
0000
1000
0000
0100
0010
0000
0000
0011
0000
0000
0000
0001
0000
,
0100
0000
0000
0000
0000
0000
0010
0000
0000
0000
0000
0000
1000
0000
0000
0000
0001
0000
0000
0000
0000
0010
0000
0000
0000
0000
0000
0000
0000
0000
0100
0000
0000
0000
0000
0000
0000
0000
0000
0000
0000
0000
1000
0000
0000
0000
0000
0000
,
0001
0000
0000
0010
0000
0000
0010
0000
0000
0001
0000
0000
1000
0000
0001
0000
1000
0000
0001
0000
1000
0000
0001
0000
,
1000
0100
1000
0100
0010
0100
0020
0000
0000
0001
0000
0000
,
0130
0000
1001
0000
0220
0000
0330
1000
,
0001
0000
0000
0000
0000
0000
0000
0000
0000
0000
0000
0000
0200
0000
0000
0000
0000
0000
0000
0000
0000
0000
0000
0000
0010
0000
0000
0000
0000
0000
0000
0000
0000
0000
0000
0000
0310
0000
0000
0000
0000
0000
0000
0000
1000
0000
0000
0000
0000
0000
0000
0000
0000
0000
0000
0000
0000
0000
0000
0000
0000
0000
0000
1100
0000
0000
0000
0000
0000
0000
0000
0000
0000
0000
0000
0000
0000
0000
0000
0000
0000
0000
0000
0000
0010
0000
0000
0000
0000
0000
0000
0000
0000
0000
0000
0000
,
0002
0000
0000
1000
0000
0000
1003
0000
0000
0010
0000
0100
0000
0000
0000
0001
0000
0000
1000
0000
0000
0100
0000
0000
,
0200
0000
0000
0000
0000
0000
0000
0000
0000
0000
0000
0000
0000
0000
0000
0000
0000
0000
0000
0000
0000
0000
0000
0000
1300
0000
0000
0000
0000
0000
0000
0000
0000
0000
0000
0000
0001
0000
0000
0000
0000
0000
0000
0000
0010
0000
0000
0000
0000
0000
0000
0000
0000
0000
0000
0000
0000
0000
0000
0000
0000
0000
0000
0001
0000
0000
0000
0000
0000
0000
0000
0000
0000
0000
0000
0000
0000
0000
0000
0000
0000
0000
0000
0000
1000
0000
0000
0000
0000
0000
0000
0000
0000
0000
0000
0000
,
0001
0020
0130
1000
0001
0100
0001
0010
,
0100
0010
0002
0000
0100
0000
1000
0000
,
0013
0100
2000
0000
0010
0000
0100
0000
,
3001
0000
0000
0100
0000
0010
0100
0000
0010
0100
0000
0000
0001
0000
0000
0000
0000
0000
0010
0000
0000
0000
0000
0000
,
0100
0000
1000
0100
0010
0001
1000
0010
,
0200
0001
1000
0310
,
1001
0020
0030
0020
,
0030
0000
0000
0001
1000
0001
1000
0001
1000
0100
0010
0100
,
0020
0000
0000
0000
0031
0000
0100
0000
1000
0000
0100
0000
0001
0010
0100
2100
,
3010
0100
0001
0010
0001
0100
0010
0100
,
1000
0200
0000
0310
1000
0001
0010
0100
,
0010
1000
0010
0001
1000
0100
0010
0100
,
1000
0000
0020
0000
0000
0000
0130
0000
0001
0000
1000
0000
0001
0000
0100
0010
,
0000
0000
0100
0000
0000
0000
0001
0000
1000
0000
0001
0000
0010
0100
0000
1000
,
0000
1001
0000
0001
0010
0001
0001
0100
,
0010
0100
0010
0100
0001
0100
0001
1000
0001
1000
0100
1000
,
0100
0010
0001
1001
,
1000
0100
1000
0100
0010
0100
1000
0010
,
2000
0001
0001
3001
0100
0000
0110
0000
,
0001
0100
0001
0100
0010
0100
0001
0010
,
0200
0010
0010
0310
0001
0000
1001
0000
,
1000
0100
0001
0100
1000
0010
1000
0000
,
0001
0100
1000
0100
0001
0010
0001
0000
,
2000
0100
0000
0010
0000
3100
0000
0110
,
0000
0001
0100
0010
,
0110
1001
0110
0000
;

//--------------- dance-single - ----------------
#NOTES:
     dance-single:
     Shortysnmn2010:
     Challenge:
     10:
     0,0,0,0,0:
0000
0000
0000
0000
,
0000
0000
0000
0000
,
0000
0000
0000
0000
,
0000
0000
0000
0000
0000
0000
0000
0000
0000
0000
0000
0000
0000
0000
0000
0001
,
0010
0000
0000
0000
0000
0000
0001
0000
0000
0000
0000
0000
1001
0000
0000
0000
0000
0000
0000
0000
0000
0000
0000
0000
1000
0000
0000
0000
0000
0000
0010
0000
0000
0100
0000
0000
0010
0000
1000
0000
0001
0000
0200
0000
0000
0000
0310
0000
,
0000
0000
0000
0000
0000
0000
0000
1001
0000
0000
0000
0000
0000
0000
0000
0000
0000
0000
1000
0000
0000
0000
0000
0000
0011
0000
0000
0000
0000
0000
1001
0000
0000
0000
0000
0000
1000
0000
0000
0000
0100
0000
1000
0000
0000
0000
0020
0000
,
0000
0000
0000
0030
0000
1000
0001
0000
0001
1000
0000
1000
0010
0000
0010
0100
0000
0001
0000
0000
0100
0010
0000
1000
,
0000
0000
0001
1000
0000
0001
0100
0000
0000
0110
0000
0000
0002
0000
0010
0000
0010
0000
2003
0000
0100
0000
0100
0000
,
3001
0000
0000
0000
0000
0000
1001
0000
0000
0000
0000
0000
0010
0000
1000
0001
0000
0100
0010
0000
1000
0100
0000
0010
,
0000
0000
0000
0000
0000
0000
0000
0000
0000
0000
0000
0000
0000
0000
0000
1100
0000
0000
0000
0000
0000
0000
0000
0000
0000
0000
0000
0000
0000
0000
0000
0000
0000
0000
0000
0000
0010
0000
0000
0000
0000
0000
0000
0000
0000
0000
0000
0000
0001
0000
0000
0000
0000
0000
0100
0000
0000
0000
0000
0000
0010
0000
0000
0000
0000
0000
0100
0000
0000
0000
0000
0000
0002
0000
0000
0000
0000
0000
0000
0000
0010
0000
0000
0000
0000
0000
0000
0000
0000
0000
0000
0000
0000
0000
0000
0000
,
0013
0000
0000
0000
0000
0000
0100
1000
0000
1000
0010
0000
0010
0001
0000
0001
,
1000
0000
1000
0100
0000
0100
0010
0000
0010
1000
0002
0000
0013
0000
0100
0000
,
1000
0100
0001
0100
1000
0010
0100
0002
,
1000
0003
0200
0000
0001
0300
2000
0000
0010
3000
0001
0000
1000
0000
0010
0000
,
0100
0000
0000
0010
0000
0000
0002
0000
0000
0010
0000
0000
0013
0000
0000
0100
0000
0001
1000
0000
0100
1000
0000
0000
,
1001
0000
0000
0001
0000
0010
0001
0000
0010
0100
0010
0100
2000
0000
0000
0100
0000
0000
3100
0000
0000
0010
0000
0000
,
0001
1000
0001
0100
0010
1000
0001
1000
,
0100
0000
0000
0010
0000
0000
0100
0000
1000
0010
0000
0000
0100
0000
0001
0100
0000
0000
0010
0000
0000
1000
0000
0001
,
1000
0000
0000
0100
0000
0000
0010
0000
0000
0001
0000
0000
1000
0000
0000
0100
0000
0100
2000
0000
0010
0000
0010
0000
,
3002
0000
0100
0000
0100
0000
1003
0000
0100
0000
0010
0000
0002
0000
0000
0000
0000
0000
0100
0000
0000
1000
0000
0000
,
0100
0000
0000
0000
0000
0000
0000
0000
1000
0000
0000
0000
0000
0000
0000
0000
0010
0000
0000
0000
0013
0000
0000
0000
0100
1000
0001
1000
0200
0000
0000
0300
1000
0000
0000
0000
0000
0000
0000
0000
0010
0000
0000
0000
0000
0000
0000
0000
1000
0000
0000
0000
0000
0000
0000
0000
0010
0000
0000
0000
0000
0000
0000
0000
,
0001
0000
0010
0000
0100
0000
0010
1000
0001
0200
0001
0000
0000
0300
0010
1000
,
0001
0010
0001
0100
0010
1000
0001
1000
0100
0000
0010
0000
1000
0000
0010
0000
,
0001
0000
0000
0000
0000
0000
0010
0000
0000
0000
0000
0000
0100
0000
0000
0000
0000
0000
1000
0000
0000
0010
0000
0000
0100
0000
0000
0001
0000
0000
1000
0000
0000
0000
0100
0000
1000
0000
0000
0000
0000
0000
0010
0000
0000
0001
0000
0000
,
0010
0100
0001
0010
0100
0001
0100
2000
0000
0000
3010
0000
0000
0000
0100
0001
,
1000
0000
0000
0001
0000
0000
0010
0000
0000
0100
0000
0000
1000
0000
0000
0000
0010
0000
0000
0000
0000
0100
0000
0000
0000
0000
0000
0000
0000
0000
2002
0000
0000
0000
0000
0000
3003
0000
0000
0000
0000
0000
0010
0000
0000
0100
0000
0000
,
0001
0000
0000
0011
0000
0000
1001
0000
0000
1100
0000
0000
1000
0000
0010
0000
1000
0000
0001
0000
0010
0000
1000
0000
,
0010
0000
0000
0000
0001
0000
0000
0000
1000
0000
0000
0000
0001
0000
0000
0000
0100
0000
0000
0000
1000
0000
0000
0000
0100
0000
0000
0000
0000
0000
0001
0000
0000
1000
0000
0000
0001
0000
0000
0000
0000
0000
1000
0000
0100
0000
0000
0000
,
1000
0000
0010
0000
1000
0000
0001
0000
0000
0000
0000
0000
0100
0000
0000
0010
0100
0000
0001
0000
0000
1000
0000
0000
0100
0000
0000
0000
0000
0000
0000
0000
0000
0000
0000
0000
0000
0000
0000
0000
0000
0000
1000
0000
0000
0000
0100
0000
,
0010
0000
0000
0000
0000
0000
0000
0000
0000
0000
0000
0000
0001
0000
0000
0000
0000
0000
0010
0000
0001
0000
0000
0000
0010
0000
0000
0000
0000
0000
0000
0000
0000
0000
0000
0000
0100
0000
0000
0000
0000
0000
0000
0000
1000
0000
0000
0000
0000
0000
0000
0000
0000
0000
0000
0000
0000
0000
0000
0000
0000
0000
0000
1010
0000
0000
0000
0000
0000
0000
0000
0000
0000
0000
0000
0000
0000
0000
0000
0000
0000
0000
0000
0000
2000
0000
0000
0000
0000
0000
0000
0000
0000
0000
0000
0000
,
0010
0000
0000
0000
0000
0000
3001
0000
0000
0000
0000
0000
1010
0000
0000
0000
1000
0000
0001
0000
0000
0000
0010
0000
0000
0000
0000
0000
0000
0000
0100
0000
0000
0000
1000
0000
0100
0000
0000
0000
0100
0000
1000
0000
0000
0001
0000
0000
,
0100
0000
0000
0000
0000
0000
0000
0000
0000
0000
0000
0000
0010
0000
0000
0000
0000
0000
1000
0000
0000
0000
0000
0000
0000
0000
0000
0001
0000
0000
0000
0000
0000
0000
0000
0000
0100
0000
0000
0000
0000
0000
0001
0000
0000
0000
0000
0000
0100
0000
0000
0000
0010
0000
0000
0000
0000
0000
0000
0000
0000
0000
0000
0000
1000
0000
0000
0000
0000
0000
0000
0000
0100
0000
0000
0000
0000
0000
0000
0000
0000
0000
0000
0000
0000
0000
0000
0000
0010
0000
0000
0000
0000
0000
0000
0000
0000
0000
0000
0000
0000
0000
0000
0000
0000
0000
0000
0000
0000
0000
0000
0000
0000
0000
0000
0000
0000
0000
0000
0000
0000
0000
0000
0000
0000
0000
0110
0000
0000
0000
0000
0000
0000
0000
0000
0000
0000
0000
0000
0000
0000
0000
0000
0000
0000
0000
0000
0000
0000
0000
0000
0000
0000
0000
0000
0000
0000
0000
0000
0000
0001
0000
0000
0000
0000
0000
0000
0000
0010
0000
0000
0000
0000
0000
0000
0000
0000
0000
0000
0000
0001
0000
0000
0000
0000
0000
0000
0000
0000
0000
0000
0000
,
1000
0000
0000
0000
0000
0000
0000
0000
0000
0000
0000
0000
0000
0000
0000
0000
0001
0000
0000
0000
0000
0000
0000
0000
2000
0000
0000
0000
0000
0000
0000
0000
0000
0000
0000
0000
0000
0000
0000
0000
0000
0000
0000
0000
0000
3000
0000
0000
0010
0000
0000
0000
0000
0000
0000
0000
0000
0000
0000
0000
0000
0000
0000
0000
0000
0000
0000
0000
0000
0000
0000
0000
0100
0000
0000
0000
0000
0000
0000
0000
0000
0000
0000
0000
0000
0000
0000
0000
0000
0000
0000
0000
0000
0000
0000
0000
0001
0000
0000
0000
0000
0000
0000
0000
0000
0000
0000
0000
0000
0000
0000
0000
0000
0000
0000
0000
0000
0000
0000
0000
0010
0000
0000
0000
0000
0000
0000
0000
0000
0000
0000
0000
0000
0000
0000
0000
0000
0000
0000
0000
0000
0000
0000
0000
0001
0000
0000
0000
0000
0000
0000
0000
0000
0000
0000
0000
0000
0000
0000
0000
0000
0000
0000
0000
0000
0000
0000
0000
0100
0000
0000
0000
0000
0000
0000
0000
0000
0000
0000
0000
0000
0000
0000
0000
0000
0000
0000
0000
0000
0000
0000
0000
,
0010
0000
0100
0000
0001
0000
0020
0000
1000
0030
0002
0000
0100
0003
2000
0000
,
0010
3000
0100
0000
0001
0000
0010
0000
0001
0000
1000
0000
0001
0000
0100
0000
,
1000
0000
0000
0100
0000
0001
0100
0000
0001
1000
0000
0000
1100
0000
0000
0010
0000
0001
0010
0000
0010
0100
1000
0000
,
0010
0100
0001
1000
0010
0001
1000
0100
,
0001
0000
0000
1000
0000
0000
0200
0000
0000
0001
0000
0000
0320
0000
0000
0001
0000
0000
0130
0000
0100
0001
0000
0000
,
0100
1000
0010
0001
0010
0100
0001
0010
,
0001
0000
0000
1000
0000
0100
1000
0000
0010
0000
1000
0000
0001
0000
0100
0000
1000
0000
0100
0000
0001
0000
1000
0000
,
0002
0000
0000
0000
0000
0000
0000
0000
0000
0000
0000
0000
0000
0000
0000
0000
0010
0000
0000
0000
0000
0000
0000
0000
1000
0000
0000
0000
0000
0000
0000
0000
0010
0000
0000
0000
0000
0000
0000
0000
1000
0000
0000
0000
0000
0000
0000
0000
0100
0000
0000
0000
0103
0000
0000
0000
0010
1000
0001
1000
0020
0000
0000
0030
,
1000
0000
0001
0000
0100
0000
0001
0000
0010
0000
1000
0000
0010
0000
0100
1000
,
0100
0000
0000
0010
0000
0000
0100
0000
0000
0000
1000
0000
0100
0000
0000
0000
0000
0000
0010
0000
0000
0001
0000
0000
0010
0000
0000
0100
0000
0000
0010
0000
0000
0100
0000
0000
1000
0000
0000
0010
0000
0000
1000
0000
0000
0010
0000
0000
,
0100
0000
0001
0000
0010
0000
1000
0000
0010
0000
0100
0000
1000
0000
0010
0100
,
0001
0000
0000
1000
0000
0000
0001
0000
0000
0000
1000
0000
0100
0000
0000
0000
0000
0000
0010
0000
0000
0100
0000
0000
0010
0000
0000
0001
0000
0000
0010
0000
0000
0100
0000
0000
1000
0000
0000
0010
0000
0000
0000
0000
0000
0110
0000
0000
,
0000
0000
1001
0000
0000
0000
0001
0010
0001
0100
0001
1000
0100
1000
0000
1010
,
0000
0000
0110
0000
0000
0000
0010
1000
0001
0000
0101
0000
1001
0000
1010
0000
,
1000
0100
0010
0100
1000
0001
0100
0010
0100
0001
1000
0100
,
0010
0000
0000
0000
0000
0000
0001
0000
0000
0010
0000
0000
0001
0000
0000
0000
0000
0000
0100
0000
0010
0000
0000
0000
0100
0000
0001
0000
1000
0000
0001
0000
0000
0000
0000
0000
0010
0000
0000
0000
0000
0000
0100
0000
0000
0000
0000
0000
,
1000
1000
0100
1000
0001
0010
0001
0001
0100
0010
0100
0001
1000
0100
1000
0000
,
0001
0001
0100
0010
1000
0100
1000
1000
0010
0100
0010
0100
0002
0000
1000
0000
,
0013
0010
0100
1000
0010
1000
0100
0100
0010
0001
0010
0100
1000
0010
1000
0000
,
0001
0001
0010
0100
1000
0100
0001
0001
0100
1000
0100
0000
0010
0100
0010
0000
,
0001
0001
1000
0100
1000
0010
0100
0100
0001
0010
0100
1000
0010
0100
0010
0000
,
1000
1000
0010
0001
0010
1000
0100
0100
0010
0001
0010
0001
1000
0100
0010
0000
,
0100
0100
0010
0100
0010
0100
0010
0010
0100
1000
0010
0100
0010
0100
0001
0000
,
1000
1000
0001
1000
0001
1000
0001
0001
0010
0000
0100
1000
0100
0010
0001
1000
,
0002
0103
2000
3100
2002
3003
0000
0000
;
