#TITLE:Skibidi;
#SUBTITLE:Romantic Edition;
#ARTIST:Little Big;
#TITLETRANSLIT:;
#SUBTITLETRANSLIT:;
#ARTISTTRANSLIT:;
#GENRE:;
#CREDIT:;
#BANNER:;
#BACKGROUND:;
#LYRICSPATH:;
#CDTITLE:;
#MUSIC:Skibidi (Romantic Edition).mp3;
#OFFSET:-0.083000;
#SAMPLESTART:75.558998;
#SAMPLELENGTH:15.952000;
#SELECTABLE:YES;
#BPMS:0.000000=125.999992
;
#STOPS:
;
#BGCHANGES:;
#KEYSOUNDS:;
#ATTACKS:;

//---------------dance-single - ----------------
#NOTES:
     dance-single:
     Shortysnmn2010:
     Beginner:
     1:
     0.122752,0.154186,0.000000,0.128488,0.000000,107.000000,107.000000,0.000000,16.000000,0.000000,0.000000,0.122752,0.154186,0.000000,0.128488,0.000000,107.000000,107.000000,0.000000,16.000000,0.000000,0.000000:
0000
0000
0000
0000
,
0000
0000
0000
0000
,
0000
0000
0000
0000
,
0000
0000
0000
0000
,
0001
0000
0000
1000
,
1000
0000
0000
0010
,
0010
0000
0000
1000
,
1000
0000
0000
0000
,
0002
0003
0002
0003
,
0001
0000
0000
0000
,
2000
3000
2000
3000
,
1000
0000
0000
0000
,
0020
0030
0020
0030
,
0100
0000
0000
0000
,
0100
0000
0000
0000
,
0010
0000
0000
0000
,
1000
0000
0000
0000
,
0001
0000
0000
0000
,
0010
0000
0100
0000
,
0010
0000
0100
0000
,
0010
0010
0000
0000
,
0001
0000
0001
0000
,
1000
0000
0000
0000
,
0010
0000
1000
0000
,
0001
0000
0100
0100
,
0200
0000
0300
0100
,
0001
0000
0001
0001
,
0002
0000
0000
0003
,
1000
0000
1000
1000
,
2000
0000
3000
1000
,
0100
0000
0100
0100
,
0200
0000
0000
0300
,
2000
3000
2000
3000
,
0001
0000
0000
0000
,
0002
0003
0002
0003
,
1000
0000
0000
0000
,
0020
0030
0020
0030
,
0100
0000
0000
0000
,
0100
0000
0000
0000
,
0010
0000
0000
0000
,
1000
0000
0000
0000
,
0100
0000
0000
0000
,
0010
0000
0001
0000
,
0010
0000
0001
0000
,
1000
1000
0000
0000
,
0010
0000
0010
0000
,
1000
0000
0100
0000
,
0100
0000
0000
0000
,
1000
1000
0000
0000
,
0001
0001
0001
0000
,
0010
0000
0100
0000
,
0010
0000
0000
0000
,
0100
0100
0000
0000
,
1000
1000
1000
0000
,
0010
0000
0010
0000
,
1000
0000
0001
0000
,
1000
0000
0000
0000
,
0001
0001
0001
0000
,
1000
0000
0000
0000
,
0010
0010
0010
0000
,
1000
0000
0001
0000
,
1000
1000
1000
0000
,
0100
0000
0000
0000
,
0010
0000
0010
0000
,
0010
0000
0000
0000
;

//---------------dance-single - ----------------
#NOTES:
     dance-single:
     Shortysnmn2010:
     Easy:
     3:
     0.176671,0.231279,0.056214,0.096366,0.000000,154.000000,147.000000,7.000000,12.000000,0.000000,0.000000,0.176671,0.231279,0.056214,0.096366,0.000000,154.000000,147.000000,7.000000,12.000000,0.000000,0.000000:
0000
0000
0000
0000
,
0000
0000
0000
0000
,
0000
0000
0000
0000
,
0000
0000
0000
0000
,
0000
1000
0000
1000
,
0000
0001
0000
0001
,
0000
0010
0000
0010
,
0000
0100
0000
0000
,
2000
3000
0002
0003
,
0010
0100
0010
0000
,
0002
0003
2000
3000
,
0100
0010
0100
0000
,
2000
3000
0002
0003
,
0100
0010
0100
0000
,
0001
0000
0010
0000
,
0100
0000
0000
0000
,
1000
1000
0000
0010
,
1000
1000
1000
0000
,
0001
0010
0001
0010
,
0001
0000
1000
0000
,
0110
0110
0000
0000
,
1000
0000
0001
0000
,
0010
0001
0010
0001
,
0100
0000
0100
0000
,
0001
0000
1000
0000
,
0100
0100
0100
0000
,
1000
0000
0001
0000
,
0100
0100
0100
0000
,
0001
0000
1000
0000
,
0010
0010
0010
0000
,
1000
0000
0001
0000
,
0010
0000
0000
0000
,
0200
0300
0020
0030
,
0001
1000
0001
0000
,
0200
0300
0020
0030
,
1000
0001
1000
0000
,
0200
0300
0020
0030
,
0001
1000
0001
0000
,
1000
0000
0010
0000
,
0100
0000
0000
0000
,
0001
0001
0000
0010
,
0001
0001
0001
0000
,
1000
0100
1000
0100
,
1000
0000
0100
0000
,
1001
1001
0000
0000
,
0010
0000
0001
0000
,
1000
0100
1000
0100
,
0010
0000
0010
0000
,
0001
0001
0000
1000
,
0001
0001
0001
0000
,
1000
0010
1000
0010
,
1000
0000
0100
0000
,
0011
0011
0000
0000
,
0100
0000
1000
0000
,
0010
1000
0010
1000
,
0100
0000
0000
0000
,
0010
0000
0001
0000
,
0100
0100
0100
0000
,
0010
0000
1000
0000
,
0100
0100
0100
0000
,
1000
0000
0001
0000
,
0100
0100
0100
0000
,
0001
0000
0010
0000
,
0100
0100
0100
0000
,
1001
0000
0000
0000
;

//---------------dance-single - ----------------
#NOTES:
     dance-single:
     Shortysnmn2010:
     Medium:
     5:
     0.320073,0.385465,0.200763,0.040153,0.000000,279.000000,254.000000,25.000000,5.000000,0.000000,0.000000,0.320073,0.385465,0.200763,0.040153,0.000000,279.000000,254.000000,25.000000,5.000000,0.000000,0.000000:
// measure 0
0000
0000
0000
0000
,  // measure 1
0000
0000
0000
0000
,  // measure 2
0000
0000
0000
0000
,  // measure 3
0000
0000
0000
0000
,  // measure 4
1000
0000
0000
0100
0000
0000
1000
0000
,  // measure 5
0001
0000
0000
0010
0000
0000
0001
0000
,  // measure 6
1000
0000
0000
0010
0000
0000
1000
0000
,  // measure 7
0001
0000
0000
0100
0000
0000
0000
0000
,  // measure 8
0001
0011
0001
0011
,  // measure 9
0001
1000
0100
0000
1000
0000
0000
0000
,  // measure 10
0010
1010
0010
1010
,  // measure 11
1000
0001
0100
0000
0010
0000
0000
0000
,  // measure 12
0100
0101
0100
0101
,  // measure 13
0010
1000
0100
0000
1000
0000
0000
0000
,  // measure 14
0002
0000
0000
0003
0000
1000
1000
0000
,  // measure 15
0020
0000
0000
0030
0000
0000
0000
0000
,  // measure 16
1000
0100
2000
0000
3000
0000
0001
0000
,  // measure 17
0010
0001
0010
0000
0011
0000
0001
0000
,  // measure 18
1000
0100
1000
0100
1000
0100
1000
0100
,  // measure 19
1000
0001
1001
0000
,  // measure 20
0110
0110
0001
1000
,  // measure 21
0100
0010
0100
0010
0100
0000
1000
0000
,  // measure 22
0010
0100
0010
0100
0010
0100
0010
0100
,  // measure 23
0010
1000
1001
0000
,  // measure 24
0001
1000
0100
0000
,  // measure 25
0010
0100
1000
0010
,  // measure 26
1000
0001
0100
0000
,  // measure 27
0010
0100
0010
0100
0010
0100
0010
0000
,  // measure 28
1000
0001
0010
0000
,  // measure 29
0001
1000
0100
0001
,  // measure 30
0100
1000
0001
0000
,  // measure 31
0001
0100
0001
0100
0001
0100
0001
0000
,  // measure 32
1000
1010
1000
1010
,  // measure 33
0001
0100
0010
0000
0100
0000
0000
0000
,  // measure 34
0001
1001
0001
1001
,  // measure 35
1000
0100
0010
0000
0100
0000
0000
0000
,  // measure 36
1000
1100
1000
1100
,  // measure 37
0010
0001
1000
0000
0001
0000
0000
0000
,  // measure 38
0200
0000
0000
0300
0000
0010
0010
0000
,  // measure 39
2000
0000
0000
3000
0000
0000
0000
0000
,  // measure 40
0001
0100
0001
0000
0000
0000
1000
0000
,  // measure 41
0100
1000
0100
0000
1100
0000
1000
0000
,  // measure 42
0001
0010
0001
0010
0001
0010
0001
0010
,  // measure 43
0001
1000
0100
0000
,  // measure 44
1100
1100
0010
0001
,  // measure 45
0100
0001
0100
0001
0100
0000
0001
0000
,  // measure 46
0100
0001
0100
0001
0100
0001
0100
0001
,  // measure 47
0100
0010
1010
0000
,  // measure 48
1000
0001
1000
0000
0000
0000
0001
0000
,  // measure 49
0010
0100
0010
0000
0110
0000
0100
0000
,  // measure 50
1000
0100
1000
0100
1000
0100
1000
0100
,  // measure 51
1000
0010
1000
0000
,  // measure 52
0101
0101
0010
1000
,  // measure 53
0001
1000
0001
1000
0001
0000
0100
0000
,  // measure 54
0001
1000
0001
1000
0001
1000
0001
1000
,  // measure 55
0001
0010
0100
0000
,  // measure 56
1000
0001
1000
0000
,  // measure 57
0100
0010
0100
1000
,  // measure 58
0001
0100
0001
0000
,  // measure 59
1000
0010
0001
0010
,  // measure 60
1000
0001
1000
0000
,  // measure 61
0100
0000
0001
0000
0100
0010
0100
0000
,  // measure 62
1000
0001
1000
0000
,  // measure 63
0010
1000
0001
0100
,  // measure 64
1001
0000
0000
0000
;

//---------------dance-single - ----------------
#NOTES:
     dance-single:
     Shortysnmn2010:
     Challenge:
     9:
     0.555253,0.574182,0.546075,0.152580,0.305160,484.000000,416.000000,68.000000,19.000000,0.000000,0.000000,0.555253,0.574182,0.546075,0.152580,0.305160,484.000000,416.000000,68.000000,19.000000,0.000000,0.000000:
0000
0000
0000
0000
,
0000
0000
0000
0000
,
0000
0000
0000
0000
,
0000
0000
0000
0000
,
1000
0000
0000
0001
0000
0000
0100
0000
0000
0110
0000
0000
1001
0000
0000
0000
,
0001
0000
0000
0010
0000
0000
0100
0000
0000
1100
0000
0000
0010
0001
0010
0000
,
0100
0000
0000
1000
0000
0000
0010
0000
0000
1010
0000
0000
0101
0000
0000
0000
,
0010
0000
0000
2000
0000
0000
0002
0000
0000
0000
3003
0000
0000
0000
0100
0000
,
0001
0000
0000
0010
0000
0000
0100
0000
0000
1100
0000
0000
1001
0000
0000
0000
,
1000
0010
0000
1000
0000
0000
0100
0000
0000
0010
0000
0000
0001
0000
1000
0000
,
0001
0000
0000
0100
0000
0000
0010
0000
0000
1010
0000
0000
0101
0000
0000
0000
,
1000
0100
0000
1000
0000
0000
0001
0000
0000
0011
0000
0000
0100
0000
1000
0000
,
0001
0000
0000
0010
0000
0000
1000
0000
0000
1010
0000
0000
0011
0000
0000
0000
,
0001
0100
0000
0001
0000
0000
0010
0000
0000
0110
0000
0000
0100
0000
1000
0000
,
0010
0100
0000
0010
0000
0100
0010
0000
0000
0000
0110
0000
0110
0000
1000
0000
,
0001
1000
0000
0001
0000
1000
0001
0000
0000
0000
0000
0000
1000
0100
1000
0000
,
0010
0000
0100
0000
0220
0000
0000
0000
0330
0000
0000
0000
0001
1000
0001
0000
,
0010
0000
0010
0000
0100
0000
1000
0000
1010
0000
0000
0000
0010
1000
0010
0000
,
1000
1000
0100
0100
0001
0001
1000
1000
,
0010
0000
0010
0100
1000
0000
0001
0000
1001
0000
0000
0000
0001
0100
0001
0000
,
1100
0000
0000
0000
1100
0000
0000
0000
0020
0000
0000
0000
0031
1000
0001
0000
,
0100
0000
1000
0000
0100
0000
1000
0000
0200
0000
0000
0000
0301
1000
0001
0000
,
0010
0010
0100
0100
1000
1001
1001
0001
,
0100
0000
0010
0100
0010
0000
1000
0000
1001
0000
0000
0000
0001
0010
0001
0000
,
1000
0000
1100
0000
0100
1000
0010
0000
,
1000
1000
0001
0001
0100
0010
0100
0110
,
0010
0000
1010
0000
1000
0100
0010
0000
,
0001
0001
0010
0100
1000
1000
0010
0110
,
0100
0000
0101
0000
0001
0010
0100
0000
,
1000
1000
0100
0100
0010
0001
0010
0011
,
0001
0000
0101
0000
0100
0001
0010
0000
,
0100
0100
1000
0010
1000
1000
0200
0010
,
0310
0000
0000
0011
0000
0000
1001
0000
0000
1010
0000
0000
0110
0000
0000
0000
,
0100
0001
0000
0200
0000
0000
0010
0000
0000
0001
0000
0000
0310
0000
1000
0000
,
0001
0000
0000
0011
0000
0000
1100
0000
0000
1001
0000
0000
0101
0000
0000
0000
,
0010
1000
0000
0020
0000
0000
0100
0000
0000
1000
0000
0000
0130
0000
0001
0000
,
1000
0000
0000
1100
0000
0000
0110
0000
0000
0101
0000
0000
0110
0000
0000
0000
,
0001
0010
0000
0002
0000
0000
0100
0000
0000
1000
0000
0000
0013
0000
0100
0000
,
1000
0100
0000
0010
0000
0001
0010
0000
0000
0000
0110
0000
0110
0000
1000
0000
,
0001
0100
0000
0010
0000
1000
0001
0000
0000
0000
0000
0000
0010
0100
0010
0000
,
0001
0000
0100
0000
0202
0000
0000
0000
0303
0000
0000
0000
1000
0100
1000
0000
,
0001
0000
0001
0000
0100
0000
0010
0000
0110
0000
0000
0000
0100
0001
0100
0000
,
0010
0010
0001
0001
1000
1000
0100
0100
,
0001
0000
0001
0010
0100
0000
1000
0000
1010
0000
0000
0000
0100
0001
0100
0000
,
1010
0000
0000
0000
1010
0000
0000
0000
0200
0000
0000
0000
0301
1000
0001
0000
,
0010
0000
1000
0000
0010
0000
1000
0000
0020
0000
0000
0000
0031
1000
0001
0000
,
0100
0100
1000
1000
0100
0110
0110
0010
,
1000
0000
0100
0010
0100
0000
1000
0000
1001
0000
0000
0000
0010
0100
0010
0000
,
1000
0000
0001
0000
2002
0000
0000
0000
3003
0000
0000
0000
0010
0001
0010
0000
,
0100
0000
0100
0000
1000
0000
0001
0000
0101
0000
0000
0000
0010
1000
0010
0000
,
1000
1000
0100
0100
0001
0001
1000
1000
,
0010
0000
0010
0100
1000
0000
0001
0000
0011
0000
0000
0000
1000
0100
1000
0000
,
0011
0000
0000
0000
0011
0000
0000
0000
0200
0000
0000
0000
1300
0001
1000
0000
,
0001
0000
0100
0000
0001
0000
0100
0000
0002
0000
0000
0000
1003
0010
1000
0000
,
0100
0100
0010
0010
0001
0011
0011
0010
,
0100
0000
1000
0010
1000
0000
0100
0000
0110
0000
0000
0000
0001
0010
0001
0000
,
1000
0000
1100
0000
0010
0001
0100
0000
,
0001
0001
0010
0100
1000
1000
0010
0110
,
0100
0000
0101
0000
0001
0010
0100
0000
,
1000
1000
0010
0010
0001
0010
1000
1001
,
0001
0000
0011
0000
0100
1000
0010
0000
,
1000
1000
0100
0010
0001
0001
0010
0011
,
0001
0000
1100
0000
0010
0001
0100
0000
,
0010
0010
0100
0100
0010
0100
0001
1001
,
2000
0000
0000
0000
,
3000
0000
0000
0000
;

//---------------dance-single - ----------------
#NOTES:
     dance-single:
     Shortysnmn2010:
     Hard:
     7:
     0.440531,0.438567,0.232885,0.064244,0.084320,384.000000,355.000000,29.000000,8.000000,0.000000,0.000000,0.440531,0.438567,0.232885,0.064244,0.084320,384.000000,355.000000,29.000000,8.000000,0.000000,0.000000:
// measure 0
0000
0000
0000
0000
,  // measure 1
0000
0000
0000
0000
,  // measure 2
0000
0000
0000
0000
,  // measure 3
0000
0000
0000
0000
,  // measure 4
1000
0000
0000
0100
0000
0000
0010
0000
0000
0001
0000
0000
1000
0000
0000
0000
,  // measure 5
0010
0000
0000
1000
0000
0000
0001
0000
0000
0100
0000
0000
1000
0000
0100
0000
,  // measure 6
0001
0000
0000
0010
0000
0000
0001
0000
0000
1000
0000
0000
0100
0000
0000
0000
,  // measure 7
0010
0000
0000
0100
0000
0000
0110
0000
0000
0000
0000
0000
0000
0000
0001
0000
,  // measure 8
1000
0000
0000
0001
0000
0000
1000
0000
0001
0000
0000
1000
0000
0000
0000
0000
,  // measure 9
0000
0001
0010
0001
1000
0010
1000
0001
,  // measure 10
0100
0000
0000
0010
0000
0000
0100
0000
0010
0000
0000
0100
0000
0000
0000
0000
,  // measure 11
0000
0001
0010
0100
1000
0001
0100
0001
,  // measure 12
1000
0000
0000
0010
0000
0000
1000
0000
0010
0000
0000
1000
0000
0000
0000
0000
,  // measure 13
0000
0000
0100
0000
0010
0000
0100
0000
1000
0000
0000
0010
0000
0000
0000
0000
,  // measure 14
2000
0000
0000
0001
0000
0001
3001
1000
,  // measure 15
0001
0000
0000
1001
0000
0000
0000
0000
,  // measure 16
1000
0100
2000
0000
3000
0000
0001
0010
,  // measure 17
0100
1000
0100
1000
0100
0000
1000
0010
,  // measure 18
0100
0001
0100
0001
0010
0100
0010
0100
,  // measure 19
1000
0010
1000
0010
0100
0000
0001
0010
,  // measure 20
0001
0000
0001
0000
1100
0000
0010
0001
,  // measure 21
1000
1000
0010
0010
2000
0000
3010
0100
,  // measure 22
0001
0001
1000
1000
0001
0001
1000
1000
,  // measure 23
0001
0010
0100
1000
1000
0000
0001
0000
,  // measure 24
0101
0000
0011
0000
0001
0100
0010
0000
,  // measure 25
1000
0100
0010
0100
1000
0010
0100
0000
,  // measure 26
1010
0000
1100
0000
0010
0100
1000
0000
,  // measure 27
0010
0100
0010
0100
0010
1000
0100
0000
,  // measure 28
0110
0000
1100
0000
0010
0001
0100
0000
,  // measure 29
0001
0100
1000
0100
0001
0100
1000
0000
,  // measure 30
0101
0000
0011
0000
0001
1000
0100
0000
,  // measure 31
0010
0001
0010
0001
0010
0001
0100
0010
,  // measure 32
1000
0000
0000
0100
0000
0000
1000
0000
0100
0000
0000
1000
0000
0000
0000
0000
,  // measure 33
0000
0010
0100
0001
0010
0001
0100
0010
,  // measure 34
1000
0000
0000
0001
0000
0000
1000
0000
0001
0000
0000
1000
0000
0000
0000
0000
,  // measure 35
0000
0100
0010
0100
1000
0001
0100
0010
,  // measure 36
0100
0000
0000
0001
0000
0000
0100
0000
0001
0000
0000
0100
0000
0000
0000
0000
,  // measure 37
0000
0000
0010
0000
1000
0000
0100
0000
0010
0000
0000
0100
0000
0000
0000
0000
,  // measure 38
0020
0000
0000
0100
0000
0100
0130
0010
,  // measure 39
0100
0000
0000
0110
0000
0000
0000
0000
,  // measure 40
0001
0100
0002
0000
0003
0000
1000
0010
,  // measure 41
0100
0010
0100
0010
0100
0000
0001
0010
,  // measure 42
0100
1000
0100
1000
0100
1000
0010
0100
,  // measure 43
0001
0010
0001
0100
0010
0000
1000
0100
,  // measure 44
1000
0000
1000
0000
0101
0000
0010
1000
,  // measure 45
0001
0001
1000
1000
0100
0000
0010
0100
,  // measure 46
1000
1000
0010
0010
1000
1000
0100
0010
,  // measure 47
0001
0001
0100
0001
0010
0000
0100
0000
,  // measure 48
1000
0100
2000
0000
3000
0000
0110
0000
,  // measure 49
0001
0100
0010
0100
0001
0000
1001
0000
,  // measure 50
1000
0100
1000
0100
0010
0001
0010
0001
,  // measure 51
0100
0010
1000
0010
0100
0000
0110
0000
,  // measure 52
1001
0000
1001
0000
0110
0000
0001
0010
,  // measure 53
0100
0100
1000
1000
0001
0000
0101
0000
,  // measure 54
0010
0010
1000
1000
0001
0001
0010
0010
,  // measure 55
0100
1000
0001
1000
0100
0000
0010
0000
,  // measure 56
0011
0000
0101
0000
0001
1000
0100
0000
,  // measure 57
0010
0100
1000
0100
0010
0100
1000
0000
,  // measure 58
1010
0000
1001
0000
0100
0001
0010
0000
,  // measure 59
0001
0001
1000
0100
0010
0010
0100
0000
,  // measure 60
0110
0000
1001
0000
0100
0010
1000
0000
,  // measure 61
0001
0001
0010
0100
1000
1000
0001
0000
,  // measure 62
1010
0000
0101
0000
0010
1000
0100
0000
,  // measure 63
0010
0010
0001
0100
0010
0010
0100
0000
,  // measure 64
2002
3003
0000
0000
;
