#TITLE:Rock-Paper-Scissors;
#SUBTITLE:;
#ARTIST:Little Big;
#TITLETRANSLIT:;
#SUBTITLETRANSLIT:;
#ARTISTTRANSLIT:;
#GENRE:;
#CREDIT:;
#BANNER:;
#BACKGROUND:;
#LYRICSPATH:;
#CDTITLE:;
#MUSIC:Rock-Paper-Scissors.mp3;
#OFFSET:-0.206000;
#SAMPLESTART:25.806000;
#SAMPLELENGTH:12.800000;
#SELECTABLE:YES;
#BPMS:0.000000=150.000000
,206.000000=75.000000
,208.000000=150.000000
;
#STOPS:160.000000=1.200000,
162.000000=0.800000,
164.000000=0.800000,
169.000000=1.200000,
171.000000=0.800000,
173.000000=0.800000
;
#BGCHANGES:;
#KEYSOUNDS:;
#ATTACKS:;

//---------------dance-single - ----------------
#NOTES:
     dance-single:
     Shortysnmn2010:
     Beginner:
     1:
     0.103228,0.145636,0.032476,0.048714,0.000000,89.000000,85.000000,4.000000,6.000000,0.000000,0.000000,0.103228,0.145636,0.032476,0.048714,0.000000,89.000000,85.000000,4.000000,6.000000,0.000000,0.000000:
0000
0000
0000
0000
,
0000
0000
0000
0000
,
0000
0000
0000
0000
,
0000
0000
0000
0000
,
1000
0000
0000
0000
,
0100
0000
0000
0000
,
0010
0000
0000
0000
,
0200
0300
0100
0000
,
1000
0000
0001
0000
,
0100
0000
0000
0000
,
0010
0000
0000
0000
,
1000
0000
0000
0000
,
0001
0000
1000
0000
,
0100
0000
0000
0000
,
0010
0000
0000
0000
,
0100
0000
0000
0000
,
1000
0000
0000
0000
,
0001
0000
0000
0000
,
0010
0000
0000
0000
,
0001
0000
0000
0000
,
1000
0000
0000
0000
,
0010
0000
0000
0000
,
0100
0000
0000
0000
,
0001
0000
0000
0000
,
0100
0000
0000
0000
,
0010
0000
0000
0000
,
1000
0000
0000
0000
,
0100
0000
0000
0000
,
0001
0000
0000
0000
,
0100
0000
0000
0000
,
1000
0000
0000
0000
,
0010
0000
0000
0000
,
0200
0000
0300
0000
,
1001
0000
0000
0000
,
0020
0000
0030
0000
,
1001
0000
0000
0000
,
0002
0000
0003
0000
,
0110
0000
0000
0000
,
2000
0000
3000
0000
,
0110
0000
0000
0000
,
0001
1000
0000
0001
,
0000
1000
0000
0001
,
0000
0010
0100
0000
,
0010
0000
0100
0000
,
0010
0000
0100
0000
,
0000
0000
1000
0000
,
0000
0000
0001
0000
,
0000
0000
0100
0000
,
0000
0000
0010
0000
,
0000
0000
1000
0000
,
0000
0000
0001
0000
,
1000
0000
0001
0000
,
0010
0000
0010
0000
,
0010
0000
0000
0000
,
0001
0000
0000
0000
,
0100
0000
0000
0000
,
0001
0000
0001
0000
,
0001
0000
0000
0000
,
0010
0000
0000
0000
,
0100
0000
0000
0000
,
1000
0000
1000
0000
,
1000
0000
0001
0000
,
1000
0000
0000
0000
,
0001
0000
0000
0000
,
1000
0000
1000
0000
,
1000
0000
0001
0000
,
1000
0000
0000
0000
,
0010
0000
0000
0000
,
0100
0000
0000
0000
,
0010
0000
0000
0000
,
0100
0000
0000
0000
,
0001
0000
2000
3000
;

//---------------dance-single - ----------------
#NOTES:
     dance-single:
     Shortysnmn2010:
     Easy:
     4:
     0.242412,0.262144,0.032476,0.129905,0.000000,209.000000,205.000000,4.000000,16.000000,0.000000,0.000000,0.242412,0.262144,0.032476,0.129905,0.000000,209.000000,205.000000,4.000000,16.000000,0.000000,0.000000:
0000
0000
0000
0000
,
0000
0000
0000
0000
,
0000
0000
0000
0000
,
0000
0000
0000
0000
,
1000
0000
0001
0000
,
0010
0000
0100
0000
,
0010
0000
0001
0000
,
1000
0000
0000
0000
,
1000
0000
0001
0000
,
0100
0000
0000
0100
0000
0000
0001
0000
,
0010
0010
0010
0100
,
1000
0000
0000
1000
0000
0000
0010
0000
,
1000
0000
0000
0000
0100
0000
0000
1000
,
0000
0001
0000
1000
0000
0000
0010
0000
,
1000
1000
1000
0100
,
0010
0001
1000
0000
,
0001
0100
0001
0010
,
0001
1000
0100
0000
,
1000
0001
1000
0010
,
1000
0001
0200
0300
,
0001
0010
1000
0010
,
0100
0010
0001
0000
,
1000
0001
0100
0001
,
0010
0001
2000
3000
,
0010
0010
0010
1000
,
0100
0010
0010
0000
,
0100
0100
0100
1000
,
0010
0100
0200
0300
,
0001
0001
0001
1000
,
0100
0001
0001
0000
,
0100
0100
0100
1000
,
0001
0100
0200
0300
,
0010
0000
0000
0010
0000
0000
0000
0000
,
1000
0000
0000
0001
0000
0001
0000
0000
,
0010
0000
0000
0100
0000
0000
0000
0000
,
1000
0000
0000
0010
0000
0010
0000
0000
,
1000
0000
0000
0100
0000
0000
0000
0000
,
0010
0000
0000
0100
0000
0100
0000
0000
,
0010
0000
0000
0001
0000
0000
0000
0000
,
1000
0000
0000
0010
0000
0010
0000
0000
,
1000
0001
0000
0010
,
0000
0100
1000
0010
,
0100
0010
1000
0000
,
0001
0000
0010
0010
,
0001
1000
0100
0000
,
0100
0000
1000
1000
,
0010
0100
0001
0000
,
0001
0000
1000
1000
,
0100
0001
0100
0000
,
0100
1000
0010
1000
,
0100
0000
0010
0001
,
0010
0000
0001
0000
2000
0000
0000
3000
,
0002
0003
2000
3000
,
0010
0100
0001
0010
,
0200
0300
0020
0030
,
0001
1000
0010
0001
,
0020
0030
2000
3000
,
0001
0010
0100
1000
,
0002
0003
0200
0300
,
0001
0010
0001
0010
,
0100
0100
1000
0010
,
0010
1000
0100
0000
,
0010
0010
0001
0100
,
0100
0001
2000
3000
,
0001
0001
0100
1000
,
1000
0100
0001
0000
,
1000
1000
0010
0100
,
0100
0001
0020
0030
,
0100
0000
0000
1100
,
1001
0000
0010
0000
,
0001
0000
0000
0101
,
1001
0000
0020
0030
;

//---------------dance-single - ----------------
#NOTES:
     dance-single:
     Shortysnmn2010:
     Medium:
     6:
     0.369997,0.378653,0.186738,0.064952,0.000000,319.000000,296.000000,23.000000,8.000000,0.000000,0.000000,0.369997,0.378653,0.186738,0.064952,0.000000,319.000000,296.000000,23.000000,8.000000,0.000000,0.000000:
// measure 0
0000
0000
0000
0000
,  // measure 1
0000
0000
0000
0000
,  // measure 2
0000
0000
0000
0000
,  // measure 3
0000
0000
0000
0000
,  // measure 4
0000
1000
0000
0100
0000
0010
0000
1001
,  // measure 5
0000
0100
0000
0010
0000
1000
0000
0110
,  // measure 6
0000
0001
0000
1000
0000
0001
0000
1100
,  // measure 7
0000
0000
0000
0000
0000
0000
0010
0001
,  // measure 8
0010
0000
0001
0010
0001
0000
0100
0000
,  // measure 9
0010
0000
0100
0001
0000
0000
1000
0200
,  // measure 10
1000
0000
0001
0000
1300
0000
0010
0100
,  // measure 11
0001
0000
0010
0001
0000
0000
0001
1000
,  // measure 12
0002
0000
0003
1000
0100
1000
0000
0010
,  // measure 13
0000
0010
0000
0100
0001
0000
0010
0002
,  // measure 14
0100
0000
0013
0000
0110
0000
0100
1000
,  // measure 15
0100
1000
1001
0000
,  // measure 16
1000
0000
0100
1000
0100
0010
0100
0000
,  // measure 17
1000
0000
0010
0100
0010
0100
0000
0000
,  // measure 18
0001
0000
0010
0001
0010
0100
0010
0000
,  // measure 19
0001
0000
1000
0100
0010
0100
0000
0000
,  // measure 20
1000
0000
0010
0100
0010
1000
0010
0000
,  // measure 21
0100
0000
0001
1000
0100
1000
0000
0000
,  // measure 22
0001
0000
0010
0001
1000
0001
0010
0000
,  // measure 23
0100
0000
1000
0001
0010
0001
0000
0000
,  // measure 24
0100
0000
0001
0100
0010
0100
0001
0000
,  // measure 25
1000
0000
0100
0010
0100
1000
0000
0000
,  // measure 26
0001
0000
1000
0010
1000
0001
0100
0000
,  // measure 27
0001
0000
1000
0100
0010
0100
0000
0000
,  // measure 28
1000
0000
0010
1000
0010
0100
0001
0000
,  // measure 29
0010
0000
0001
0010
0100
1000
0000
0000
,  // measure 30
0001
0000
0010
0001
0010
0100
1000
0000
,  // measure 31
0010
0000
1000
0010
0100
0001
0000
0000
,  // measure 32
1000
0000
0000
1100
0000
0000
0000
0000
,  // measure 33
0001
0000
0000
0110
0000
0110
0000
0000
,  // measure 34
1000
0000
0000
0101
0000
0000
0000
0000
,  // measure 35
0010
0000
0000
1001
0000
1001
0000
0000
,  // measure 36
1000
0000
0000
0011
0000
0000
0000
0000
,  // measure 37
0100
0000
0000
0011
0000
0011
0000
0000
,  // measure 38
1000
0000
0000
0110
0000
0000
0000
0000
,  // measure 39
0001
0000
0000
1010
0000
1010
0000
0000
,  // measure 40
1000
0001
0000
0010
,  // measure 41
0000
0000
0100
0000
1000
0100
1000
0000
,  // measure 42
0010
0110
0001
0000
,  // measure 43
1000
0000
0000
0000
0100
0000
1000
0001
,  // measure 44
1000
0001
1000
0000
0010
0000
1000
0001
,  // measure 45
1000
0001
1000
0000
0100
0000
0010
0000
,  // measure 46
0002
0000
0003
0000
0100
0000
0001
1000
,  // measure 47
0001
1000
0001
0000
0010
0000
0001
1000
,  // measure 48
0001
2000
0000
3000
0100
0000
0010
0100
,  // measure 49
0010
0100
0010
0000
0001
0000
0100
0010
,  // measure 50
0100
0010
0000
0000
1000
0000
0001
0100
,  // measure 51
0001
0100
0001
0000
0010
0000
0000
1001
,  // measure 52
1000
0100
1000
0001
,  // measure 53
0010
0100
1001
0000
,  // measure 54
0001
0100
0001
1000
,  // measure 55
0010
1000
0110
0000
,  // measure 56
0001
1000
0010
0001
,  // measure 57
0010
1000
0101
0000
,  // measure 58
0010
1000
0100
0001
,  // measure 59
0100
1000
0011
0000
,  // measure 60
0001
0000
1000
0100
1000
0100
1000
0000
,  // measure 61
0010
0000
0100
0001
0100
0001
0000
0000
,  // measure 62
1000
0000
0010
0100
0010
1000
0100
0000
,  // measure 63
0010
0000
0001
0010
0100
0010
0000
0000
,  // measure 64
0001
0000
1000
0100
1000
0100
1000
0000
,  // measure 65
0010
0000
0100
0001
0100
0001
0000
0000
,  // measure 66
0010
0000
0001
1000
0100
1000
0001
0000
,  // measure 67
0010
0000
0001
0010
0100
1000
0000
0000
,  // measure 68
0002
0000
0000
0100
,  // measure 69
0100
0000
0103
0000
,  // measure 70
2000
0000
0000
0010
,  // measure 71
0010
0000
0020
3030
;

//---------------dance-single - ----------------
#NOTES:
     dance-single:
     Shortysnmn2010:
     Hard:
     9:
     0.540497,0.554379,0.381596,0.170500,0.133964,466.000000,419.000000,47.000000,21.000000,28.000000,0.000000,0.540497,0.554379,0.381596,0.170500,0.133964,466.000000,419.000000,47.000000,21.000000,28.000000,0.000000:
// measure 0
0000
0000
0000
0000
,  // measure 1
0000
0000
0000
0000
,  // measure 2
0000
0000
0000
0000
,  // measure 3
0000
0000
0000
0000
,  // measure 4
0000
1000
0000
0001
0000
1000
0000
0110
,  // measure 5
0000
0001
0000
1000
0000
0001
0000
0110
,  // measure 6
0000
1000
0000
0001
0000
1000
0000
0220
,  // measure 7
0000
0000
0330
0000
MMMM
0000
0001
1000
,  // measure 8
0100
0000
0100
1000
0001
0000
0010
0001
,  // measure 9
0010
1000
0010
0200
0000
0000
0010
0010
,  // measure 10
0310
0000
0110
0000
1001
0000
0001
0100
,  // measure 11
1000
0000
0100
0000
0001
0000
1000
0000
0100
0010
0100
0010
0100
0000
1000
0000
,  // measure 12
0001
0000
0000
0100
0001
0100
0000
1010
,  // measure 13
0000
1010
0000
0100
0001
0000
0010
0100
,  // measure 14
1000
0010
0100
1000
1100
0000
0100
0001
,  // measure 15
1000
0100
0020
0030
,  // measure 16
0001
0000
1000
0000
0001
0000
0100
0001
0000
0000
1000
0000
0100
0000
0010
0000
,  // measure 17
0100
0000
1000
0000
0010
0000
1000
0010
0000
0000
1000
0000
0100
0000
0001
0000
,  // measure 18
0100
0000
1000
0000
0010
0000
1000
0010
0000
0000
0100
0000
0001
0000
1000
0000
,  // measure 19
0010
0000
0001
0000
0010
0000
0100
0020
0000
0000
1000
0000
0100
0000
1030
0000
,  // measure 20
0001
0000
0010
0000
0001
0000
1000
0100
0000
0000
0010
0000
1000
0000
0010
0000
,  // measure 21
0100
0000
1000
0000
0001
0000
0100
0001
0000
0000
1000
0000
0100
0000
1000
0000
,  // measure 22
0010
0000
0100
0000
0001
0000
0010
1000
0000
0000
0010
0000
0100
0000
0010
0000
,  // measure 23
0001
0000
1000
0000
0001
0000
0100
0020
0000
0000
0001
0000
0100
0000
0031
0000
,  // measure 24
1000
0000
0100
0000
0001
0000
1000
0100
0000
0000
0010
0000
0100
0000
0010
0000
,  // measure 25
0100
0000
1000
0000
0010
0000
0100
0010
0000
0000
1000
0000
0001
0000
1000
0000
,  // measure 26
0100
0000
0001
0000
0100
0000
1000
0001
0000
0000
0010
0000
0001
0000
0010
0000
,  // measure 27
1000
0000
0010
0000
0100
0000
1000
0002
0000
0000
0010
0000
1000
0000
0103
0000
,  // measure 28
0010
0000
1000
0000
0001
0000
1000
0100
0000
0000
0010
0000
0001
0000
1000
0000
,  // measure 29
0001
0000
0010
0000
0100
0000
0001
0100
0000
0000
1000
0000
0100
0000
0010
0000
,  // measure 30
0001
0000
1000
0000
0010
0000
1000
0100
0000
0000
0010
0000
0100
0000
0010
0000
,  // measure 31
0001
0000
0100
0000
0010
0000
0100
0020
0000
0000
1000
0000
0100
0000
1030
0000
,  // measure 32
0001
0000
0000
2100
0000
0M00
3000
0000
,  // measure 33
0010
0000
0000
1001
0000
1001
0000
0000
,  // measure 34
0100
0000
0000
1020
0000
M000
0030
0000
,  // measure 35
0100
0000
0000
1010
0000
0011
0000
0000
,  // measure 36
0100
0000
0000
0012
0000
00M0
0003
0000
,  // measure 37
1000
0000
0000
0110
0000
1001
0000
0000
,  // measure 38
0010
0000
0000
0201
0000
000M
0300
0000
,  // measure 39
0010
0000
0000
0101
0000
1010
0000
0000
,  // measure 40
1001
0000
0110
0110
0000
0000
1001
1001
,  // measure 41
0000
0000
0110
0000
0101
0001
1000
0100
,  // measure 42
1100
0000
1001
0000
0011
1001
0000
0000
,  // measure 43
1100
1001
0000
0000
011M
0000
1000
0001
,  // measure 44
1MM0
0001
1000
0000
M110
0000
0001
1000
,  // measure 45
0MM1
1000
0001
0000
011M
0000
1000
0001
,  // measure 46
1MM0
0001
0000
0000
1M01
0000
0010
0100
,  // measure 47
M01M
0100
0010
0000
10M1
0000
0100
0010
,  // measure 48
M20M
0010
0010
0310
M100
0000
0101
0000
,  // measure 49
0011
1010
0011
1100
,  // measure 50
1010
0000
0101
0000
1000
0100
0010
0001
,  // measure 51
1000
0000
0100
0000
0010
0000
0100
1000
0002
0000
0000
0000
0003
0000
MMMM
0000
,  // measure 52
1000
0000
0010
0000
1000
0000
0001
0100
0000
0000
0001
0000
0010
0000
0001
0000
,  // measure 53
0100
0000
0010
0000
0100
0000
0001
1000
0000
0000
0100
0000
0010
0000
0100
0000
,  // measure 54
1000
0000
0001
0000
0010
0000
1000
0010
0000
0000
0100
0000
0010
0000
0100
0000
,  // measure 55
1000
0000
0010
0000
1000
0000
0001
0200
0000
0000
0010
0000
0001
0000
0310
0000
,  // measure 56
1000
0000
0100
0000
0001
0000
0100
0010
0000
0000
0100
0000
1000
0000
0001
0000
,  // measure 57
0100
0000
1000
0000
0100
0000
0010
0100
0000
0000
0001
0000
1000
0000
0100
0000
,  // measure 58
0010
0000
0100
0000
1000
0000
0001
0010
0000
0000
1000
0000
0010
0000
0100
0000
,  // measure 59
1000
0000
0010
0000
1000
0000
0001
0100
0000
0000
0010
0000
1000
0001
1000
0001
,  // measure 60
1000
0000
0010
0100
0001
0020
0001
0000
,  // measure 61
0031
0000
0010
0001
0100
0010
1000
0000
,  // measure 62
1100
0000
1000
0010
0100
0002
0100
0000
,  // measure 63
0103
0000
0010
1000
0002
1000
0010
1003
,  // measure 64
0001
0000
0010
0001
1000
0200
1000
0000
,  // measure 65
1300
0000
0100
0010
0001
0100
0001
0000
,  // measure 66
0101
0000
0100
0010
1000
0002
1000
0000
,  // measure 67
1003
0000
0010
1000
0200
0010
1000
0310
,  // measure 68
0100
0000
0000
0000
1000
0000
0100
1000
0000
0000
0001
0000
0010
0000
0001
0000
,  // measure 69
0010
0000
0010
0000
0100
0000
1000
0100
0000
0000
0010
0000
0100
0000
0010
0000
,  // measure 70
0100
0000
0000
0000
1000
0000
0010
1000
0000
0000
0001
0000
0100
0000
0001
0000
,  // measure 71
0010
0000
0010
0000
0100
0000
1000
0100
0000
0000
0010
0000
0100
0000
0010
0000
;
