#TITLE:Pompeii;
#SUBTITLE:;
#ARTIST:E.S. Posthumus;
#TITLETRANSLIT:;
#SUBTITLETRANSLIT:;
#ARTISTTRANSLIT:;
#GENRE:;
#CREDIT:;
#BANNER:;
#BACKGROUND:;
#LYRICSPATH:;
#CDTITLE:;
#MUSIC:Pompeii.mp3;
#OFFSET:-0.026000;
#SAMPLESTART:45.567001;
#SAMPLELENGTH:11.014999;
#SELECTABLE:YES;
#BPMS:0.000000=173.987000
;
#STOPS:
;
#BGCHANGES:;
#KEYSOUNDS:;
#ATTACKS:;

//---------------dance-single - ----------------
#NOTES:
     dance-single:
     Shortysnmn2010:
     Beginner:
     1:
     0.128518,0.178319,0.111382,0.017136,0.000000,105.000000,92.000000,13.000000,2.000000,0.000000,0.000000,0.128518,0.178319,0.111382,0.017136,0.000000,105.000000,92.000000,13.000000,2.000000,0.000000,0.000000:
0000
0000
0000
0000
,
0000
0000
0000
0000
,
0000
0000
0000
0000
,
0000
0000
0000
0000
,
0000
0000
0000
0000
,
1000
0000
0000
0000
,
0100
0000
0000
0000
,
1000
0000
0000
0000
,
0010
0000
0000
0000
,
0100
0000
0000
0000
,
0001
0000
0000
0000
,
0100
0000
0000
0000
,
0001
0000
0000
0000
,
0010
0000
0000
0000
,
0001
0000
0000
0000
,
1000
0000
0000
0000
,
0100
0000
0000
0000
,
0010
0000
0000
0000
,
0010
0000
0100
0000
,
1000
0000
0000
0000
,
0001
0000
0000
0000
,
0100
0000
0000
0000
,
0010
0000
0100
0000
,
0001
0000
0000
0000
,
1000
0000
0000
0000
,
0001
0000
0000
0000
,
1000
0000
0100
0000
,
0010
0000
0000
0000
,
0100
0000
0000
0000
,
0010
0000
0000
0000
,
0001
0000
0100
0000
,
0010
0000
0000
0000
,
0100
0000
0000
0000
,
1001
0000
0000
0000
,
0000
0000
1000
0000
,
1001
0000
0000
0000
,
0000
0000
0010
0000
,
0110
0000
0000
0000
,
0000
0000
0001
0000
,
1001
0000
0000
0000
,
0000
0000
0100
0000
,
0110
0000
0000
0000
,
0000
0000
1000
0000
,
1010
0000
0000
0000
,
0000
0000
0001
0000
,
0101
0000
0000
0000
,
0000
0000
1000
0000
,
1100
0000
0000
0000
,
0000
0000
0001
0000
,
0011
0000
0000
0000
,
0000
0000
0100
0100
,
0100
0000
0000
0000
,
0000
0000
1000
1000
,
1000
0000
0000
0000
,
0000
0000
0010
0010
,
0010
0000
0000
0000
,
0000
0000
0100
0100
,
0100
0000
0000
0001
,
0000
0000
0010
0000
,
0100
0000
0000
0010
,
0000
0000
0100
0000
,
1000
0000
0000
0010
,
0000
0000
1000
0000
,
0100
0000
0000
0010
,
0000
0000
0200
0000
,
0000
0000
0000
0000
,
0300
0000
0000
0000
,
0010
0000
0000
0000
,
0000
0000
0001
0000
,
0101
0000
0000
0000
,
0000
0000
1000
0000
,
1010
0000
0000
0000
,
0000
0000
0100
0000
,
0110
0000
0000
0000
,
0000
0000
0010
0000
,
0011
0000
0000
0000
,
0100
0000
1000
0000
,
0100
0000
0000
0000
,
0010
0000
0001
0000
,
0010
0000
0000
0000
,
0001
0000
1000
0000
,
0001
0000
0000
0000
,
0000
0000
0100
0200
,
0000
0300
0000
0000
;

//---------------dance-single - ----------------
#NOTES:
     dance-single:
     Shortysnmn2010:
     Hard:
     8:
     0.518969,0.606285,0.462665,0.119950,0.000000,424.000000,370.000000,54.000000,14.000000,0.000000,0.000000,0.518969,0.606285,0.462665,0.119950,0.000000,424.000000,370.000000,54.000000,14.000000,0.000000,0.000000:
// measure 0
0000
0000
0000
0000
,  // measure 1
0000
0000
0000
0000
,  // measure 2
0000
0000
0000
0000
,  // measure 3
0000
0000
0000
0000
,  // measure 4
0000
0000
0000
0000
,  // measure 5
1000
0100
0010
0000
0100
0000
1000
0000
,  // measure 6
0010
0100
1001
0000
,  // measure 7
0001
0010
0100
0000
0010
0000
0001
0000
,  // measure 8
0100
0010
1001
0000
,  // measure 9
1000
0001
0100
0000
1010
0000
1001
0000
,  // measure 10
0011
1001
1100
0000
,  // measure 11
0001
1000
0100
0000
0011
0000
1001
0000
,  // measure 12
1100
1001
0101
0000
,  // measure 13
0010
0100
0001
0000
0011
0000
0110
0000
,  // measure 14
1100
1001
0101
0000
,  // measure 15
0010
1000
0100
0000
0110
0000
0011
0000
,  // measure 16
1001
1010
0110
0000
,  // measure 17
0010
1000
0100
0000
1000
0000
0010
1000
,  // measure 18
0100
1000
0110
0000
,  // measure 19
0100
0001
0010
0000
0001
0000
0100
0001
,  // measure 20
0010
0001
0110
0000
,  // measure 21
1000
0100
0001
0000
0100
0000
1000
0100
,  // measure 22
0001
0100
1001
0000
,  // measure 23
0001
0010
1000
0000
0010
0000
0001
0010
,  // measure 24
1000
0010
1001
0000
,  // measure 25
0100
0001
1000
0000
0001
0000
1000
0001
,  // measure 26
0100
0010
0101
0000
,  // measure 27
1000
0001
0010
0000
0001
0000
1000
0001
,  // measure 28
0010
0100
0011
0000
,  // measure 29
0100
1000
0001
0000
1000
0000
0100
1000
,  // measure 30
0001
1000
0101
0000
,  // measure 31
0010
1000
0001
0000
1000
0000
0010
1000
,  // measure 32
0001
0100
0010
0100
0002
0000
0013
0100
,  // measure 33
1000
0010
1000
0000
0000
0100
0000
0100
,  // measure 34
0000
1001
0000
0001
0010
0000
0100
0000
,  // measure 35
0010
0001
0010
0000
0000
0001
0000
0001
,  // measure 36
0000
0110
0000
1000
0100
0000
0010
0000
,  // measure 37
0100
1000
0001
0000
0000
1000
0000
1000
,  // measure 38
0000
0101
0000
0010
1000
0000
0001
0000
,  // measure 39
0010
0100
0010
0000
0000
0001
0000
0001
,  // measure 40
0000
1010
0000
0100
0001
0000
1000
0000
,  // measure 41
0100
0020
0100
0000
0000
0001
0000
0100
,  // measure 42
0000
1000
0000
0100
0130
0000
1001
0000
,  // measure 43
1000
0200
1000
0000
0000
0001
0000
0010
,  // measure 44
0000
1000
0000
0010
0310
0000
1001
0000
,  // measure 45
0001
2000
0010
0000
0000
0100
0000
0010
,  // measure 46
0000
0001
0000
0010
3010
0000
0101
0000
,  // measure 47
0100
0001
0010
0000
0000
0011
0000
1100
,  // measure 48
0000
1001
0000
0110
0110
0000
1001
0000
,  // measure 49
1000
0001
0000
0001
1000
0000
1000
0100
,  // measure 50
0000
0100
2000
0000
0010
0000
3010
0000
,  // measure 51
0100
0001
0000
0001
0100
0000
0100
0010
,  // measure 52
0000
0010
2000
0000
0100
0000
3100
0000
,  // measure 53
0010
0100
0000
0100
0010
0000
0010
0001
,  // measure 54
0000
0001
2000
0000
0010
0000
3010
0000
,  // measure 55
0100
0001
0000
0001
0100
0000
0100
1000
,  // measure 56
0000
1000
0200
0000
0001
0000
0301
0000
,  // measure 57
1000
0100
0100
0010
0001
0001
0100
0010
,  // measure 58
0010
0100
0001
0001
0010
0000
1100
0000
,  // measure 59
0100
1000
1000
0010
0100
0100
0001
0010
,  // measure 60
0010
0001
1000
1000
0010
0100
0010
0000
,  // measure 61
1000
0100
0100
0001
0100
0100
1000
0100
,  // measure 62
0100
0010
0100
0100
1000
0000
1010
0000
,  // measure 63
0010
1000
1000
0100
1000
1000
0001
1000
,  // measure 64
1000
0100
1000
1000
0010
0100
0020
0000
,  // measure 65
0000
0000
0000
0000
,  // measure 66
0100
0100
0100
0130
,  // measure 67
0001
0010
0001
0000
0000
1000
0000
0100
,  // measure 68
0000
0011
0000
0001
0100
0000
0010
0000
,  // measure 69
1000
0100
0010
0000
0000
0100
0000
1000
,  // measure 70
0000
1010
0000
0100
0001
0000
1000
0000
,  // measure 71
0001
0010
0100
0000
0000
1000
0000
0001
,  // measure 72
0000
0110
0000
1000
0100
0000
0010
0000
,  // measure 73
0100
1000
0010
0000
0000
0100
0000
0001
,  // measure 74
0000
1100
0000
0010
0001
0000
0100
0000
,  // measure 75
0020
0100
0100
0000
0000
1000
0000
0100
,  // measure 76
0000
0001
0000
0100
0100
0000
1030
0000
,  // measure 77
2000
0001
0001
0000
0000
0100
0000
0010
,  // measure 78
0000
0100
0000
0001
0001
0000
3010
0000
,  // measure 79
0020
0100
0100
0000
0000
0001
0000
0100
,  // measure 80
0000
1000
0000
0100
0100
0000
1030
0000
,  // measure 81
1000
0001
0010
0000
0000
0011
0000
1100
,  // measure 82
0000
0110
0000
1001
1001
0000
0220
0000
,  // measure 83
0000
0330
0000
0000
;

//---------------dance-single - ----------------
#NOTES:
     dance-single:
     Shortysnmn2010:
     Easy:
     3:
     0.187269,0.286167,0.094247,0.171358,0.000000,153.000000,142.000000,11.000000,20.000000,0.000000,0.000000,0.187269,0.286167,0.094247,0.171358,0.000000,153.000000,142.000000,11.000000,20.000000,0.000000,0.000000:
// measure 0
0000
0000
0000
0000
,  // measure 1
0000
0000
0000
0000
,  // measure 2
0000
0000
0000
0000
,  // measure 3
0000
0000
0000
0000
,  // measure 4
0000
0000
0000
0000
,  // measure 5
1000
0000
0010
0000
,  // measure 6
0100
0000
0001
0000
,  // measure 7
1000
0000
0001
0000
,  // measure 8
1000
0100
1000
0000
,  // measure 9
0001
0000
0010
0000
,  // measure 10
0100
0000
1000
0000
,  // measure 11
0001
0000
1000
0000
,  // measure 12
0100
0000
0010
0000
,  // measure 13
0001
0000
0100
0000
,  // measure 14
0010
0000
0100
0000
,  // measure 15
0001
0000
0010
0000
,  // measure 16
0100
0010
0100
0000
,  // measure 17
1000
0000
0000
0001
,  // measure 18
0000
0000
0010
0000
,  // measure 19
0100
0000
0000
0100
,  // measure 20
0000
0000
1000
0000
,  // measure 21
0001
0000
0000
0001
,  // measure 22
0000
0000
0010
0000
,  // measure 23
0001
0000
0000
1000
,  // measure 24
0000
0000
0010
0000
,  // measure 25
0100
0000
0000
0001
,  // measure 26
0000
0000
0100
0000
,  // measure 27
0010
0000
0000
1000
,  // measure 28
0000
0000
0100
0000
,  // measure 29
0001
0000
0000
0100
,  // measure 30
0000
0000
0010
0000
,  // measure 31
0100
0000
0000
1000
,  // measure 32
0002
0000
0003
0000
,  // measure 33
1000
2000
0000
0000
,  // measure 34
3000
0000
0010
0100
,  // measure 35
0001
0002
0000
0000
,  // measure 36
0003
0000
0010
0100
,  // measure 37
0010
0020
0000
0000
,  // measure 38
0030
0000
0001
0100
,  // measure 39
0001
0002
0000
0000
,  // measure 40
0003
0000
1000
0010
,  // measure 41
1000
2000
0000
0000
,  // measure 42
3000
0000
0100
0010
,  // measure 43
0001
2000
0000
0000
,  // measure 44
3000
0000
0010
0100
,  // measure 45
0001
0020
0000
0000
,  // measure 46
0030
0000
0001
0100
,  // measure 47
0010
2000
0000
0000
,  // measure 48
3000
0000
0001
0010
,  // measure 49
0001
0000
0000
1000
,  // measure 50
0000
0000
0010
0100
,  // measure 51
0010
0000
0000
1000
,  // measure 52
0000
0000
0100
0010
,  // measure 53
0100
0000
0000
1000
,  // measure 54
0000
0000
0001
0010
,  // measure 55
0001
0000
0000
1000
,  // measure 56
0000
0000
0010
0100
,  // measure 57
0010
0000
0000
0110
,  // measure 58
0000
0000
0101
0000
,  // measure 59
1001
0000
0000
1010
,  // measure 60
0000
0000
1100
0000
,  // measure 61
1001
0000
0000
0011
,  // measure 62
0000
0000
0101
0000
,  // measure 63
1001
0000
0000
1010
,  // measure 64
0000
0000
2002
0000
,  // measure 65
0000
0000
0000
0000
,  // measure 66
0000
0000
3003
0000
,  // measure 67
1000
0200
0000
0000
,  // measure 68
0300
0000
1000
0010
,  // measure 69
0100
0002
0000
0000
,  // measure 70
0003
0000
0010
0100
,  // measure 71
0010
0002
0000
0000
,  // measure 72
0003
0000
0100
0010
,  // measure 73
1000
0200
0000
0000
,  // measure 74
0300
0000
1000
0010
,  // measure 75
0001
0020
0000
0000
,  // measure 76
0030
0000
0100
1000
,  // measure 77
0100
0002
0000
0000
,  // measure 78
0003
0000
1000
0100
,  // measure 79
0001
0200
0000
0000
,  // measure 80
0300
0000
1000
0001
,  // measure 81
0100
2000
0000
0000
,  // measure 82
3000
0000
0100
0002
,  // measure 83
0000
0000
0003
0000
;

//---------------dance-single - ----------------
#NOTES:
     dance-single:
     Shortysnmn2010:
     Medium:
     5:
     0.308444,0.354496,0.188493,0.017136,0.000000,252.000000,230.000000,22.000000,2.000000,0.000000,0.000000,0.308444,0.354496,0.188493,0.017136,0.000000,252.000000,230.000000,22.000000,2.000000,0.000000,0.000000:
// measure 0
0000
0000
0000
0000
,  // measure 1
0000
0000
0000
0000
,  // measure 2
0000
0000
0000
0000
,  // measure 3
0000
0000
0000
0000
,  // measure 4
0000
0000
0000
0000
,  // measure 5
1000
0000
0100
0000
,  // measure 6
0010
0000
1001
0000
,  // measure 7
0001
0000
0100
0000
,  // measure 8
0010
0000
1001
0000
,  // measure 9
1000
0100
1000
0001
,  // measure 10
0100
0001
1000
0000
,  // measure 11
0001
0010
0001
1000
,  // measure 12
0010
1000
0001
0000
,  // measure 13
0010
0100
0010
0001
,  // measure 14
0100
0010
0100
0000
,  // measure 15
0001
1000
0100
0010
,  // measure 16
0100
1000
0010
0000
,  // measure 17
0100
0000
0000
0001
,  // measure 18
0000
0000
0011
0000
,  // measure 19
0100
0000
0000
1000
,  // measure 20
0000
0000
1010
0000
,  // measure 21
0100
0000
0000
0010
,  // measure 22
0000
0000
1001
0000
,  // measure 23
0001
0000
0000
0010
,  // measure 24
0000
0000
1100
0000
,  // measure 25
0010
0000
0000
0001
,  // measure 26
0000
0000
1010
0000
,  // measure 27
0100
0000
0000
0001
,  // measure 28
0000
0000
0110
0000
,  // measure 29
1000
0000
0000
0100
,  // measure 30
0000
0000
1001
0000
,  // measure 31
0010
0000
0000
0001
,  // measure 32
2000
0000
3000
0000
,  // measure 33
0001
0000
0001
0000
0000
1000
0000
0010
,  // measure 34
0000
1000
0000
0100
1000
0000
0100
0000
,  // measure 35
0010
0000
0010
0000
0000
0100
0000
0010
,  // measure 36
0000
0100
0000
1000
0100
0000
0010
0000
,  // measure 37
0001
0000
0001
0000
0000
1000
0000
0010
,  // measure 38
0000
1000
0000
0001
0100
0000
0010
0000
,  // measure 39
0100
0000
0100
0000
0000
0001
0000
1000
,  // measure 40
0000
0001
0000
0010
0001
0000
1000
0000
,  // measure 41
0100
0000
0100
0000
0000
1000
0000
0010
,  // measure 42
0000
0100
0000
0001
0100
0000
0001
0000
,  // measure 43
1000
0000
1000
0000
0000
0010
0000
1000
,  // measure 44
0000
0001
0000
0100
0001
0000
0010
0000
,  // measure 45
0001
0000
0001
0000
0000
1000
0000
0100
,  // measure 46
0000
0010
0000
1000
0010
0000
0001
0000
,  // measure 47
1000
0000
1000
0000
0000
0001
0000
0010
,  // measure 48
0000
0001
0000
1000
0001
0000
0100
0000
,  // measure 49
0110
0000
0000
0000
,  // measure 50
0000
0000
1001
1001
,  // measure 51
0110
0000
0000
0000
,  // measure 52
0000
0000
1010
0101
,  // measure 53
1001
0000
0000
0000
,  // measure 54
0000
0000
0011
1100
,  // measure 55
1001
0000
0000
0000
,  // measure 56
0000
0000
1010
0101
,  // measure 57
1000
0000
0000
0100
0000
0000
0010
0000
,  // measure 58
0000
0001
0000
0000
1000
0000
0010
0000
,  // measure 59
1000
0000
0000
0001
0000
0000
0100
0000
,  // measure 60
0000
1000
0000
0000
0100
0001
0100
0000
,  // measure 61
0001
0000
0000
0010
0000
0000
0100
0000
,  // measure 62
0000
0010
0000
0000
0001
0000
1000
0000
,  // measure 63
0010
0000
0000
1000
0000
0000
0001
0000
,  // measure 64
0000
0010
0000
0000
0100
0010
0200
0000
,  // measure 65
0000
0000
0000
0000
,  // measure 66
1000
0010
0001
0310
,  // measure 67
1000
0000
1000
0000
0000
0001
0000
0100
,  // measure 68
0000
0001
0000
0010
0001
0000
1000
0000
,  // measure 69
0100
0000
0100
0000
0000
0010
0000
0100
,  // measure 70
0000
0010
0000
0001
0100
0000
0010
0000
,  // measure 71
0100
0000
0100
0000
0000
0001
0000
0010
,  // measure 72
0000
0001
0000
1000
0100
0000
0010
0000
,  // measure 73
0100
0000
0100
0000
0000
1000
0000
0001
,  // measure 74
0000
0100
0000
0010
0100
0000
0001
0000
,  // measure 75
0010
0000
0010
0000
0000
0001
0000
1000
,  // measure 76
0000
0010
0000
0001
0010
0000
0100
0000
,  // measure 77
0010
0000
0010
0000
0000
1000
0000
0100
,  // measure 78
0000
0001
0000
0100
0010
0000
0100
0000
,  // measure 79
1000
0000
1000
0000
0000
0010
0000
0001
,  // measure 80
0000
0010
0000
0100
0010
0000
1000
0000
,  // measure 81
0001
0000
0001
0000
0000
0010
0000
0001
,  // measure 82
0000
1000
0000
0001
0100
0000
0110
0000
;
