#TITLE:Party in my Head;
#SUBTITLE:;
#ARTIST:September;
#TITLETRANSLIT:;
#SUBTITLETRANSLIT:;
#ARTISTTRANSLIT:;
#GENRE:;
#CREDIT:;
#BANNER:;
#BACKGROUND:;
#LYRICSPATH:;
#CDTITLE:;
#MUSIC:Party in my Head.mp3;
#OFFSET:-0.023000;
#SAMPLESTART:59.119999;
#SAMPLELENGTH:14.749000;
#SELECTABLE:YES;
#BPMS:0.000000=130.000000
;
#STOPS:
;
#BGCHANGES:;
#KEYSOUNDS:;
#ATTACKS:;

//---------------dance-single - ----------------
#NOTES:
     dance-single:
     Shortysnmn2010:
     Easy:
     2:
     0.137281,0.186090,0.000000,0.015754,0.000000,122.000000,122.000000,0.000000,2.000000,0.000000,0.000000,0.137281,0.186090,0.000000,0.015754,0.000000,122.000000,122.000000,0.000000,2.000000,0.000000,0.000000:
0000
0000
0000
0000
,
0000
0000
0000
0000
,
0000
0000
0000
0000
,
0000
0000
0000
0000
,
1000
0000
0001
0000
,
1000
0000
0000
0000
,
0010
0000
0010
0000
,
0010
0000
0010
0000
,
0100
0000
0000
0000
,
0001
0001
0001
0000
,
0010
0000
0000
0000
,
0100
0100
0100
0000
,
1000
0000
0000
0000
,
0001
0001
0001
0000
,
1000
1000
1000
0000
,
0001
0000
0000
0000
,
0010
0000
0100
0000
,
1000
0000
0000
0000
,
0001
0000
0100
0000
,
0001
0000
0000
0000
,
1000
0000
0001
0000
,
1000
0000
0000
0000
,
0001
0000
0010
0000
,
0001
0000
0000
0000
,
1000
0000
0010
0010
,
0010
0000
0100
0000
,
0001
0000
0000
0000
,
1000
0000
0000
0000
,
0001
0000
0010
0010
,
0010
0000
0100
0000
,
1000
0000
0000
0000
,
0001
0000
0000
0000
,
0100
0000
0001
0000
,
1000
1000
1000
0000
,
0001
0000
1000
0000
,
0001
0001
0001
0000
,
0010
0000
0100
0000
,
1000
0000
0000
0000
,
0010
0010
0010
0000
,
0100
0000
0100
0000
,
0001
0001
0001
0000
,
0010
0000
0000
0000
,
0100
0100
0100
0000
,
1000
0000
0000
0000
,
0010
0010
0010
0000
,
0100
0000
0000
0000
,
0001
0001
0001
0000
,
1000
1000
1000
0000
,
0010
0000
0100
0000
,
0010
0000
0000
0000
,
1000
0000
0001
0000
,
1000
0000
0000
0000
,
0001
0000
0010
0000
,
0001
0000
0000
0000
,
1000
0000
0100
0000
,
0001
0000
0000
0000
,
0100
0100
0100
0000
,
1000
0000
0010
0000
,
1000
1000
1000
0000
,
0001
0000
0100
0000
,
0001
0001
0001
0000
,
0010
0000
0100
0000
,
1000
0000
0010
0000
,
0100
0001
1000
0001
,
0100
0000
0200
0000
,
0000
0000
0300
0000
,
0010
0000
0020
0000
,
0000
0000
0030
0000
;

//---------------dance-single - ----------------
#NOTES:
     dance-single:
     Shortysnmn2010:
     Medium:
     5:
     0.312822,0.372868,0.299319,0.173290,0.000000,278.000000,240.000000,38.000000,22.000000,0.000000,0.000000,0.312822,0.372868,0.299319,0.173290,0.000000,278.000000,240.000000,38.000000,22.000000,0.000000,0.000000:
// measure 0
0000
0000
0000
0000
,  // measure 1
0000
0000
0000
0000
,  // measure 2
0000
0000
0000
0000
,  // measure 3
0000
0000
0000
0000
,  // measure 4
0000
0001
0000
1000
,  // measure 5
0000
0010
0000
1000
,  // measure 6
0100
1000
0100
0000
1000
0000
0000
0000
,  // measure 7
0001
0100
0001
0000
0100
0000
0000
0000
,  // measure 8
0011
0000
0101
0000
0011
0000
0001
0100
,  // measure 9
0001
0011
0101
0000
,  // measure 10
0010
1000
0100
0000
1000
0000
0010
0000
,  // measure 11
1010
1100
1010
0000
,  // measure 12
1000
0000
0001
0010
0001
0000
1000
0000
,  // measure 13
0100
0010
0100
0000
1000
0000
0000
0001
,  // measure 14
0100
0000
0001
0000
0011
0000
0000
0001
,  // measure 15
1000
0100
0110
0000
,  // measure 16
1000
0101
1000
0101
,  // measure 17
0010
1000
0100
0000
1100
0000
0000
0000
,  // measure 18
1000
0000
0001
0000
0010
0000
0001
1000
,  // measure 19
0000
1000
0001
0000
0100
0000
0000
0000
,  // measure 20
0001
1010
0001
1010
,  // measure 21
0100
0001
0010
0000
0011
0000
0000
0000
,  // measure 22
0001
0000
0100
0000
0001
0000
1000
0100
,  // measure 23
0000
0100
1000
0000
0010
0000
0000
0000
,  // measure 24
1000
0000
0100
1000
0100
0000
0010
0000
,  // measure 25
0001
0100
0001
0010
,  // measure 26
0200
0000
0300
1000
0200
0000
0300
0001
,  // measure 27
0200
0000
0300
1000
0000
1001
0000
0000
,  // measure 28
0001
0000
0100
0001
0010
0000
0001
0000
,  // measure 29
0100
1000
0100
0010
,  // measure 30
2000
0000
3000
0100
2000
0000
3000
0000
,  // measure 31
1001
0000
0000
0000
,  // measure 32
0010
0000
0010
0000
0010
0000
0001
0100
,  // measure 33
0010
1000
0001
0000
,  // measure 34
1000
0100
1000
0000
1100
0000
0000
0000
,  // measure 35
0001
0100
0001
0000
0101
0000
0000
0000
,  // measure 36
1000
0000
1000
0000
1000
0000
0010
1000
,  // measure 37
0100
1000
0010
0000
,  // measure 38
0100
0001
0100
0000
0101
0000
0000
0000
,  // measure 39
0010
1000
0010
0000
1010
0000
0000
0000
,  // measure 40
2000
0100
3001
1001
,  // measure 41
0002
0010
1003
1001
,  // measure 42
2000
0010
3001
1001
,  // measure 43
0002
0100
1003
1001
,  // measure 44
1000
0000
0010
1000
0100
0000
1000
0000
,  // measure 45
0001
0100
0001
0000
0011
0000
0000
0000
,  // measure 46
1000
0100
1000
0000
1010
0000
0000
0000
,  // measure 47
0100
0001
0100
0000
0010
0000
1000
0001
,  // measure 48
1000
0000
1000
0000
1000
0000
0100
0010
,  // measure 49
0001
0000
0100
0010
2000
0000
0000
0000
,  // measure 50
0100
0100
0100
0000
,  // measure 51
0010
0000
3010
0000
,  // measure 52
0010
0000
0010
0000
0010
0000
0100
0001
,  // measure 53
1000
0100
0020
0000
,  // measure 54
0100
0100
0100
0000
,  // measure 55
0001
0000
0031
0000
,  // measure 56
2000
0010
3001
1001
,  // measure 57
0002
0100
1003
1001
,  // measure 58
2000
0100
3001
1001
,  // measure 59
0002
0010
1003
1001
,  // measure 60
1000
0000
0001
0010
0001
0000
0100
0000
,  // measure 61
0010
1000
0100
0000
,  // measure 62
1000
0100
0010
0000
1100
0000
0000
0000
,  // measure 63
0001
0100
0010
0000
0101
0000
0000
0000
,  // measure 64
0020
0000
0000
0000
0030
0000
0000
0010
,  // measure 65
0000
2002
0000
0000
0000
3003
0000
0100
,  // measure 66
0000
0220
0000
0000
0000
0330
0000
1000
,  // measure 67
0000
2002
0000
3003
0000
1001
0000
0000
;

//---------------dance-single - ----------------
#NOTES:
     dance-single:
     Shortysnmn2010:
     Beginner:
     1:
     0.092271,0.132921,0.000000,0.031507,0.000000,82.000000,82.000000,0.000000,4.000000,0.000000,0.000000,0.092271,0.132921,0.000000,0.031507,0.000000,82.000000,82.000000,0.000000,4.000000,0.000000,0.000000:
0000
0000
0000
0000
,
0000
0000
0000
0000
,
0000
0000
0000
0000
,
0000
0000
0000
0000
,
1000
0000
0000
0000
,
0001
0000
0000
0000
,
0010
0000
0000
0000
,
0001
0000
0000
0000
,
1000
1000
1000
0000
,
0001
0000
0000
0000
,
0100
0100
0100
0000
,
0010
0000
0000
0000
,
1000
0000
1000
0000
,
1000
0000
0000
0000
,
0001
0000
0001
0000
,
0001
0000
0000
0000
,
0010
0000
0000
0000
,
0100
0000
0000
0000
,
1000
0000
0000
0000
,
0001
0000
1000
0000
,
0001
0000
0000
0000
,
0100
0000
0000
0000
,
0010
0000
0000
0000
,
1000
0000
0100
0000
,
2000
0000
0000
3000
,
0001
0000
0000
0000
,
0010
0000
0000
0000
,
0100
0000
0000
0000
,
0020
0000
0000
0030
,
0001
0000
0000
0000
,
0100
0000
0000
0000
,
0010
0000
0000
0000
,
1000
1000
1000
0000
,
0100
0000
0000
0000
,
0010
0000
0000
0000
,
0001
0000
0000
0000
,
0100
0100
0100
0000
,
0001
0000
0000
0000
,
0010
0000
0000
0000
,
0100
0000
0000
0000
,
0010
0000
0010
0000
,
0100
0000
0100
0000
,
0010
0000
0000
0000
,
0100
0000
0000
0000
,
1000
0000
0000
0000
,
0001
0000
0000
0000
,
0100
0000
0000
0000
,
0010
0000
0000
0000
,
1000
1000
1000
0000
,
0001
0000
0000
0000
,
0010
0000
0000
0000
,
1000
0000
0000
0000
,
0001
0001
0001
0000
,
0100
0000
0000
0000
,
1000
0000
0000
0000
,
0010
0000
0000
0000
,
0100
0000
0100
0000
,
0010
0000
0010
0000
,
0100
0000
0000
0000
,
0010
0000
0000
0000
,
1000
0000
0000
0000
,
0001
0000
0000
0000
,
0100
0000
0000
0000
,
0010
0000
0000
0000
,
2000
0000
0000
0000
,
3000
0000
0000
0000
,
0002
0000
0000
0000
,
0000
0000
0003
0000
;

//---------------dance-single - ----------------
#NOTES:
     dance-single:
     Shortysnmn2010:
     Hard:
     7:
     0.451228,0.426135,0.236304,0.157536,0.047261,401.000000,371.000000,30.000000,20.000000,0.000000,0.000000,0.451228,0.426135,0.236304,0.157536,0.047261,401.000000,371.000000,30.000000,20.000000,0.000000,0.000000:
// measure 0
0000
0000
0000
0000
,  // measure 1
0000
0000
0000
0000
,  // measure 2
0000
0000
0000
0000
,  // measure 3
0000
0000
0000
0000
,  // measure 4
2000
0000
3001
0100
0001
0000
0010
0100
,  // measure 5
0010
0001
0100
0010
0100
0000
0001
1000
,  // measure 6
0100
0001
0100
1000
0100
0000
0000
1000
,  // measure 7
0001
0100
0010
0100
0001
0000
0000
0000
,  // measure 8
2010
0000
3002
0000
0103
0010
0100
0001
,  // measure 9
0020
0000
0100
0000
0031
0000
1000
0010
,  // measure 10
0001
0010
0100
0001
0200
0000
1000
0000
,  // measure 11
0001
0000
0310
0000
1001
0000
1000
0100
,  // measure 12
0010
0001
0010
1000
0010
0000
0110
0000
,  // measure 13
0100
1000
0010
0100
0001
0000
0001
0100
,  // measure 14
0001
0010
0100
1000
0010
0000
0010
1000
,  // measure 15
0010
1000
0100
0010
0002
0000
1003
0100
,  // measure 16
1000
0010
1000
0100
1000
0000
0001
0100
,  // measure 17
0000
0100
0001
0000
1100
0000
0010
0001
,  // measure 18
0000
0001
1000
0000
1001
0000
0001
0010
,  // measure 19
0000
0001
0010
0000
0110
0000
0100
1000
,  // measure 20
0010
1000
0100
0000
0110
0000
0010
0001
,  // measure 21
0000
0001
0100
0000
0110
0000
0010
1000
,  // measure 22
0000
1000
0001
0000
1001
0000
1000
0100
,  // measure 23
0000
1000
0001
1000
0000
0110
0000
0000
,  // measure 24
0102
0000
1000
1003
0010
1000
0100
0000
,  // measure 25
0010
0001
0010
0100
1000
0001
1000
0010
,  // measure 26
0100
0000
0000
0001
0000
0000
0010
0000
0200
0000
0000
0000
0300
0000
1000
0000
,  // measure 27
0100
0000
0000
1000
0000
0000
0010
0000
0000
0000
0110
0000
0000
0000
0000
0000
,  // measure 28
2010
0000
0001
3001
0010
0001
0100
0000
,  // measure 29
0001
0010
0100
1000
0001
1000
0010
0100
,  // measure 30
0001
0000
0000
1000
0000
0000
0010
0000
0200
0000
0000
0000
0300
0000
0000
0000
,  // measure 31
0001
0000
0000
1000
0000
0000
0001
0000
0000
0000
1001
0000
0000
0000
0000
0000
,  // measure 32
1000
0100
0010
0100
1000
0000
0001
0100
,  // measure 33
0001
0000
0010
0100
0010
0000
0001
0100
,  // measure 34
1000
0100
0001
0010
0001
0000
0001
0100
,  // measure 35
1000
0100
0001
0010
0001
0000
1000
0010
,  // measure 36
1000
0000
0010
0001
0010
0000
1000
0001
,  // measure 37
0100
1000
0100
0001
1000
0000
0001
1000
,  // measure 38
0010
0001
0010
1000
0001
0000
1000
0100
,  // measure 39
0001
0100
1000
0001
1000
0000
0000
0000
,  // measure 40
2010
0000
0001
0000
3010
0100
0001
0010
,  // measure 41
0002
0000
0100
0000
1003
0000
0000
0010
,  // measure 42
1000
0001
0010
0001
2000
0000
0100
0000
,  // measure 43
3002
0000
0100
0000
1003
0010
0100
0010
,  // measure 44
1000
0100
0010
0100
1000
0000
1001
0000
,  // measure 45
0001
0100
0010
0100
0001
0000
0010
0100
,  // measure 46
0010
0001
0100
0010
0100
0000
0010
1000
,  // measure 47
0100
0010
0100
1000
0010
0000
0100
0000
,  // measure 48
0102
0000
1000
0000
0103
0000
0001
0010
,  // measure 49
0001
0000
1000
0100
0010
0000
0001
1000
,  // measure 50
0000
0000
0010
0000
0010
0000
0000
1001
0000
0000
0101
0000
0000
0000
0010
0000
,  // measure 51
0000
0000
1000
0000
1000
0000
0000
0011
0000
0000
0001
0000
0010
0000
0001
0000
,  // measure 52
1000
0000
0100
0010
0100
0000
1000
0001
,  // measure 53
0100
0001
0010
0100
1000
0000
0010
0100
,  // measure 54
0000
0000
0001
0000
0001
0000
0000
1100
0000
0000
1001
0000
0000
0000
1000
0000
,  // measure 55
0000
0000
0010
0000
0010
0000
0000
0101
0000
0000
1001
0000
0000
0000
0000
0000
,  // measure 56
2010
0000
0001
0000
3100
0010
0100
1000
,  // measure 57
0020
0000
0100
0000
1030
0000
0000
0010
,  // measure 58
1000
0001
0010
1000
0020
0000
0001
0000
,  // measure 59
1030
0000
0020
0000
0001
0000
1030
0010
,  // measure 60
0100
1000
0100
0010
0001
0000
0101
0000
,  // measure 61
0010
1000
0001
1000
0100
0000
1000
0010
,  // measure 62
1000
0001
0100
0001
0010
0000
0000
0100
,  // measure 63
0010
0100
0010
0100
2000
0000
3010
0100
,  // measure 64
0001
0000
0010
0000
0001
0000
0000
1000
0000
0000
1100
0000
0000
0000
0010
0000
,  // measure 65
0000
0000
0001
0000
0100
0000
0000
0010
0000
0000
1010
0000
0000
0000
0100
0000
,  // measure 66
0000
0000
0001
0000
0010
0000
0000
0100
0000
0000
1100
0000
0000
0000
0010
0000
,  // measure 67
0000
0000
0001
0000
1000
0000
0000
0010
0000
0000
1001
0000
0000
0000
0000
0000
;
