#TITLE:Ladder to the Sky;
#SUBTITLE:;
#ARTIST:Zircon;
#TITLETRANSLIT:;
#SUBTITLETRANSLIT:;
#ARTISTTRANSLIT:;
#GENRE:;
#CREDIT:;
#BANNER:;
#BACKGROUND:;
#LYRICSPATH:;
#CDTITLE:;
#MUSIC:Ladder to the Sky.mp3;
#OFFSET:-0.084000;
#SAMPLESTART:67.060997;
#SAMPLELENGTH:14.884000;
#SELECTABLE:YES;
#BPMS:0.000000=129.000000
;
#STOPS:
;
#BGCHANGES:;
#KEYSOUNDS:;
#ATTACKS:;

//---------------dance-single - ----------------
#NOTES:
     dance-single:
     Shortysnmn2010:
     Beginner:
     1:
     0.091006,0.110751,0.021967,0.161092,0.000000,87.000000,84.000000,3.000000,22.000000,0.000000,0.000000,0.091006,0.110751,0.021967,0.161092,0.000000,87.000000,84.000000,3.000000,22.000000,0.000000,0.000000:
0000
0000
0000
0000
,
0000
0000
0000
0000
,
0000
0000
0000
0000
,
0000
0000
0000
0000
,
1000
0000
0000
0001
,
0001
0000
0000
0010
,
0010
0000
0000
0001
,
0001
0000
0000
1000
,
1000
0000
0000
1000
,
0010
0000
0000
0010
,
0100
0000
0000
0100
,
0010
0000
0000
0010
,
2000
0000
3000
0000
,
0100
0000
0100
0000
,
0010
0000
0000
0000
,
0001
0000
0000
0000
,
0002
0000
0003
0000
,
0100
0000
0100
0000
,
0010
0000
0000
0000
,
1000
0000
0000
0000
,
1001
0000
0000
0000
,
0001
0000
0001
0000
,
0010
0000
0000
0000
,
0100
0000
0000
0000
,
0110
0000
0000
0000
,
0100
0000
0100
0000
,
1000
0000
0000
0000
,
0010
0000
0000
0000
,
0200
0000
0000
0000
,
0001
0000
0300
0000
,
0002
0000
0000
0000
,
1000
0000
0003
0000
,
2000
0000
0000
0000
,
0010
0000
3000
0000
,
0002
0000
0000
0000
,
0100
0000
0003
0000
,
2000
3000
0000
1000
,
0002
0003
0000
0001
,
0020
0030
0000
0010
,
0200
0300
0000
0100
,
2000
3000
0000
1000
,
0020
0030
0000
0010
,
0200
0300
0000
0100
,
0002
0003
0000
0001
,
0010
0000
0000
0010
,
0100
0000
0000
0100
,
0010
0000
0000
0010
,
0100
0000
0000
0100
,
0010
0000
0010
0000
,
0001
0000
0000
0000
,
1000
0000
1000
0000
,
0100
0000
0000
0000
,
2000
0000
3000
0000
,
0002
0000
0003
0000
,
2000
0000
3000
0000
,
0010
0000
0000
0000
,
0200
0000
0300
0000
,
0020
0000
0030
0000
,
0200
0000
0300
0000
,
0010
0000
0000
1000
,
2002
0000
3003
0000
;

//---------------dance-single - ----------------
#NOTES:
     dance-single:
     Shortysnmn2010:
     Easy:
     3:
     0.154816,0.199351,0.095191,0.087868,0.000000,148.000000,135.000000,13.000000,12.000000,0.000000,0.000000,0.154816,0.199351,0.095191,0.087868,0.000000,148.000000,135.000000,13.000000,12.000000,0.000000,0.000000:
0000
0000
0000
0000
,
0000
0000
0000
0000
,
0000
0000
0000
0000
,
0000
0000
0000
0000
,
1000
0000
0001
0000
,
0010
0000
0001
0000
,
0100
0000
0001
0000
,
1000
0000
0000
0010
,
0010
0000
1000
0000
,
0100
0000
0001
0000
,
0100
0000
1000
0000
,
0010
0000
0000
0100
,
0100
0000
0001
0000
,
0010
1000
0010
0000
,
0001
0000
1000
0000
,
0001
0100
1000
0000
,
0100
0000
0001
0000
,
1000
0010
0100
0000
,
0001
0000
1000
0000
,
0100
0000
1001
0000
,
0010
0001
0010
0000
,
0100
0000
1000
0000
,
0010
1000
0010
0000
,
0100
0000
0000
1001
,
1001
0000
0001
0010
,
0001
0000
1000
0010
,
1000
0000
0100
0010
,
0100
0000
0000
0110
,
0210
0000
0000
1000
,
1000
0000
1000
0300
,
1002
0000
0000
0100
,
0100
0000
0100
0003
,
2010
0000
0000
0001
,
0001
0000
0001
3000
,
0210
0000
0000
0001
,
0001
0000
0001
0300
,
0010
0000
1000
0100
,
0001
0000
0100
1000
,
0010
0000
1000
0100
,
0001
0000
0101
0000
,
0001
0000
0100
1000
,
0010
0000
0001
0010
,
1000
0000
0100
1000
,
0010
0000
0110
0000
,
0100
0000
0001
0010
,
1000
0000
0010
0001
,
0100
0000
1000
0100
,
0001
0000
1001
0000
,
1000
0000
0010
1000
,
0001
0000
0100
0001
,
0010
0000
0001
1000
,
0100
0000
1001
0000
,
0002
0000
0003
0001
,
2000
0000
3000
1000
,
0200
0000
0300
0100
,
0010
0000
0000
0100
0000
0000
0010
0000
,
0002
0000
0003
0001
,
0200
0000
0300
0100
,
0020
0000
0030
0010
,
1000
0000
0000
0100
0000
0000
0010
0000
,
2002
0000
3003
0000
;

//---------------dance-single - ----------------
#NOTES:
     dance-single:
     Shortysnmn2010:
     Challenge:
     10:
     0.620308,0.575904,0.453986,0.080546,0.589450,593.000000,531.000000,62.000000,11.000000,0.000000,0.000000,0.620308,0.575904,0.453986,0.080546,0.589450,593.000000,531.000000,62.000000,11.000000,0.000000,0.000000:
// measure 0
0000
0000
0000
0000
,  // measure 1
0000
0000
0000
0000
,  // measure 2
0000
0000
0000
0000
,  // measure 3
0000
0000
0000
0000
,  // measure 4
0100
1000
0010
1010
1000
0100
0110
0010
,  // measure 5
0001
0100
0001
0011
0010
0100
1100
1000
,  // measure 6
0001
0100
1000
1100
0100
0001
1001
1000
,  // measure 7
0010
0100
0001
0011
0000
0000
1001
0010
,  // measure 8
0100
0000
1000
0100
1000
0000
0010
0000
0100
0001
0100
0000
0010
0000
1000
0000
,  // measure 9
0001
0000
0010
0001
0010
0000
0100
0000
1000
0010
1000
0000
0100
0000
0010
0000
,  // measure 10
0001
0000
0100
0010
0100
0000
0001
0000
0010
0100
0010
0000
0001
0000
1000
0000
,  // measure 11
0010
0100
0001
0010
0000
0000
0110
0000
,  // measure 12
1100
0000
0001
0100
0001
1000
0010
0100
0001
0000
1000
0000
0100
0000
0000
0000
,  // measure 13
0011
0000
1000
0100
1000
0000
0100
0010
0001
0100
0002
0000
1000
0000
1003
0000
,  // measure 14
0010
0000
0100
0001
1000
0100
0010
0001
1000
0000
0100
0000
1001
0000
0000
0000
,  // measure 15
0011
0000
0011
0000
0100
1000
0100
0010
0001
0000
2001
0000
0010
0000
3001
0000
,  // measure 16
0100
0000
0010
1000
0001
1000
0100
0010
0001
0000
0100
0000
0010
0000
0000
0000
,  // measure 17
1010
0000
0100
0001
1000
0000
0010
1000
0100
0010
0200
0000
0010
0000
0310
0000
,  // measure 18
0001
0000
1000
0010
1000
0001
0100
0010
0100
0000
0001
0000
0110
0000
0000
0000
,  // measure 19
1100
0000
1100
0000
0010
0001
0010
0100
1000
0000
1002
0000
0100
0000
1003
0000
,  // measure 20
0100
0000
1000
0100
1000
0000
1001
0000
0001
0100
0010
0000
1010
0000
1000
0000
,  // measure 21
0001
0000
0010
0100
1000
0000
1010
0000
0010
0100
0001
0000
0101
0000
0001
0000
,  // measure 22
0010
0000
0100
1000
0001
0000
0101
0000
0100
0001
0010
0000
0011
0000
0001
0000
,  // measure 23
1000
0000
0010
0100
0001
0000
1001
0000
0000
0000
0000
0000
0110
0000
0000
0000
,  // measure 24
1010
0000
1000
0001
0100
0000
0110
0000
0010
1000
0001
0000
0011
0000
0010
0000
,  // measure 25
0100
0000
1000
0010
0100
0000
0101
0000
0001
1000
0100
0000
0101
0000
0001
0000
,  // measure 26
0100
0000
1000
0010
0001
0000
0011
0000
0010
0100
0001
0000
0011
0000
0010
0000
,  // measure 27
0400
0040
0000
0000
0000
0000
0000
0000
0000
0000
0000
0000
0330
0000
0000
0000
,  // measure 28
0001
0000
1000
0100
0000
1000
0010
1000
0000
0010
1000
0000
0100
0010
0100
0010
,  // measure 29
0001
0000
1000
0001
0000
1000
0100
1000
0000
0001
1000
0000
0001
0010
0000
0100
,  // measure 30
1000
0000
0010
0100
0000
0001
0010
0001
0000
0100
0010
0000
1000
0100
0000
1000
,  // measure 31
0100
0010
0001
0010
0000
0001
0200
0000
0010
0000
0310
0000
1001
0000
0000
0000
,  // measure 32
1000
0000
0010
0100
0000
0001
0010
0001
0000
1000
0010
0000
0001
0010
0100
0010
,  // measure 33
1000
0000
0100
0010
0000
0100
1000
0010
0000
0100
0001
0000
0010
0100
0000
0010
,  // measure 34
0001
0000
0100
0010
0000
1000
0010
0001
0000
0010
0100
0000
0001
1000
0000
0100
,  // measure 35
0010
0001
1000
0010
0000
1000
0020
0000
0100
0000
0130
0000
1001
0000
0000
0000
,  // measure 36
1000
0010
0100
0001
0000
0000
0001
0010
0100
1000
0000
0000
0110
0000
1000
0001
,  // measure 37
1000
0100
0010
0001
0000
0000
0001
0100
0010
1000
0000
0000
1001
0000
0010
1000
,  // measure 38
0001
0100
0001
0010
0000
0000
0100
1000
0010
1000
0000
0000
0001
0010
0001
0010
,  // measure 39
0100
1000
0001
1000
0000
0000
0010
0100
0001
0100
0000
0000
0110
0000
1001
0000
,  // measure 40
1000
0010
0100
0010
0000
0000
0001
0010
0100
0010
0000
0000
1010
0000
0001
0010
,  // measure 41
0001
1000
0100
0010
0000
0000
0001
0010
0100
0010
0000
0000
1100
0000
0010
0001
,  // measure 42
0100
0010
1000
0010
0000
0000
0100
0001
0010
0001
0000
0000
1000
0100
0010
0100
,  // measure 43
1000
0010
1000
0010
0000
0000
0100
1000
0100
0010
0000
0000
1010
0000
1001
0000
,  // measure 44
0010
0001
0010
0001
0000
0000
1000
0100
1000
0100
0000
0000
0010
0001
0010
0001
,  // measure 45
1000
0100
0001
0100
0000
0000
0010
0100
0010
0100
0000
0000
1100
0000
0010
0001
,  // measure 46
1000
0001
0100
0010
0000
0000
1000
0010
1000
0100
0000
0000
0010
0001
1000
0100
,  // measure 47
0010
0100
1000
0100
0000
0000
0010
0001
0010
0100
0000
0000
1000
0000
0010
0100
,  // measure 48
0010
1000
0001
0100
0000
0000
0001
0010
0100
2000
0000
0000
0010
0000
3010
0000
,  // measure 49
0100
0001
1000
0001
0000
0000
0010
0100
1000
0200
0000
0000
1000
0000
1300
0000
,  // measure 50
0001
0010
0100
1000
0000
0000
0010
1000
0010
0200
0000
0000
0001
0000
0301
0000
,  // measure 51
1000
0001
1000
0000
0001
0000
0000
1000
0001
1000
0001
0000
1000
0000
1000
0000
,  // measure 52
0100
1000
0100
0110
0010
0001
1001
1000
,  // measure 53
0010
0100
0001
1001
1000
0010
0011
0001
,  // measure 54
0010
0100
0001
0011
0010
0100
1100
1000
,  // measure 55
0010
1000
0100
0010
0000
0000
1001
0000
,  // measure 56
1000
0100
0010
0011
0001
1000
1010
1000
,  // measure 57
0100
0010
0100
1100
1000
0010
0110
0000
,  // measure 58
0100
0001
0010
0011
0001
0100
0110
0010
,  // measure 59
1000
0000
0000
1100
0000
0000
0110
0000
,  // measure 60
2002
0000
3003
0000
;

//---------------dance-single - ----------------
#NOTES:
     dance-single:
     Shortysnmn2010:
     Medium:
     5:
     0.222809,0.265802,0.065901,0.036612,0.000000,213.000000,204.000000,9.000000,5.000000,0.000000,0.000000,0.222809,0.265802,0.065901,0.036612,0.000000,213.000000,204.000000,9.000000,5.000000,0.000000,0.000000:
0000
0000
0000
0000
,
0000
0000
0000
0000
,
0000
0000
0000
0000
,
0000
0000
0000
0000
,
1000
0000
0000
0100
0000
0000
1000
0010
,
1000
0000
0000
0001
0000
0000
0010
0000
,
0100
0000
0000
1000
0000
0000
0010
0100
,
0010
0000
1000
0001
0000
0000
0010
0100
,
1000
0000
0000
0010
0000
0000
0100
0001
,
0010
0000
0000
0100
0000
0000
0010
0000
,
0100
0000
0000
1000
0000
0000
0010
1000
,
0001
0000
0100
0001
0000
0000
1000
0000
,
0100
0000
1000
0001
0100
0000
0001
0000
,
1000
0000
0100
1000
0001
0000
0100
0000
,
1000
0000
0100
0001
1000
0000
0100
0000
,
1000
0001
1000
1001
,
0001
0000
1000
0010
0001
0000
0010
0000
,
1000
0000
0001
0010
0001
0000
1000
0000
,
0010
0000
1000
0001
0010
0000
0001
0000
,
1000
0010
0001
0011
,
0010
0000
0000
0100
0000
0000
0001
0010
,
0001
0000
0000
1000
0000
0000
0010
0000
,
1000
0000
0000
0100
0000
0000
0010
0100
,
1000
0000
0010
1000
0000
0000
0100
0000
,
0010
0000
0000
0001
0000
0000
0100
0010
,
1000
0000
0000
0100
0000
0000
1000
0000
,
0001
0000
0000
0010
0000
0000
0001
0100
,
0010
0000
1000
0001
0000
0000
1000
0000
,
0200
0000
1000
0010
,
1000
0000
0001
0010
,
0001
0000
1000
0010
,
1300
0000
1001
0000
,
0002
0000
0010
1000
,
0010
0000
1000
0100
,
1000
0000
0010
1000
,
0013
0000
0110
0000
,
1000
0000
0000
0001
0000
0000
0010
0000
,
0001
0000
0000
1000
0000
0000
0100
0000
,
1000
0000
0000
0010
0000
0000
0100
0000
,
0001
0000
0000
0010
0000
0000
0001
0000
,
1000
0000
0000
0100
0000
0000
0010
0000
,
0001
0000
0000
1000
0000
0000
0010
0000
,
0001
0000
0000
0010
0000
0000
0100
0000
,
0001
0000
0000
0010
0000
0000
0001
0000
,
1100
0000
0000
0010
0000
0000
0001
0000
,
0100
0000
0000
0010
0000
0000
1000
0000
,
0101
0000
0000
0010
0000
0000
1000
0000
,
0100
0000
0000
0010
0000
0000
0100
0000
,
1001
0000
0000
0010
0000
0000
0001
0000
,
1000
0000
0000
0010
0000
0000
1000
0000
,
0101
0000
0000
0010
0000
0000
1000
0000
,
0200
0300
0100
0100
,
1000
0000
0100
1000
0000
0000
0100
0010
,
0100
0000
1000
0100
0000
0000
0010
0000
,
0001
0000
0010
0001
0000
0000
0010
0100
,
0010
0000
0000
0100
0000
0000
1000
0000
,
0001
0000
0100
0001
0000
0000
0100
0001
,
0100
0000
0010
0100
0000
0000
0010
0000
,
1000
0000
0100
1000
0000
0000
0100
1000
,
0100
0000
0000
0010
0000
0000
0001
0000
,
0202
0000
0303
0000
;

//---------------dance-single - ----------------
#NOTES:
     dance-single:
     Shortysnmn2010:
     Hard:
     8:
     0.409006,0.443003,0.270927,0.153770,0.219671,391.000000,354.000000,37.000000,21.000000,0.000000,0.000000,0.409006,0.443003,0.270927,0.153770,0.219671,391.000000,354.000000,37.000000,21.000000,0.000000,0.000000:
// measure 0
0000
0000
0000
0000
,  // measure 1
0000
0000
0000
0000
,  // measure 2
0000
0000
0000
0000
,  // measure 3
0000
0000
0000
0000
,  // measure 4
1000
0001
0010
0100
1000
0010
0100
0001
,  // measure 5
0100
0010
1000
0100
1000
0001
0100
0000
,  // measure 6
0001
1000
0001
0010
0100
1000
0010
0100
,  // measure 7
0010
1000
0100
0010
0001
1000
0010
0000
,  // measure 8
0100
0001
0010
1000
0010
0100
1000
0010
,  // measure 9
1000
0100
0010
1000
0010
0001
1000
0000
,  // measure 10
0001
0100
0010
0001
0010
0100
0001
0010
,  // measure 11
0001
1000
0100
0001
0000
0000
1001
0000
,  // measure 12
0010
0000
0001
0010
0001
0000
0010
0100
0010
0000
0100
0000
1000
0000
0000
0000
,  // measure 13
0010
0000
1000
0010
1000
0000
0001
0000
0100
0000
0010
0000
0100
0000
0000
0000
,  // measure 14
0001
0000
1000
0100
1000
0000
0100
0010
0100
0000
0010
0000
0001
0000
0000
0000
,  // measure 15
1000
0000
0010
0000
1000
0000
0001
0010
0001
0010
0001
0000
1000
0000
0000
0000
,  // measure 16
0001
0000
0100
0010
0100
0000
0010
1000
0010
0000
0100
0000
0001
0000
0000
0000
,  // measure 17
1000
0000
0100
0010
0100
0000
1000
0000
0001
0000
0010
0000
0100
0000
0000
0000
,  // measure 18
1000
0000
0010
1000
0010
0000
0001
0010
0001
0000
0010
0000
0100
0000
0000
0000
,  // measure 19
0001
0000
0010
0000
0001
0000
1000
0100
1000
0100
1000
0000
0010
0000
0000
0000
,  // measure 20
0100
0001
0010
0001
1000
0100
0010
0100
,  // measure 21
1000
0001
0010
0001
1000
0010
0100
0000
,  // measure 22
0001
0100
0010
0100
0001
0010
0100
1000
,  // measure 23
0010
0000
0100
0001
0000
0000
1001
0000
,  // measure 24
1000
0100
1000
0010
0100
0001
0010
0001
,  // measure 25
0100
0010
1000
0100
0001
0100
1000
0000
,  // measure 26
0010
1000
0001
0100
0010
0100
0001
0010
,  // measure 27
0100
0000
1000
0010
0000
0000
0110
0000
,  // measure 28
1000
0000
0000
0011
0000
0000
0001
1000
0000
0000
0100
0000
0000
1000
0000
0000
,  // measure 29
0010
0000
0000
0110
0000
0000
1000
0001
0000
0000
0010
0000
0000
1100
0000
0000
,  // measure 30
0010
0000
0000
1001
0000
0000
0001
0100
0000
0000
1000
0000
0000
0100
0000
0000
,  // measure 31
0001
0000
0000
0110
0000
0000
1000
0001
0000
0000
0010
0000
1001
0000
0000
0000
,  // measure 32
0010
0000
0000
1001
0000
0000
0100
0010
0000
0000
1000
0000
0000
0100
0000
0000
,  // measure 33
0010
0000
0000
1100
0000
0000
0001
0100
0000
0000
0010
0000
0000
0101
0000
0000
,  // measure 34
1000
0000
0000
0110
0000
0000
1000
0001
0000
0000
0010
0000
0000
0001
0000
0000
,  // measure 35
1000
0000
0000
0101
0000
0000
0010
0100
0000
0000
1000
0000
0110
0000
0000
0000
,  // measure 36
0001
0000
0000
0101
0000
0000
1000
0000
0000
1100
0000
0000
0010
0000
0001
0000
,  // measure 37
0100
0000
0000
0110
0000
0000
0001
0000
0000
1001
0000
0000
1000
0000
0100
0000
,  // measure 38
0010
0000
0000
0011
0000
0000
0100
0000
0000
1100
0000
0000
1000
0000
0010
0000
,  // measure 39
2000
0000
0000
3000
0000
0000
0002
0000
0000
0003
0000
0000
0110
0000
0000
0000
,  // measure 40
0001
0000
0000
0011
0000
0000
1000
0000
0000
1010
0000
0000
0001
0000
0100
0000
,  // measure 41
0010
0000
0000
1010
0000
0000
0100
0000
0000
0101
0000
0000
0010
0000
1000
0000
,  // measure 42
0100
0000
0000
0110
0000
0000
1000
0000
0000
1001
0000
0000
0001
0000
0010
0000
,  // measure 43
0200
0000
0000
0300
0000
0000
0020
0000
0000
0030
0000
0000
1001
0000
0000
0000
,  // measure 44
2000
0000
0000
0100
0000
0000
0001
0000
0000
3100
0000
0000
0010
0000
0001
0000
,  // measure 45
0200
0000
0000
0010
0000
0000
0001
0000
0000
0310
0000
0000
1000
0000
0001
0000
,  // measure 46
0020
0000
0000
1000
0000
0000
0100
0000
0000
1030
0000
0000
0010
0000
0001
0000
,  // measure 47
2000
0000
0000
3000
0000
0000
0002
0000
0000
0003
0000
0000
0110
0000
0000
0000
,  // measure 48
0002
0000
0000
0100
0000
0000
1000
0000
0000
0103
0000
0000
0010
0000
1000
0000
,  // measure 49
0200
0000
0000
0010
0000
0000
1000
0000
0000
0310
0000
0000
0001
0000
1000
0000
,  // measure 50
0020
0000
0000
0001
0000
0000
0100
0000
0000
0031
0000
0000
1000
0000
0100
0000
,  // measure 51
0002
0000
0003
0110
,  // measure 52
1000
0100
0010
0002
0000
0003
1000
0100
,  // measure 53
1000
0010
0100
0020
0000
0030
1001
0000
,  // measure 54
0010
1000
0100
2000
0000
3000
0010
0100
,  // measure 55
0001
0000
0000
0110
0000
0000
1001
0000
,  // measure 56
1000
0100
1000
0020
0000
0030
0100
0100
,  // measure 57
0001
0010
0001
0200
0000
0300
1001
0000
,  // measure 58
0100
0001
1000
0200
0000
0300
0010
0010
,  // measure 59
0001
0000
0000
1100
0000
0000
0010
0000
,  // measure 60
2002
0000
3003
0000
;
