#TITLE:Ignorance;
#SUBTITLE:;
#ARTIST:Paramore;
#TITLETRANSLIT:;
#SUBTITLETRANSLIT:;
#ARTISTTRANSLIT:;
#GENRE:;
#CREDIT:;
#BANNER:;
#BACKGROUND:;
#LYRICSPATH:;
#CDTITLE:;
#MUSIC:Ignorance.mp3;
#OFFSET:-0.195000;
#SAMPLESTART:70.370003;
#SAMPLELENGTH:11.228000;
#SELECTABLE:YES;
#BPMS:0.000000=171.000000
;
#STOPS:
;
#BGCHANGES:;
#KEYSOUNDS:;
#ATTACKS:;

//---------------dance-single - ----------------
#NOTES:
     dance-single:
     Shortysnmn2010:
     Beginner:
     1:
     0.116766,0.212346,0.000000,0.075838,0.000000,97.000000,97.000000,0.000000,9.000000,0.000000,0.000000,0.116766,0.212346,0.000000,0.075838,0.000000,97.000000,97.000000,0.000000,9.000000,0.000000,0.000000:
0000
0000
0000
0000
,
0000
0000
0000
0000
,
0000
0000
0000
0000
,
0000
0000
0000
0000
,
1000
0000
0000
0000
,
0001
0000
0000
0000
,
1000
0000
0000
0000
,
0200
0000
0300
0000
,
1000
0000
0000
0000
,
0001
0000
0000
0000
,
0100
0000
0000
0000
,
0010
0000
0000
0000
,
0100
0000
0000
0000
,
0001
0000
0000
0000
,
1000
0000
0000
0000
,
0100
0100
0100
0000
,
1000
0000
0000
0000
,
0010
0000
0000
0000
,
0100
0000
0000
0000
,
0001
0001
0001
0000
,
1000
0000
0000
0000
,
0010
0000
0000
0000
,
1000
0000
0000
0000
,
0100
0000
0000
0000
,
1000
0000
0000
0000
,
0010
0000
0000
0000
,
1000
0000
0000
0000
,
0100
0000
1000
0000
,
0100
0000
0000
0000
,
1000
0000
0000
0000
,
0020
0000
0030
0000
,
0200
0000
0300
0000
,
0010
0000
0000
0000
,
1000
0000
0001
0000
,
1000
0000
0000
0000
,
0100
0000
0000
0000
,
0010
0000
0000
0001
,
0001
0000
0000
1000
,
0000
2000
0000
0000
,
0000
0000
3000
0000
,
0010
0010
0000
0000
,
0000
0000
0000
0000
,
1000
0000
0000
0000
,
0100
0000
0000
0000
,
0010
0000
0000
0000
,
0001
0000
0000
0000
,
1000
0000
0000
0000
,
0001
0000
0000
0000
,
1000
0000
0000
0000
,
0001
0001
1000
1000
,
0001
0000
0000
0000
,
0100
0000
0000
0000
,
0010
0000
0000
0000
,
1000
0000
0000
0000
,
0100
0000
0000
0000
,
0010
0000
0000
0000
,
0100
0000
0000
0000
,
0010
0010
0100
0100
,
0010
0000
0000
0000
,
0001
0000
0000
0000
,
0100
0000
0000
0000
,
0010
0000
0000
0000
,
0100
0000
0000
0000
,
0001
0000
0000
0000
,
0010
0000
0000
0000
,
0100
0000
0000
0000
,
2000
0000
0000
0000
,
3000
0000
0010
0000
,
0200
0000
0000
0000
,
0300
0000
0001
0000
,
0020
0000
0000
0000
,
0030
0000
0001
0000
,
0200
0000
0000
0000
,
0300
0000
0010
0000
,
1000
1000
0000
0000
,
0000
0000
0000
0000
,
0001
0000
0000
0000
,
0010
0000
0000
0000
,
0100
0000
0000
0000
,
1000
0000
0000
0000
,
0010
0000
0000
1000
,
1000
0000
0000
0001
,
0001
0000
0000
0000
,
1000
0000
0001
0002
,
0003
0000
0000
0000
;

//---------------dance-single - ----------------
#NOTES:
     dance-single:
     Shortysnmn2010:
     Easy:
     4:
     0.256405,0.318520,0.101117,0.084264,0.000000,213.000000,201.000000,12.000000,10.000000,0.000000,0.000000,0.256405,0.318520,0.101117,0.084264,0.000000,213.000000,201.000000,12.000000,10.000000,0.000000,0.000000:
0000
0000
0000
0000
,
0000
0000
0000
0000
,
0000
0000
0000
0000
,
0000
0000
0000
0000
,
1000
0000
0000
0001
,
0001
0000
0000
0010
,
0010
0000
0000
0100
,
0100
1000
0001
0000
,
1000
0001
0100
0010
,
0010
0000
1000
0001
,
1000
0000
0100
0010
,
0100
0000
1000
0000
,
0001
0000
0010
0001
,
0000
1000
0001
0100
,
0000
0010
0100
0000
,
0001
1000
0002
0003
,
1000
0100
1000
0100
,
0000
0010
0100
0010
,
0000
0001
0100
0001
,
1000
0000
0001
0000
,
0010
0100
0010
0000
,
0001
0100
0010
0000
,
1000
0000
0001
0000
,
1000
0001
1000
0000
,
0100
0100
1000
0100
,
0010
0100
0100
1000
,
0010
0000
0100
0000
,
0001
0000
1000
0000
,
0110
0000
0000
0100
,
1001
0000
0000
0100
,
0002
0000
1000
0000
,
0200
0000
0303
0000
,
1000
1000
0100
1000
,
0010
1000
1000
0100
,
0010
0000
0001
0000
,
0100
0000
0010
0000
,
0110
0000
0000
1000
,
0110
0000
0000
0001
,
0000
2002
0000
3003
,
2002
0000
3003
0000
,
0010
0000
0010
0000
0000
0000
0000
0100
,
0000
0100
0000
0000
0000
0000
0000
0000
,
1000
0000
1000
0100
,
1000
0000
1000
0010
,
1000
0000
0001
0100
,
0001
0000
0001
0010
,
0001
0000
1000
0000
,
0100
0000
0010
0000
,
0001
0000
1000
0000
,
0001
0100
1000
0100
,
0001
0000
0010
0001
,
0010
0000
0100
1000
,
0100
0000
0010
0001
,
0100
0000
0000
0010
,
1001
0000
0100
0010
,
0100
0000
0001
1000
,
0001
0000
1000
0000
,
0100
0001
0100
1000
,
0200
0000
0000
0000
,
0001
0000
0001
0000
,
1000
0000
0000
0000
,
1300
0000
1001
0000
,
0020
0000
0000
0000
,
1000
0000
0001
0000
,
0001
0000
0000
0000
,
0031
0000
1001
0000
,
1000
0100
0010
0001
,
0100
0000
0100
0000
,
0001
0010
0100
1000
,
0010
0000
0010
0000
,
1000
0001
1000
0100
,
1000
0000
1000
0000
,
0001
0100
1000
0100
,
0010
0000
0000
0000
,
1000
0000
1000
0000
0000
0000
0000
0001
,
0000
0001
0000
0000
0000
0000
0000
0000
,
1000
0000
0100
0000
,
1000
0010
0010
0000
,
1000
0100
0010
0001
,
0100
0000
0000
0001
,
0110
0000
1000
0000
,
0110
0000
1000
0000
,
0110
0000
0001
0000
,
1000
0100
0010
0002
,
0003
0000
0000
0000
;

//---------------dance-single - ----------------
#NOTES:
     dance-single:
     Shortysnmn2010:
     Medium:
     6:
     0.384005,0.458715,0.126397,0.193808,0.004213,319.000000,304.000000,15.000000,23.000000,0.000000,0.000000,0.384005,0.458715,0.126397,0.193808,0.004213,319.000000,304.000000,15.000000,23.000000,0.000000,0.000000:
0000
0000
0000
0000
,
0000
0000
0000
0000
,
0000
0000
0000
0000
,
0000
0000
0000
0000
,
1000
0000
0000
0001
0000
0000
0010
0000
,
0001
0000
0000
1000
0000
0000
0100
0000
,
1000
0000
0000
0010
0000
0000
1000
0000
,
0001
0100
0001
0000
,
1000
0100
0010
0000
0001
0000
1000
0000
,
0001
0000
0000
1000
0010
0000
1000
0000
,
0100
0000
0000
1000
0010
0000
0100
0000
,
0001
0010
0001
1000
,
0000
0010
0000
0010
1000
0000
0001
0000
,
0000
0100
0001
0000
0010
0000
0001
0000
,
0000
1000
0100
0000
0010
0000
0001
0000
,
0200
0010
0020
0330
,
1001
1001
0010
0010
,
1001
1001
0100
0100
,
0001
0100
0010
1000
,
0200
1000
0020
0330
,
0001
0010
0001
1000
,
0001
0100
0001
0000
1000
0000
1000
0000
,
0000
0010
1000
0000
0100
0000
0010
0000
,
0001
1000
2002
3003
,
0010
0001
0000
0001
0010
0000
0100
0000
,
1000
0000
0000
0010
1000
0000
0100
0000
,
0010
0000
0000
0100
1000
0000
0010
0100
,
0000
0100
0000
0000
0001
0000
0010
0000
,
0011
0000
0000
0100
,
1100
0000
0000
1000
,
0020
0000
0000
1000
0000
0000
0000
0000
,
0100
0000
2000
3030
,
0001
0010
0001
0100
,
0001
1000
0000
1000
0001
0000
0010
0000
,
0100
0000
0000
1000
0100
0000
0010
0000
,
0001
0000
0000
1000
0000
0000
0001
0000
1000
0000
0000
0000
0010
0000
0000
0000
,
0100
0000
0000
0010
,
0110
0000
0000
1000
,
0000
0000
2020
0000
3030
0000
0000
2002
,
0000
0000
0000
3003
0000
0000
0000
0000
,
0100
0000
0100
0000
0001
0100
0010
0100
,
0000
0010
0000
0100
0010
0000
0000
0000
,
1000
0100
0000
1000
0100
0000
1000
0000
,
0100
1000
0000
0100
1000
0000
0100
0000
,
0010
0100
0000
0010
0100
0000
0010
0000
,
0100
1000
0000
0100
1000
0000
0010
0000
,
0100
0000
0000
0001
0100
0000
0001
0000
,
0100
0000
0000
0001
0010
0000
0001
0000
,
0010
0000
0000
0001
1000
0000
0100
0000
,
2000
0100
3002
0100
,
1003
1010
1000
0100
,
0010
0000
0011
0000
0001
0100
0001
0000
,
1000
1010
1000
0100
,
0010
0000
0110
0000
0100
1000
0001
0000
,
0100
0000
0000
0001
0100
0000
0010
0000
,
1000
0000
0000
0100
1000
0000
0010
0000
,
0100
0000
0000
0001
1000
0000
0100
0000
,
2000
0010
3002
0100
,
1003
0000
0010
1000
0000
0100
0000
1000
,
0100
0010
0001
0000
,
1000
0000
0001
0100
0000
0001
0000
0100
,
0001
1000
0100
0000
,
0010
0000
0100
0010
0000
0100
0000
0010
,
0100
1000
0010
0000
,
0100
0000
0001
1000
0000
0100
0000
0001
,
0100
0010
1000
0000
,
0020
0001
0100
0031
,
1000
0100
0010
0001
,
2000
0010
0001
3010
,
0100
0001
0010
0100
,
2000
0100
0001
3100
,
0010
0001
0100
0010
,
0200
0010
1000
0310
,
2000
0000
0000
3000
,
0100
0000
0100
0000
1000
0100
0010
0100
,
0000
0100
0000
0010
0100
0000
0000
0000
,
1000
0010
1000
1100
,
1000
0000
0010
2000
0000
0000
3100
0000
,
0010
0001
0100
0010
,
0100
0000
0000
0001
0000
0000
0010
0000
,
0100
0000
0000
1000
0100
0000
0010
0000
,
1000
0000
0000
0010
0100
0000
1000
0000
,
0010
0000
0000
0100
0001
0000
1000
0000
,
0020
1000
0100
1030
;

//---------------dance-single - ----------------
#NOTES:
     dance-single:
     Shortysnmn2010:
     Hard:
     8:
     0.554942,0.601648,0.488734,0.328631,0.004213,461.000000,403.000000,58.000000,39.000000,0.000000,0.000000,0.554942,0.601648,0.488734,0.328631,0.004213,461.000000,403.000000,58.000000,39.000000,0.000000,0.000000:
// measure 0
0000
0000
0000
0000
,  // measure 1
0000
0000
0000
0000
,  // measure 2
0000
0000
0000
0000
,  // measure 3
0000
0000
0000
0000
,  // measure 4
0001
0100
0000
0001
1000
0000
1001
0000
,  // measure 5
1000
0010
0000
1000
0001
0000
1001
0000
,  // measure 6
0001
0100
0000
0010
0100
0000
0110
0000
,  // measure 7
0010
0000
1000
0000
0001
0000
1000
0000
0010
0000
0200
0000
0000
0300
0000
0000
,  // measure 8
0001
1000
0100
2000
0001
0000
0010
0000
,  // measure 9
3010
0000
1000
0001
0010
0000
0011
0000
,  // measure 10
0101
0000
0001
1000
0200
0000
0001
0000
,  // measure 11
2300
0001
3200
0310
,  // measure 12
0010
0001
0000
0001
0100
0000
0110
0000
,  // measure 13
0100
0001
1000
0000
1100
0000
1001
0000
,  // measure 14
1000
0010
0001
0020
1000
0000
0001
0000
,  // measure 15
2030
0100
0002
3003
,  // measure 16
1001
0000
0101
0000
0000
0110
0000
0000
,  // measure 17
0100
0001
2000
0000
0000
0010
3010
0000
,  // measure 18
0100
0000
1001
0000
0000
0011
0000
0000
,  // measure 19
0100
1000
0001
0000
2002
0000
3003
0000
,  // measure 20
1000
0100
0010
0100
1000
0000
1001
0000
,  // measure 21
0001
0100
0010
0100
0001
0000
1001
0000
,  // measure 22
0000
1000
0010
1000
0001
0000
0010
0100
,  // measure 23
0010
0001
1001
0000
,  // measure 24
1000
0100
0000
0100
1000
0000
0010
0000
,  // measure 25
0110
0000
0100
0010
0100
0001
0010
0100
,  // measure 26
1000
0000
0010
0001
0010
0100
1000
0100
,  // measure 27
0000
0110
0000
0010
1000
0000
0100
0000
,  // measure 28
1001
0000
1001
0000
1000
0100
0001
0100
,  // measure 29
1000
0000
1001
0000
0001
0100
0001
0000
,  // measure 30
1000
0000
0000
2020
0000
3030
0000
0000
,  // measure 31
0100
0000
0202
0303
,  // measure 32
0010
1000
0000
1000
0100
0010
0100
1000
,  // measure 33
0001
0100
0000
0100
0001
0000
1000
0000
,  // measure 34
1100
0000
0000
0010
0001
0010
0100
1000
,  // measure 35
0010
0000
0000
0100
0000
0000
0001
0000
0100
0000
0000
0000
0110
0000
0000
0000
,  // measure 36
2020
0000
3030
0100
,  // measure 37
2002
0000
3003
0010
,  // measure 38
0000
0000
2200
0000
0300
3100
2000
0002
,  // measure 39
0000
0000
0000
3003
,  // measure 40
0110
0000
0110
0000
1000
0100
0010
0100
,  // measure 41
0000
0110
0000
0100
1000
0000
0000
0000
,  // measure 42
0001
0100
0000
0100
0010
0000
0101
0000
,  // measure 43
1000
0100
0000
0100
0010
0000
1100
0000
,  // measure 44
0010
0001
0000
0001
0100
0000
1001
0000
,  // measure 45
0010
1000
0000
1000
0100
0000
0011
0000
,  // measure 46
2100
0000
3000
0100
1000
0000
0010
0000
,  // measure 47
1020
0000
0030
1000
0100
0000
0010
0000
,  // measure 48
0120
0000
0030
0001
1000
0000
0010
0000
,  // measure 49
0200
0001
0010
0301
,  // measure 50
1000
1000
0100
1000
0010
0010
1000
0100
,  // measure 51
0010
0010
0100
1000
0010
0010
0100
0010
,  // measure 52
0100
0100
0001
0010
0100
0100
1000
0010
,  // measure 53
1000
1000
0001
0100
1000
1000
0100
0001
,  // measure 54
1000
0000
0100
1000
0100
0000
0010
0000
,  // measure 55
1001
0000
0001
0100
0001
0000
0010
0000
,  // measure 56
0110
0000
1000
0001
1000
0000
0110
0000
,  // measure 57
2000
0010
0001
3010
,  // measure 58
1001
0000
0100
0001
0000
0010
0000
0100
,  // measure 59
0010
0110
1001
0000
,  // measure 60
0110
0000
1000
0001
0000
0010
0000
0001
,  // measure 61
0100
0000
0110
0000
0001
1000
0001
1000
,  // measure 62
0001
0000
0010
0100
0000
1000
0000
0010
,  // measure 63
1000
1100
0011
0000
,  // measure 64
1100
0000
1000
0010
0000
0100
0000
0001
,  // measure 65
1000
1010
0202
0303
,  // measure 66
1000
0100
0010
0001
1000
0001
0010
0100
,  // measure 67
1000
0001
0010
0001
1000
0001
0010
1000
,  // measure 68
0001
0100
0010
0001
1000
0100
0010
0001
,  // measure 69
0200
0300
0020
0030
,  // measure 70
0100
0001
1000
0100
0010
0001
1000
0010
,  // measure 71
0100
0010
1000
0100
0001
0100
1000
0001
,  // measure 72
0100
0010
1000
0001
0100
0001
1000
0100
,  // measure 73
0020
0000
0030
0000
,  // measure 74
0011
0000
0011
0000
1000
0100
1000
0100
,  // measure 75
0000
1100
0000
0100
1000
0000
0000
0000
,  // measure 76
0001
0001
1000
0001
1000
1000
0001
1000
,  // measure 77
0100
0100
0010
0100
0010
0010
0100
0000
,  // measure 78
1000
1000
0100
1000
0100
0100
0010
0100
,  // measure 79
0010
0010
0001
0010
0001
0001
1000
0000
,  // measure 80
2001
0000
3000
0001
0010
0000
0100
0000
,  // measure 81
0210
0000
0300
0010
0001
0000
0100
0000
,  // measure 82
0201
0000
0300
0001
1000
0000
0100
0000
,  // measure 83
0020
0000
0001
0000
0130
2000
0200
0000
,  // measure 84
3300
0000
0000
0000
;
