#TITLE:Friends;
#SUBTITLE:;
#ARTIST:Marshmello & Anne-Marie;
#TITLETRANSLIT:;
#SUBTITLETRANSLIT:;
#ARTISTTRANSLIT:;
#GENRE:;
#CREDIT:;
#BANNER:;
#BACKGROUND:;
#LYRICSPATH:;
#CDTITLE:;
#MUSIC:Friends.mp3;
#OFFSET:-0.105000;
#SAMPLESTART:50.625999;
#SAMPLELENGTH:20.191000;
#SELECTABLE:YES;
#BPMS:0.000000=95.000000
;
#STOPS:
;
#BGCHANGES:;
#KEYSOUNDS:;
#ATTACKS:;

//---------------dance-single - Blank----------------
#NOTES:
     dance-single:
     Shortysnmn2010:
     Beginner:
     1:
     0.070314,0.097338,0.000000,0.007346,0.000000,67.000000,67.000000,0.000000,1.000000,0.000000,0.000000,0.070314,0.097338,0.000000,0.007346,0.000000,67.000000,67.000000,0.000000,1.000000,0.000000,0.000000:
0000
0000
0000
0000
,
0000
0000
0000
0000
,
0000
0000
0000
0000
,
0000
0000
0000
0000
,
0010
0000
0010
0000
,
0010
0000
0000
0000
,
1000
0000
0001
0000
,
1000
0000
0000
0000
,
0001
0000
0001
0000
,
0001
0000
0000
0000
,
0010
0000
0100
0000
,
0010
0000
0000
0000
,
0001
0000
0000
0000
,
1000
0000
0000
0000
,
0010
0000
0000
0000
,
0100
0000
0010
0000
,
0100
0000
0000
0000
,
0001
0000
0000
0000
,
1000
0000
0000
0000
,
0100
0000
1000
0000
,
0100
0000
0000
0000
,
0010
0000
0000
0000
,
0001
0000
0000
0000
,
1000
0000
0000
0000
,
0010
0000
0000
0000
,
0100
0000
0000
0000
,
0001
0000
0000
0000
,
1000
0000
0000
0000
,
0100
0000
1000
0000
,
0100
0000
1000
0000
,
0100
0000
0010
0000
,
0100
0000
0010
0000
,
0100
0000
0000
0000
,
1000
0000
0000
0000
,
0001
0000
0000
0000
,
0100
0000
0000
0000
,
0010
0000
0100
0000
,
0010
0000
0100
0000
,
0001
0000
0100
0000
,
0001
0000
1000
0000
,
0001
0000
0000
0000
,
1000
0000
0000
0000
,
0100
0000
0000
0000
,
0010
0000
0000
0000
,
0001
0000
1000
0000
,
0001
0000
0000
0000
,
1000
0000
0001
0000
,
1000
0000
0000
0000
,
0100
0000
0010
0000
,
0100
0000
0000
0000
,
0010
0000
0100
0000
,
0010
0000
0000
0000
,
0002
0000
0000
0000
,
0003
0000
0000
0000
;

//---------------dance-single - ----------------
#NOTES:
     dance-single:
     Shortysnmn2010:
     Easy:
     3:
     0.136430,0.152802,0.066116,0.029385,0.000000,130.000000,121.000000,9.000000,4.000000,0.000000,0.000000,0.136430,0.152802,0.066116,0.029385,0.000000,130.000000,121.000000,9.000000,4.000000,0.000000,0.000000:
0000
0000
0000
0000
,
0000
0000
0000
0000
,
0000
0000
0000
0000
,
0000
0000
0000
0000
,
1000
0000
0001
0000
,
1000
0000
0010
0010
,
1000
0000
0100
0000
,
1000
0000
0010
0010
,
0100
0000
0001
0000
,
0010
0000
0001
0001
,
0100
0000
0010
0000
,
0100
0000
0000
0000
,
0010
1000
0100
1000
,
0020
0000
0030
0000
,
0100
0001
1000
0100
,
0002
0000
0003
0000
,
0100
1000
0100
0010
,
0002
0000
0003
0000
,
0100
0010
0100
0010
,
2000
0000
3000
0000
,
1001
0000
0001
0010
,
0001
0000
0100
0000
,
0110
0000
0010
1000
,
0100
0000
1000
0000
,
1001
0000
0001
0100
,
1000
0000
0100
0000
,
0110
0000
0010
1000
,
0100
0000
0010
0000
,
0001
0000
0100
0000
,
0010
0000
1000
1000
,
0100
0000
1000
0000
,
0001
0000
0100
0100
,
0001
0000
1000
0000
,
0010
0000
1000
1000
,
0100
0000
0010
0000
,
1000
0000
0000
0000
,
0010
0001
0100
0010
,
1000
0000
0001
0000
,
1000
0100
0001
0100
,
1000
0000
0001
0000
,
0010
0001
0100
0001
,
0010
0000
0100
0000
,
1000
0010
0100
0001
,
1000
0000
0001
0000
,
1001
0000
1000
0010
,
0001
0000
0010
0000
,
0101
0000
0010
1000
,
0100
0000
0001
0000
,
1100
0000
0010
0001
,
1000
0000
0010
0000
,
0110
0000
0001
1000
,
0001
0000
0010
0000
,
0110
0000
0000
0000
;

//---------------dance-single - ----------------
#NOTES:
     dance-single:
     Shortysnmn2010:
     Medium:
     5:
     0.230882,0.231407,0.102847,0.102847,0.000000,220.000000,206.000000,14.000000,14.000000,0.000000,0.000000,0.230882,0.231407,0.102847,0.102847,0.000000,220.000000,206.000000,14.000000,14.000000,0.000000,0.000000:
// measure 0
0000
0000
0000
0000
,  // measure 1
0000
0000
0000
0000
,  // measure 2
0000
0000
0000
0000
,  // measure 3
0000
0000
0000
0000
,  // measure 4
1000
0100
0001
0100
,  // measure 5
0010
0100
0110
1001
,  // measure 6
0010
0100
1000
0100
,  // measure 7
0001
1000
1100
0011
,  // measure 8
0100
1000
0010
0100
,  // measure 9
0001
1000
1001
0110
,  // measure 10
0001
1000
0100
0010
,  // measure 11
0001
0000
1000
0000
,  // measure 12
0001
0100
0001
0000
1000
0000
0100
0000
,  // measure 13
0010
0000
0100
0010
0000
0010
0100
0000
,  // measure 14
1000
0010
1000
0000
0001
0000
0100
0000
,  // measure 15
0001
0000
1000
0001
0000
0001
1000
0000
,  // measure 16
0010
1000
0001
0000
0100
0000
0001
0000
,  // measure 17
0010
0000
0001
0010
0000
0010
0001
0000
,  // measure 18
0100
1000
0100
0000
0010
0000
1000
0000
,  // measure 19
0001
0000
0020
0002
0000
0033
0000
0000
,  // measure 20
2000
3000
0002
0003
,  // measure 21
1000
0100
0010
0001
1000
0000
0010
0000
,  // measure 22
0002
0003
0020
0030
,  // measure 23
0100
0001
1000
0100
0010
0000
0001
0000
,  // measure 24
0200
0300
0020
0030
,  // measure 25
1000
0001
0010
0100
1000
0000
0010
0000
,  // measure 26
0002
0003
2000
3000
,  // measure 27
0100
0001
0100
0010
1000
0000
0100
0000
,  // measure 28
0010
0001
0100
0010
,  // measure 29
0100
0001
0011
1100
,  // measure 30
1000
0010
0001
1000
,  // measure 31
0100
0001
0101
1010
,  // measure 32
1000
0100
0001
1000
,  // measure 33
0010
0001
0011
1100
,  // measure 34
0001
1000
0010
0100
,  // measure 35
0001
0000
1001
0000
,  // measure 36
1000
0100
1000
0000
0010
0000
0100
0000
,  // measure 37
0010
0000
1000
0010
0000
0010
1000
0000
,  // measure 38
0001
1000
0001
0000
0010
0000
0100
0000
,  // measure 39
1000
0000
0001
0100
0000
0100
0001
0000
,  // measure 40
1000
0100
1000
0000
0001
0000
0010
0000
,  // measure 41
1000
0000
0010
0100
0000
0100
0010
0000
,  // measure 42
0001
0100
0001
0000
1000
0000
0100
0000
,  // measure 43
1000
0000
0002
2000
0000
3003
0000
0000
,  // measure 44
0001
0100
0001
0000
0100
0001
0100
0000
,  // measure 45
0001
1000
0100
0000
,  // measure 46
1000
0100
1000
0000
0100
1000
0100
0000
,  // measure 47
1000
0010
0001
0000
,  // measure 48
0010
0100
0010
0000
0100
0010
0100
0000
,  // measure 49
0001
0010
0100
0000
,  // measure 50
1000
0100
1000
0000
0001
0100
0001
0000
,  // measure 51
1000
0010
0001
0100
,  // measure 52
2002
0000
3003
0000
;

//---------------dance-single - ----------------
#NOTES:
     dance-single:
     Shortysnmn2010:
     Challenge:
     9:
     0.538375,0.561896,0.235080,0.044077,0.573007,513.000000,481.000000,32.000000,6.000000,0.000000,0.000000,0.538375,0.561896,0.235080,0.044077,0.573007,513.000000,481.000000,32.000000,6.000000,0.000000,0.000000:
// measure 0
0000
0000
0000
0000
,  // measure 1
0000
0000
0000
0000
,  // measure 2
0000
0000
0000
0000
,  // measure 3
0000
0000
0000
0000
,  // measure 4
1000
0100
0010
0001
0000
0000
0000
0000
0001
0100
0010
1000
0000
0000
0000
0000
,  // measure 5
1000
0100
0010
0001
0000
0000
0000
0000
1001
0000
0000
0000
0110
0000
0000
0000
,  // measure 6
0100
0001
0010
0001
0000
0000
0000
0000
0010
0100
1000
0100
0000
0000
0000
0000
,  // measure 7
1000
0010
1000
0100
0000
0000
0000
0000
0110
0000
0000
0000
1001
0000
0001
0001
,  // measure 8
1000
0000
0010
0100
0001
0000
0000
0000
1000
0100
1000
0000
0001
0000
0000
0000
,  // measure 9
0100
0010
0100
0010
0100
0000
0001
0010
0001
0000
1000
0000
0100
0000
1000
0001
,  // measure 10
0000
0000
0010
0000
0000
0000
0001
0000
0010
0000
0000
0000
0001
0000
0000
0000
1000
0000
0000
0100
0000
0000
1000
0000
0100
0000
0000
0000
1000
0000
0000
0000
,  // measure 11
0010
0100
2002
3003
,  // measure 12
0001
0100
0001
0100
0001
0000
0010
0000
0100
1000
0100
1000
0100
0000
0010
0000
,  // measure 13
0001
0100
0010
0100
0001
0000
0010
0000
0100
0000
1000
0000
1001
0000
0000
0000
,  // measure 14
1000
0010
1000
0010
1000
0000
0100
0000
0010
0001
0010
0001
0010
0000
0100
0000
,  // measure 15
1000
0001
0100
0001
1000
0000
0100
0000
0010
0000
0001
0000
0101
0000
0100
0100
,  // measure 16
0001
0010
0001
0010
0001
0000
0100
0000
0010
0100
0010
0100
0010
0000
1000
0000
,  // measure 17
0100
0010
0001
0010
0100
0000
1000
0000
0001
0000
0100
0000
0110
0000
0000
0000
,  // measure 18
0100
0001
0100
0001
1000
0100
1000
0100
0010
0001
0010
0001
1000
0010
1000
0010
,  // measure 19
0100
0001
1000
0001
0100
0001
1000
0001
0200
0000
0000
0000
0310
0000
0000
0000
,  // measure 20
0110
0000
0100
0001
1000
0000
0100
0000
1000
0100
0010
0100
1000
0000
0010
0000
,  // measure 21
0100
0000
0001
0000
1001
0000
0000
0000
1000
0100
0001
0100
1000
0000
0001
0000
,  // measure 22
0101
0000
0100
0001
0010
0000
0000
0001
0000
0001
0010
0000
0001
0000
0100
0010
,  // measure 23
1000
0000
0100
0000
1100
0000
0000
0000
1000
0010
0100
0010
1000
0000
0100
0000
,  // measure 24
0110
0000
0010
0001
0100
0000
0001
0000
1000
0001
1000
0001
0100
0000
0010
0000
,  // measure 25
0100
0000
0001
0000
0011
0000
0000
0000
0100
1000
0001
1000
0100
0000
0010
0000
,  // measure 26
0110
0000
0100
1000
0001
0000
0000
1000
0000
1000
0010
0000
1000
0000
0001
0100
,  // measure 27
0010
0000
0100
0000
0101
0000
0000
1000
0000
1000
0100
0000
0010
0000
0100
1000
,  // measure 28
0001
0010
0100
1000
0001
0000
0010
0000
0001
0100
0010
1000
0001
0000
0100
0000
,  // measure 29
0001
0010
0100
1000
0001
0000
1000
0000
1010
0000
0100
0000
0101
0000
0000
0000
,  // measure 30
1000
0010
0100
0001
1000
0000
0001
0000
1000
0100
0010
0001
1000
0000
0001
0000
,  // measure 31
1000
0010
0100
0010
1000
0000
0001
0000
0011
0000
0100
0000
1100
0000
1000
1000
,  // measure 32
0001
0000
0010
0001
0010
0000
0000
0000
0100
0010
0100
0000
1000
0000
0000
0000
,  // measure 33
0001
0100
0001
0100
0010
0000
1000
0001
1000
0000
0100
0000
0110
0000
0000
0000
,  // measure 34
0001
0000
0000
0010
0000
0000
0001
0000
0010
0000
0000
0000
0100
0000
0000
0000
1000
0000
0000
0001
0000
0000
1000
0000
0001
0000
0000
0000
0100
0000
0000
0000
,  // measure 35
0010
0100
2002
3003
,  // measure 36
1000
0010
1000
0010
1000
0000
0100
0000
0010
0100
0010
0100
1000
0000
0001
0000
,  // measure 37
0100
0010
0100
0010
1000
0000
0001
0000
0011
0000
0000
0000
1001
0000
0000
0000
,  // measure 38
0001
0100
0001
0100
0010
0000
1000
0000
0001
0010
0001
0010
0100
0000
1000
0000
,  // measure 39
0010
0100
0010
0100
0001
0000
1000
0000
1100
0000
0000
0000
1001
0000
0000
0000
,  // measure 40
1000
0010
0100
0010
1000
0000
0001
0000
0010
0100
0010
0001
0010
0000
0100
0000
,  // measure 41
1000
0001
0100
0001
1000
0000
0010
0000
0110
0000
0000
0000
1001
0000
0000
0000
,  // measure 42
0001
1000
0001
1000
0100
0010
0100
0010
0001
0010
0001
0010
0100
1000
0100
0010
,  // measure 43
0001
1000
0100
1000
0001
1000
0100
1000
0001
0000
0000
0000
1010
0000
0000
0000
,  // measure 44
1001
0000
0010
0001
1000
0000
0100
0000
0010
0001
1000
0001
0010
0000
0100
0000
,  // measure 45
1000
0000
0010
0010
0100
0000
0001
0000
0100
0001
0010
0001
0100
0000
0010
0000
,  // measure 46
1010
0000
1000
0001
1000
0000
0001
0010
0000
0001
0010
0000
0001
0000
1000
0100
,  // measure 47
1000
0000
0010
0010
0100
0000
0001
0000
1000
0100
0010
0100
1000
0000
0010
0000
,  // measure 48
0110
0000
0100
0001
0100
0000
0001
0000
0010
0001
0010
0100
1000
0000
0010
0000
,  // measure 49
1000
0000
0100
0100
1000
0000
0010
0000
0100
0001
1000
0001
0100
0000
0010
0000
,  // measure 50
1000
0000
0001
0010
0001
0000
0100
0010
0000
0100
0010
0000
1000
0000
0001
0010
,  // measure 51
0001
0000
0100
0100
0010
0000
1000
0001
0000
1000
0100
0000
0010
0000
0100
1000
,  // measure 52
0200
0000
0000
0300
;

//---------------dance-single - ----------------
#NOTES:
     dance-single:
     Shortysnmn2010:
     Hard:
     7:
     0.368362,0.404962,0.191002,0.095501,0.172637,351.000000,325.000000,26.000000,13.000000,0.000000,0.000000,0.368362,0.404962,0.191002,0.095501,0.172637,351.000000,325.000000,26.000000,13.000000,0.000000,0.000000:
// measure 0
0000
0000
0000
0000
,  // measure 1
0000
0000
0000
0000
,  // measure 2
0000
0000
0000
0000
,  // measure 3
0000
0000
0000
0000
,  // measure 4
1000
0000
0000
1100
0000
0000
0000
0000
0001
0000
0000
0101
0000
0000
0000
0000
,  // measure 5
0010
0000
0000
0110
0000
0000
0000
0000
1001
0000
0000
0000
1001
0000
0000
0000
,  // measure 6
1000
0000
0000
0110
0000
0000
0000
0000
0001
0000
0000
0110
0000
0000
0000
0000
,  // measure 7
1000
0000
0000
0110
0000
0000
0000
0000
1001
0000
0000
0000
0001
0000
1000
0001
,  // measure 8
1000
0000
0100
1000
0100
0000
0000
0000
0010
0000
0001
0000
0100
0000
0000
0000
,  // measure 9
0001
1000
0100
1000
0001
0010
0011
0000
,  // measure 10
0002
0000
1003
0100
2000
0000
3001
0100
,  // measure 11
0001
1000
0110
0000
,  // measure 12
0001
0010
0100
1000
0100
0010
0001
1000
,  // measure 13
0002
0000
0100
0100
0000
1000
1003
0000
,  // measure 14
0010
1000
0100
1000
0010
0100
0010
1000
,  // measure 15
0200
0000
0010
0010
0000
1000
1300
0000
,  // measure 16
0001
0100
1000
0100
0001
1000
0010
1000
,  // measure 17
0200
0000
0010
0010
0000
1000
1300
0000
,  // measure 18
0010
1000
0010
1000
0100
0010
0100
0010
,  // measure 19
0001
1000
0001
1000
0001
1000
0001
1000
0002
0000
0000
0000
0003
0000
0000
0000
,  // measure 20
1000
0000
0100
1000
0100
0000
0010
0000
0100
0000
1000
0000
0010
0000
1000
0000
,  // measure 21
0200
0001
1000
0310
,  // measure 22
0001
0000
1000
0001
1000
0000
0001
1000
0000
1000
0001
0000
1000
0000
0001
1000
,  // measure 23
0001
0010
0100
1000
0010
0000
0100
0000
,  // measure 24
0001
0000
0100
0001
0100
0000
0010
0000
1000
0000
0100
0000
0010
0000
0100
0000
,  // measure 25
2000
0010
0100
3001
,  // measure 26
1000
0000
0010
0100
0010
0000
0100
0010
0000
0010
0100
0000
0010
0000
0100
0010
,  // measure 27
0100
0001
1000
0001
0100
0000
0010
0000
,  // measure 28
1000
0000
0000
1100
0000
0000
0000
0000
0001
0000
0000
0011
0000
0000
0000
0000
,  // measure 29
1000
0000
0000
1010
0000
0000
0000
0000
0110
0000
0000
0000
0110
0000
0000
0000
,  // measure 30
0001
0000
0000
1100
0000
0000
0000
0000
0010
0000
0000
1001
0000
0000
0000
0000
,  // measure 31
0100
0000
0000
1010
0000
0000
0000
0000
0011
0000
0000
0000
0001
0000
0010
0001
,  // measure 32
0010
0000
0001
0010
0001
0000
0000
0000
1000
0000
0100
0000
1100
0000
0000
0000
,  // measure 33
1000
0010
0100
0001
0010
0001
1100
0000
,  // measure 34
0010
0000
0000
0001
0010
0000
0001
0000
0010
0000
0000
0001
1000
0000
0001
0000
,  // measure 35
0100
0010
0110
0000
,  // measure 36
0100
0001
1000
0010
1000
0100
0010
0001
,  // measure 37
2000
0000
0010
0010
0000
0001
3001
0000
,  // measure 38
0010
0100
1000
0010
0100
0001
1000
0001
,  // measure 39
0200
0000
1000
1000
0000
0010
0310
0000
,  // measure 40
1000
0001
1000
0100
0010
1000
0010
0100
,  // measure 41
2000
0000
0010
0010
0000
0100
3100
0000
,  // measure 42
0010
0001
0010
0001
1000
0010
1000
0010
,  // measure 43
0100
0010
0100
0010
0100
0010
0100
0010
0200
0000
0000
0000
0300
0000
0000
0000
,  // measure 44
0001
0000
0100
0001
0100
0000
0001
0000
1000
0000
0100
0000
0010
0000
0100
0000
,  // measure 45
1000
0000
0010
1000
0010
0000
1000
0000
0100
0000
0000
0000
0110
0000
0000
0000
,  // measure 46
0001
0000
1000
0001
1000
0000
0100
0000
0010
0000
0001
0000
0010
0000
0100
0000
,  // measure 47
1000
0000
0001
0100
0001
0000
1000
0000
0010
0000
0000
0000
0110
0000
0000
0000
,  // measure 48
1000
0000
0100
1000
0100
0000
1000
0000
0010
0000
1000
0000
0100
0000
0010
0000
,  // measure 49
0001
0000
0010
0001
0010
0000
0001
0000
0100
0000
0000
0000
1001
0000
0000
0000
,  // measure 50
0100
0000
0010
0100
0010
0000
0100
0000
1000
0000
0001
0000
0100
0000
1000
0000
,  // measure 51
0100
0000
0001
0100
0001
0000
1000
0100
0000
0100
1000
0000
0100
0000
1000
0100
,  // measure 52
2000
0000
3000
0000
;
