#TITLE:Battle with Gladion;
#SUBTITLE:Electro House Remix;
#ARTIST:GameChops;
#TITLETRANSLIT:;
#SUBTITLETRANSLIT:;
#ARTISTTRANSLIT:;
#GENRE:;
#CREDIT:;
#BANNER:;
#BACKGROUND:;
#LYRICSPATH:;
#CDTITLE:;
#MUSIC:Battle with Gladion.mp3;
#OFFSET:-0.984000;
#SAMPLESTART:45.984997;
#SAMPLELENGTH:12.000000;
#SELECTABLE:YES;
#BPMS:0.000000=128.000000
;
#STOPS:
;
#BGCHANGES:;
#KEYSOUNDS:;
#ATTACKS:;

//---------------dance-single - ----------------
#NOTES:
     dance-single:
     Shortysnmn2010:
     Beginner:
     1:
     0.086104,0.103849,0.024435,0.065160,0.000000,74.000000,71.000000,3.000000,8.000000,0.000000,0.000000,0.086104,0.103849,0.024435,0.065160,0.000000,74.000000,71.000000,3.000000,8.000000,0.000000,0.000000:
0000
0000
0000
0000
,
0000
0000
0000
0000
,
0000
0000
0000
0000
,
0000
0000
0000
0000
,
1000
0000
0000
0000
0000
0000
0000
0001
,
0000
0000
0000
0000
0000
0000
0000
0010
,
0000
0000
0000
0000
0000
0100
0000
0000
,
0100
0000
0000
0000
,
1000
0000
0000
0000
0000
0000
0000
0010
,
0000
0000
0000
0000
0000
0000
0000
0100
,
0000
0000
0000
0000
0000
0000
0000
0001
,
0000
0000
0000
0000
,
1000
0000
0001
0000
,
1000
0000
0000
0000
,
0010
0000
0000
0000
,
0100
0000
0000
0000
,
0020
0000
0030
0000
,
1000
0000
0000
0000
,
0001
0000
0001
0000
,
0001
0000
0000
0000
,
0020
0000
0030
0000
,
0100
0000
0000
0000
,
1000
0000
1000
0000
,
1000
0000
0000
0000
,
0020
0000
0030
0000
,
1000
0000
0000
0000
,
0001
0000
0001
0000
,
0001
0000
0000
0000
,
0200
0000
0300
0000
,
0010
0000
0000
0000
,
1000
0000
1000
0000
,
1000
0000
0000
0000
,
0001
0000
0000
0000
,
0010
0000
0000
0000
,
0100
0000
0000
0000
,
1000
0000
1000
0000
,
1000
0000
0000
0000
,
0010
0000
0000
0000
,
0100
0000
0000
0000
,
0001
0000
0001
0000
,
0001
0000
0000
0000
,
1000
0000
0000
0000
,
0010
0000
0000
0000
,
0100
0000
0010
0000
,
0100
0000
0000
0000
,
0001
0000
0000
0000
,
0010
0000
0000
0000
,
0100
0000
0100
0000
,
0100
0000
0000
0000
,
1000
0000
0000
0000
,
0010
0000
0000
0000
,
0110
0000
0000
0000
,
0001
0000
0000
0000
,
0010
0000
0000
0000
,
0100
0000
0000
0000
,
1100
0000
0000
0000
,
2000
0000
0000
0000
,
0010
0000
3000
0000
,
0002
0000
0000
0000
,
0100
0000
0003
0000
,
0020
0000
0000
0000
,
0100
0000
0030
0000
,
0002
0000
0000
0000
,
1000
0000
0003
1001
;

//---------------dance-single - ----------------
#NOTES:
     dance-single:
     Shortysnmn2010:
     Easy:
     2:
     0.104721,0.129811,0.016290,0.097740,0.000000,90.000000,88.000000,2.000000,12.000000,0.000000,0.000000,0.104721,0.129811,0.016290,0.097740,0.000000,90.000000,88.000000,2.000000,12.000000,0.000000,0.000000:
0000
0000
0000
0000
,
0000
0000
0000
0000
,
0000
0000
0000
0000
,
0000
0000
0000
0000
,
1000
0000
0000
0000
0000
0010
0000
0010
,
0000
0000
0000
0000
0000
0000
0000
0100
,
0000
0000
0000
0000
0000
0010
0000
0000
,
0010
0000
0000
0000
,
1000
0000
0000
0000
0000
0001
0000
0001
,
0000
0000
0000
0000
0000
0000
0000
0010
,
0000
0000
0000
0000
0000
0000
0000
0100
,
0000
0000
0000
0000
,
1000
0000
0001
0000
,
1000
0000
0001
0000
,
2000
0000
3000
0000
,
0002
0000
0003
0000
,
0020
0000
0030
0000
,
0100
0000
1000
0000
,
0100
0000
0010
0000
,
0100
0000
0000
0000
,
2000
0000
3000
0000
,
0010
0000
0100
0000
,
0010
0000
0000
0000
,
1000
0000
0000
0000
,
0002
0000
0003
0000
,
0010
0000
0100
0000
,
0010
0000
0100
0000
,
1000
0000
0000
0000
,
0020
0000
0000
0030
0000
0000
0000
0000
,
1000
0000
0001
0000
,
2000
0000
3000
0000
,
0002
0000
0003
0000
,
0010
0000
0100
0000
,
0010
0000
0000
0000
,
0001
0000
0100
0000
,
0001
0000
0100
0000
,
0010
0000
0000
0000
,
1000
0000
0000
0000
,
0001
0000
0010
0000
,
0001
0000
0010
0000
,
0100
0000
0000
0000
,
1000
0000
0000
0000
,
0010
0000
1000
0000
,
0010
0000
1000
0000
,
0002
0000
0003
1001
,
0000
1000
0000
0000
,
0200
0000
0300
0000
,
0020
0000
0030
0000
,
0100
0000
0001
0000
,
0100
0000
0001
0000
,
1000
0000
0000
0000
,
0001
0000
0000
0000
,
1000
0000
0010
0000
,
1000
0000
0010
0000
,
0100
0000
0000
0000
,
0010
0000
0000
0000
,
1000
0000
0100
0000
,
1000
0000
0100
0000
,
0010
0000
0000
0000
,
0001
0000
0000
0000
,
0100
0000
0010
0000
,
0100
0000
0010
0000
,
1000
0000
0000
0000
,
0002
0000
0003
1001
;

//---------------dance-single - ----------------
#NOTES:
     dance-single:
     Shortysnmn2010:
     Medium:
     4:
     0.229223,0.285583,0.057015,0.179190,0.000000,197.000000,190.000000,7.000000,22.000000,0.000000,0.000000,0.229223,0.285583,0.057015,0.179190,0.000000,197.000000,190.000000,7.000000,22.000000,0.000000,0.000000:
// measure 0
0000
0000
0000
0000
,  // measure 1
0000
0000
0000
0000
,  // measure 2
0000
0000
0000
0000
,  // measure 3
0000
0000
0000
0000
,  // measure 4
0001
0000
0000
0000
0000
1000
0000
1000
,  // measure 5
0000
0010
0000
1000
0000
0100
0000
0010
,  // measure 6
0000
0000
0000
0000
0000
0001
0000
0000
,  // measure 7
0001
0000
0000
1000
0000
0000
1000
0000
,  // measure 8
0010
0000
0000
0100
0000
0001
0000
0001
,  // measure 9
0000
0000
0000
0000
0000
1000
0000
0000
,  // measure 10
0100
0000
0000
0010
0000
0000
0000
0000
,  // measure 11
0001
0100
0010
0100
,  // measure 12
0002
0003
1000
0100
,  // measure 13
0010
0100
0010
0100
,  // measure 14
2000
0000
0000
0000
0000
3000
0000
0002
,  // measure 15
0000
0000
0000
0003
,  // measure 16
1000
0000
0100
0000
1000
0010
0000
0010
,  // measure 17
0000
0000
0100
0000
0001
0010
0000
0010
,  // measure 18
0000
0000
0100
0000
1000
0000
0001
0020
,  // measure 19
0000
0000
0000
0030
0000
0100
0000
1000
,  // measure 20
0100
0000
0010
0000
0001
0000
1000
0001
,  // measure 21
0000
0100
0000
0010
0000
0100
0000
0001
,  // measure 22
0010
0000
0100
0000
1000
0100
0000
0000
,  // measure 23
0010
0000
0000
1001
0000
0000
0110
0000
,  // measure 24
0001
1000
0000
1000
0000
0100
0000
0020
,  // measure 25
0000
0000
0000
0030
0000
0001
0000
1000
,  // measure 26
0001
0100
0001
2000
,  // measure 27
0100
0000
0100
0000
3100
0000
1000
0001
,  // measure 28
0000
0000
0100
0010
0000
1000
0000
0002
,  // measure 29
0000
0010
0010
1003
,  // measure 30
2200
0000
0000
0000
0000
3300
0000
2002
,  // measure 31
0000
0000
0000
3003
,  // measure 32
1000
0000
0001
0010
0000
0001
0000
0010
,  // measure 33
0001
0000
0000
1000
0000
0010
0000
1000
,  // measure 34
0100
0000
0010
0000
,  // measure 35
0001
1000
0001
0000
,  // measure 36
0100
0000
0010
1000
0000
0010
0000
0100
,  // measure 37
0010
0000
1000
0100
0000
0010
0000
0100
,  // measure 38
1000
0000
0001
0000
,  // measure 39
0010
0000
0100
0000
,  // measure 40
1000
0000
0001
0010
0000
0001
0000
1000
,  // measure 41
0100
0000
0000
1000
0000
0010
0000
1000
,  // measure 42
0010
0000
0100
0000
,  // measure 43
0001
1000
0001
0000
,  // measure 44
2000
0000
3000
1100
,  // measure 45
0000
0011
0000
0000
,  // measure 46
1000
0000
0001
0000
0010
0000
0001
2000
,  // measure 47
0002
0000
0000
3003
,  // measure 48
1000
0100
0010
0001
,  // measure 49
0010
0100
1000
0000
,  // measure 50
0001
1000
0001
0100
,  // measure 51
0010
1000
0010
0000
,  // measure 52
1000
0001
0010
0001
,  // measure 53
1000
0001
0100
0000
,  // measure 54
0001
0100
0010
0100
,  // measure 55
1000
0100
0001
0000
,  // measure 56
2000
3000
0002
0003
,  // measure 57
0010
0001
1000
0100
,  // measure 58
0020
0030
0200
0300
,  // measure 59
1000
0010
0100
0001
,  // measure 60
0020
0030
0002
0003
,  // measure 61
1000
0010
0001
0010
,  // measure 62
2000
3000
0002
0003
,  // measure 63
0100
0010
0100
1001
;

//---------------dance-single - ----------------
#NOTES:
     dance-single:
     Shortysnmn2010:
     Hard:
     7:
     0.407249,0.441356,0.138465,0.342089,0.000000,350.000000,333.000000,17.000000,42.000000,0.000000,0.000000,0.407249,0.441356,0.138465,0.342089,0.000000,350.000000,333.000000,17.000000,42.000000,0.000000,0.000000:
// measure 0
0000
0000
0000
0000
,  // measure 1
0000
0000
0000
0000
,  // measure 2
0000
0000
0000
0000
,  // measure 3
0000
0000
0000
0000
,  // measure 4
2002
0000
3003
0000
0000
0100
0001
1000
,  // measure 5
0000
1100
0000
0001
0000
0101
0000
2000
,  // measure 6
0020
0000
3030
0000
0000
0100
0000
0000
,  // measure 7
0201
0000
0000
0310
0000
0000
1001
0000
,  // measure 8
1000
0100
0000
0010
0000
0001
0100
0020
,  // measure 9
0000
0000
0000
0030
0000
0100
0001
0101
,  // measure 10
0100
0000
0000
0010
1000
0100
1000
1010
,  // measure 11
0010
0000
0100
0000
0001
0000
0100
0010
,  // measure 12
0100
0000
0001
0010
0010
0100
1000
0100
,  // measure 13
0200
0001
1000
0301
,  // measure 14
0200
0000
1000
0000
0301
0000
0100
1000
,  // measure 15
0020
0000
0030
1001
,  // measure 16
2000
0000
0100
0000
3100
0010
0100
2000
,  // measure 17
0100
0000
0100
0000
3100
0010
0001
0020
,  // measure 18
0001
0000
0001
0000
0031
1000
0100
0020
,  // measure 19
0000
0000
0000
0030
0000
1001
0000
0001
,  // measure 20
0200
0000
0010
0000
0310
1000
0001
0100
,  // measure 21
0010
0100
1000
0100
0010
0100
0001
0200
,  // measure 22
0010
0000
0010
0000
0310
1000
0001
0000
,  // measure 23
0011
0000
0000
1100
0100
1000
0002
0000
,  // measure 24
0103
0010
1000
0010
0100
0001
1000
0001
,  // measure 25
0010
0100
1000
0100
0010
0001
1000
0001
,  // measure 26
0200
0000
0300
0001
0100
0001
0010
0000
,  // measure 27
0200
0000
2300
0000
3002
0000
0103
0010
,  // measure 28
0200
0000
0310
1000
0000
1000
0001
0002
,  // measure 29
0010
0010
1000
0100
,  // measure 30
0200
0000
0000
0000
0303
0000
0000
2002
,  // measure 31
0000
0000
3003
0110
,  // measure 32
1000
0100
0010
0001
1000
0001
0100
0001
,  // measure 33
0002
0000
0013
0100
1000
0100
0010
0100
,  // measure 34
1000
0010
0000
1000
0010
1000
0000
0010
,  // measure 35
2000
0100
3002
0100
,  // measure 36
1003
0100
0010
0001
0100
0001
1000
0001
,  // measure 37
0002
0000
0103
0010
1000
0010
0100
0010
,  // measure 38
1000
0100
0010
0100
0000
0010
0001
0010
,  // measure 39
0000
0100
1000
0010
0000
0100
0010
0100
,  // measure 40
0001
1000
0100
0010
0001
0010
1000
0010
,  // measure 41
0020
0000
0031
1000
0100
1000
0001
1000
,  // measure 42
0010
0100
0000
0001
1000
0001
0000
2000
,  // measure 43
0200
0000
3300
0000
0010
0001
0010
0001
,  // measure 44
0200
0000
0300
0001
0100
0000
0110
0000
,  // measure 45
0000
0010
1000
0000
0100
1000
0000
0010
,  // measure 46
0200
0000
0001
0000
0010
0000
0301
1000
,  // measure 47
0200
0010
1000
0310
,  // measure 48
0001
0010
0001
0010
0100
1000
0002
0000
,  // measure 49
1003
0010
1000
0010
1000
0001
0200
0000
,  // measure 50
0310
1000
0001
1000
0010
0100
0002
0000
,  // measure 51
0013
0100
0010
0001
0010
0100
2000
0000
,  // measure 52
3001
0100
0001
0000
0010
0100
1000
0000
,  // measure 53
0010
0100
0010
1000
0100
0010
2000
0000
,  // measure 54
3010
0100
0010
0000
0001
0100
0001
0000
,  // measure 55
1000
0010
0001
0010
1000
0001
0100
0000
,  // measure 56
0010
1000
0010
1000
0001
0100
0010
2000
,  // measure 57
0100
0010
0100
3010
,  // measure 58
0100
0001
0100
0001
0010
0100
1000
0002
,  // measure 59
0010
0100
0010
0103
,  // measure 60
0010
1000
0010
1000
0100
0000
0110
0000
,  // measure 61
0010
0001
0010
0001
0100
0000
0110
0000
,  // measure 62
0010
1000
0100
0000
0010
0001
0100
0000
,  // measure 63
0001
1000
0100
0010
0100
0000
1001
0000
;
