#TITLE:Bad Girlfriend;
#SUBTITLE:;
#ARTIST:Anne Marie;
#TITLETRANSLIT:;
#SUBTITLETRANSLIT:;
#ARTISTTRANSLIT:;
#GENRE:;
#CREDIT:;
#BANNER:;
#BACKGROUND:;
#LYRICSPATH:;
#CDTITLE:;
#MUSIC:Bad Girlfriend.mp3;
#OFFSET:-0.026000;
#SAMPLESTART:94.628998;
#SAMPLELENGTH:13.750000;
#SELECTABLE:YES;
#BPMS:0.000000=144.000000
;
#STOPS:
;
#BGCHANGES:;
#KEYSOUNDS:;
#ATTACKS:;

//---------------dance-single - Blank----------------
#NOTES:
     dance-single:
     Shortysnmn2010:
     Beginner:
     1:
     0.096883,0.147604,0.007979,0.015957,0.000000,85.000000,84.000000,1.000000,2.000000,0.000000,0.000000,0.096883,0.147604,0.007979,0.015957,0.000000,85.000000,84.000000,1.000000,2.000000,0.000000,0.000000:
0000
0000
0000
0000
,
0000
0000
0000
0000
,
0000
0000
0000
0000
,
0000
0000
0000
0000
,
0000
0000
0000
0000
,
1000
0000
0000
0000
,
0001
0000
0000
0000
,
1000
0000
0000
0000
,
0100
0000
0000
0000
,
0010
0000
0000
0000
,
0001
0000
0000
0000
,
1000
0000
0000
0000
,
0010
0000
0000
0000
,
0100
0000
0000
0000
,
0010
0000
0000
0000
,
1000
0000
0000
0000
,
0001
0000
0000
0000
,
1000
0000
1000
0000
,
1000
0000
0000
0000
,
0001
0000
0000
0000
,
0010
0000
0000
0000
,
0001
0000
0001
0000
,
0001
0000
0000
0000
,
0100
0000
0000
0000
,
0010
0000
0000
0000
,
0100
0000
0100
0000
,
0100
0000
0000
0000
,
0010
0000
0000
0000
,
1000
0000
0000
0000
,
0001
0000
1000
0000
,
0001
0000
1000
0000
,
0001
0000
0000
0000
,
1000
0000
0000
0000
,
0100
0000
0100
0000
,
0010
0000
0010
0000
,
0100
0000
0000
0000
,
1000
0000
0000
0000
,
0001
0000
0001
0000
,
0100
0000
0100
0000
,
0001
0000
0001
0000
,
0100
0000
0000
0000
,
0010
0000
0000
0000
,
1000
0000
0000
0000
,
0100
0000
0000
0000
,
0010
0000
0000
0000
,
0001
0000
0000
0000
,
1000
0000
0000
0000
,
0010
0000
0000
0000
,
0100
0000
0000
0000
,
0001
0000
0000
0000
,
0010
0000
0000
0000
,
0100
0000
0000
0000
,
1000
0000
0000
0000
,
0001
0000
0000
0000
,
0100
0000
0000
0000
,
0010
0000
0000
0000
,
1000
0000
0000
0000
,
0100
0000
0100
0000
,
0100
0000
0000
0000
,
1000
0000
1000
0000
,
1000
0000
0000
0000
,
0001
0000
0001
0000
,
0001
0000
0000
0000
,
0010
0000
0100
0000
,
0010
0000
0000
0000
,
0100
0000
0000
0000
,
1000
0000
0000
0000
,
0010
0000
0000
0000
,
0100
0000
0000
0000
,
0001
0000
0100
0000
,
0001
0000
0000
0000
,
1000
0000
0000
0000
,
0001
0000
0000
0000
,
2002
0000
0000
0000
,
3003
0000
0000
0000
;

//---------------dance-single - ----------------
#NOTES:
     dance-single:
     Shortysnmn2010:
     Easy:
     4:
     0.204025,0.236167,0.015957,0.015957,0.000000,179.000000,177.000000,2.000000,2.000000,0.000000,0.000000,0.204025,0.236167,0.015957,0.015957,0.000000,179.000000,177.000000,2.000000,2.000000,0.000000,0.000000:
// measure 0
0000
0000
0000
0000
,  // measure 1
0000
0000
0000
0000
,  // measure 2
0000
0000
0000
0000
,  // measure 3
0000
0000
0000
0000
,  // measure 4
0000
0000
0000
0000
,  // measure 5
0000
1000
0001
1000
,  // measure 6
0000
0001
1000
0001
,  // measure 7
0000
1000
0001
1000
,  // measure 8
0000
0001
1000
0001
,  // measure 9
0010
0000
0100
0000
,  // measure 10
0010
0000
0001
0000
,  // measure 11
0100
0000
0010
0000
,  // measure 12
1000
0000
1001
0000
,  // measure 13
0000
0000
0010
1000
,  // measure 14
0001
0010
0001
0000
,  // measure 15
1000
0000
0000
0000
,  // measure 16
0010
0000
0000
0000
,  // measure 17
0100
0001
0001
0100
,  // measure 18
0001
0001
0001
0000
,  // measure 19
1000
0000
0100
0000
,  // measure 20
1000
0000
0100
0000
,  // measure 21
1000
0010
0010
1000
,  // measure 22
0010
0010
0010
0000
,  // measure 23
0100
0000
0001
0000
,  // measure 24
1000
0000
0000
0000
,  // measure 25
0001
0000
0010
0010
,  // measure 26
0001
0010
0001
0001
,  // measure 27
0000
0000
1000
0100
,  // measure 28
1000
0100
0100
1000
,  // measure 29
0010
0000
0010
0000
,  // measure 30
0010
1000
0100
0000
,  // measure 31
0010
0000
0010
0000
,  // measure 32
0001
0000
0100
0000
,  // measure 33
0001
0001
0001
0001
,  // measure 34
1000
0000
1000
0000
,  // measure 35
0001
0001
0001
0001
,  // measure 36
0100
0000
0001
0000
,  // measure 37
0010
0010
0010
0010
,  // measure 38
0001
0000
1000
0000
,  // measure 39
0100
0100
0100
0100
,  // measure 40
1000
1000
0010
0000
,  // measure 41
0100
0000
0001
0000
,  // measure 42
1000
0000
0010
0000
,  // measure 43
0100
0000
0001
0000
,  // measure 44
0010
0000
0001
0000
,  // measure 45
1000
0000
0100
0000
,  // measure 46
1000
0000
1000
0000
,  // measure 47
0001
0000
0100
0000
,  // measure 48
0001
0000
0000
0000
,  // measure 49
1000
0000
0100
0000
,  // measure 50
1000
0010
1000
1000
,  // measure 51
0100
0000
0010
0000
,  // measure 52
0100
0000
0100
0100
,  // measure 53
1000
0000
0010
0000
,  // measure 54
0100
0001
0010
0000
,  // measure 55
0001
0000
1000
0000
,  // measure 56
0100
0100
0100
0000
,  // measure 57
1000
0001
0001
1000
,  // measure 58
0001
0001
0001
0000
,  // measure 59
0100
0000
0010
0000
,  // measure 60
0100
0000
0010
0000
,  // measure 61
0100
0001
0001
0010
,  // measure 62
0001
0001
0001
0000
,  // measure 63
0100
0000
0001
0000
,  // measure 64
1000
0000
0000
0000
,  // measure 65
0100
0000
1000
0100
,  // measure 66
1000
1000
0100
0100
,  // measure 67
0000
0000
0010
0100
,  // measure 68
0010
0100
0100
0010
,  // measure 69
0001
0000
0001
0000
,  // measure 70
0001
0100
1000
0000
,  // measure 71
0100
0000
0001
0000
,  // measure 72
0010
0100
0010
0001
,  // measure 73
2002
0000
0000
0000
,  // measure 74
3003
0000
0000
0000
;

//---------------dance-single - ----------------
#NOTES:
     dance-single:
     Shortysnmn2010:
     Hard:
     8:
     0.473018,0.495073,0.351059,0.191487,0.055850,415.000000,371.000000,44.000000,24.000000,0.000000,0.000000,0.473018,0.495073,0.351059,0.191487,0.055850,415.000000,371.000000,44.000000,24.000000,0.000000,0.000000:
// measure 0
0000
0000
0000
0000
,  // measure 1
0000
0000
0000
0000
,  // measure 2
0000
0000
0000
0000
,  // measure 3
0000
0000
0000
0000
,  // measure 4
0000
0000
0000
0000
,  // measure 5
0000
0001
0100
0000
0001
0100
0001
0000
,  // measure 6
0000
1000
0100
0000
1000
0100
1000
0000
,  // measure 7
0000
0010
0100
0000
0010
0100
0010
0000
,  // measure 8
0000
0100
0001
0100
0001
0000
0000
0010
,  // measure 9
0100
1000
0100
0010
0001
0000
1001
0000
,  // measure 10
1000
0010
1000
0100
0001
0000
0101
0000
,  // measure 11
0100
1000
0100
0010
0001
1000
0001
0100
,  // measure 12
0010
1000
0010
0100
0001
0000
0000
1001
,  // measure 13
0000
0000
0000
1000
0100
1000
0001
0200
,  // measure 14
0001
0001
0002
0303
,  // measure 15
0110
0000
1000
0100
0010
0100
1000
0010
,  // measure 16
0100
0000
0001
0000
1000
0000
0010
0100
,  // measure 17
0010
0000
1000
0000
1010
0000
1000
0001
,  // measure 18
0010
0001
0022
0033
,  // measure 19
0100
1000
0001
0200
0001
0000
0301
0000
,  // measure 20
1000
0010
0100
0002
1000
0000
1003
0100
,  // measure 21
1000
0000
0010
0000
1010
0000
1000
0100
,  // measure 22
0010
0100
0220
0330
,  // measure 23
0100
1000
0001
2000
0010
0000
3010
0000
,  // measure 24
0100
0001
1000
0001
0000
1001
0000
0000
,  // measure 25
0010
0000
0010
0001
0010
0100
0010
0001
,  // measure 26
0100
0010
0100
0002
0010
0000
0013
0000
,  // measure 27
0100
0000
0100
1000
0100
0010
0100
1000
,  // measure 28
0010
0100
0010
1000
0100
0010
0001
0100
,  // measure 29
0001
0000
0011
0000
0101
0000
0001
1000
,  // measure 30
0100
1100
1010
0000
,  // measure 31
1000
0001
0010
0001
1000
0100
0001
0100
,  // measure 32
2000
0000
3000
0000
,  // measure 33
0001
0100
0000
0000
0001
1000
0000
0000
0100
1000
0000
0000
0100
0010
0000
0000
,  // measure 34
0011
0000
0000
0000
0011
0000
0000
0000
0100
0000
0000
0000
1000
0010
0000
0000
,  // measure 35
1000
0001
0000
0000
0100
0001
0000
0000
1001
0000
0000
0000
1001
0000
0000
0000
,  // measure 36
0010
0110
2002
3003
,  // measure 37
0001
1000
0000
0000
1000
0001
0000
0000
0010
0100
0000
0000
0100
0010
0000
0000
,  // measure 38
1100
0000
0000
0000
1100
0000
0000
0000
0001
0000
0000
0000
1000
0010
0000
0000
,  // measure 39
0010
0100
0000
0000
0100
0001
0000
0000
0011
0000
0000
0000
0011
0000
0000
0000
,  // measure 40
0100
1001
2002
3003
,  // measure 41
0000
1000
0100
0000
0010
0100
0010
0000
,  // measure 42
0000
0001
0100
0000
0010
0100
0010
0000
,  // measure 43
0000
0100
0001
0000
0010
0100
0010
0000
,  // measure 44
0000
0100
1000
0000
0010
0100
0010
0000
,  // measure 45
0000
1000
0001
1000
0100
0010
0100
0000
,  // measure 46
0000
1000
0010
1000
0001
0100
0001
0000
,  // measure 47
0000
0010
0100
0010
0001
1000
0001
0000
,  // measure 48
0000
0100
0010
0100
0010
0000
0000
0100
,  // measure 49
0001
1000
0001
0100
0010
0000
0110
0000
,  // measure 50
0100
0001
1000
0010
1000
0000
1100
0000
,  // measure 51
0010
0001
1000
0001
0100
0010
0100
0001
,  // measure 52
0010
0100
1000
0001
0100
0000
0110
0000
,  // measure 53
1001
0000
0000
1000
0100
1000
0001
0200
,  // measure 54
0010
0010
0020
0330
,  // measure 55
1001
0000
0001
0010
0001
1000
0010
1000
,  // measure 56
0100
0000
0010
0000
0110
0000
0010
0001
,  // measure 57
0100
0000
0001
0000
0101
0000
0100
0001
,  // measure 58
0010
0001
0022
0033
,  // measure 59
0100
1000
0100
1000
0010
0000
0110
0000
,  // measure 60
0100
0001
0100
0001
0010
0000
0100
1000
,  // measure 61
0010
0000
1000
0000
1010
0000
0010
1000
,  // measure 62
0100
1000
2200
3300
,  // measure 63
0010
0001
0010
0001
0100
0000
0110
0000
,  // measure 64
0100
0001
0010
0100
0000
0110
0000
0000
,  // measure 65
1000
0000
1000
0100
1000
0001
1000
0010
,  // measure 66
0100
0001
1000
0001
0100
0000
0110
0000
,  // measure 67
0001
0000
0001
0100
0001
1000
0001
0010
,  // measure 68
0100
1000
0001
0100
0010
0010
0100
0001
,  // measure 69
0010
0000
0011
0000
0101
0000
0001
1000
,  // measure 70
0100
1100
2020
3030
,  // measure 71
1000
0001
0100
0010
,  // measure 72
2000
0000
0000
0000
3100
0010
0001
0100
,  // measure 73
1001
0000
0000
0000
;

//---------------dance-single - ----------------
#NOTES:
     dance-single:
     Shortysnmn2010:
     Medium:
     6:
     0.361317,0.442813,0.502653,0.047872,0.000000,317.000000,254.000000,63.000000,6.000000,0.000000,0.000000,0.361317,0.442813,0.502653,0.047872,0.000000,317.000000,254.000000,63.000000,6.000000,0.000000,0.000000:
// measure 0
0000
0000
0000
0000
,  // measure 1
0000
0000
0000
0000
,  // measure 2
0000
0000
0000
0000
,  // measure 3
0000
0000
0000
0000
,  // measure 4
0000
0000
0000
0000
,  // measure 5
0000
1000
0001
0000
0010
0000
0010
0000
,  // measure 6
0000
0001
1000
0000
0100
0000
0100
0000
,  // measure 7
0000
1000
0001
0000
0100
0000
0100
0000
,  // measure 8
0000
0010
1000
0000
0001
0000
0000
1000
,  // measure 9
0100
0010
0001
1000
,  // measure 10
0001
0100
0001
0000
1000
0000
0010
0000
,  // measure 11
1000
0100
1000
0000
0100
0000
0001
0000
,  // measure 12
0100
0000
1000
0000
1010
0000
0000
1001
,  // measure 13
0000
0000
0000
0001
0100
0000
0001
0000
,  // measure 14
0020
0100
0200
0000
,  // measure 15
0330
0000
0000
1000
0001
0000
0100
0000
,  // measure 16
0010
1000
0100
0000
,  // measure 17
1100
1001
1100
0000
,  // measure 18
0011
1001
0011
0000
,  // measure 19
0100
1000
0100
0000
1000
0000
0010
0000
,  // measure 20
1000
0100
1000
0000
0010
0000
0000
0000
,  // measure 21
0101
0110
0101
0000
,  // measure 22
1010
0110
1010
0000
,  // measure 23
0001
1000
0001
0000
0010
0000
0100
0000
,  // measure 24
1000
0001
1000
0000
0000
1001
0000
0000
,  // measure 25
0000
0000
0000
1000
0100
0000
0010
0000
,  // measure 26
0001
1000
1001
0101
,  // measure 27
0000
0000
0000
0001
0010
0000
0001
0000
,  // measure 28
0100
0000
0010
0000
1000
0000
0100
1000
,  // measure 29
0100
0000
1100
0000
1001
0000
0010
0001
,  // measure 30
0010
0011
1001
0000
,  // measure 31
0001
0000
1000
0000
,  // measure 32
0010
0100
1001
0000
,  // measure 33
0001
0001
1000
1000
,  // measure 34
1100
1100
0011
0100
,  // measure 35
1000
1000
0011
0011
,  // measure 36
1010
0101
1001
0000
,  // measure 37
1000
1000
0010
0010
,  // measure 38
0110
1010
1100
1000
,  // measure 39
0001
0001
0011
1100
,  // measure 40
1100
1001
0101
0000
,  // measure 41
0000
1000
0001
0000
0100
0000
0100
0000
,  // measure 42
0000
0001
1000
0000
0001
0000
0001
0000
,  // measure 43
0000
1000
0010
0000
1000
0000
1000
0000
,  // measure 44
0000
0100
0010
0000
0100
0000
0100
0000
,  // measure 45
0000
1000
0010
0000
0100
0000
0001
0000
,  // measure 46
0000
0100
0001
0000
0010
0000
0001
0000
,  // measure 47
0000
0001
1000
0000
0100
0000
1000
0000
,  // measure 48
0000
0010
1000
0000
0100
0000
0000
1000
,  // measure 49
0100
0010
0001
0001
,  // measure 50
1000
0010
1000
0000
1100
0000
1100
0000
,  // measure 51
1000
0010
1000
0000
0001
0000
0100
0000
,  // measure 52
0001
0010
0110
0110
,  // measure 53
0000
0000
0000
1000
0010
0000
0100
0000
,  // measure 54
0020
0100
0200
0000
,  // measure 55
0330
0000
0000
0001
0010
0000
0001
0000
,  // measure 56
1000
0010
1000
0000
,  // measure 57
1100
1001
0101
0000
,  // measure 58
0101
1001
1100
0000
,  // measure 59
1000
0100
0010
0000
0100
0000
1000
0000
,  // measure 60
0010
0100
0001
0000
1000
0000
0000
0000
,  // measure 61
0101
0110
1010
0000
,  // measure 62
1100
0110
0011
0000
,  // measure 63
1000
0001
0100
0000
0001
0000
1000
0000
,  // measure 64
0010
1000
0001
0000
0000
1001
0000
0000
,  // measure 65
0000
0000
0000
1000
0100
0000
0010
0000
,  // measure 66
0100
1000
1010
1010
,  // measure 67
0000
0000
0000
0010
0100
0000
0001
0000
,  // measure 68
0010
0000
0001
0000
1000
0000
0010
0100
,  // measure 69
0010
0000
1010
0000
0110
0000
0100
0001
,  // measure 70
0100
0110
0101
0000
,  // measure 71
1001
0000
0000
0000
,  // measure 72
1000
0100
0010
0000
,  // measure 73
0220
0000
0000
0000
,  // measure 74
0330
0000
0000
0000
;
