#TITLE:All Day and Night;
#SUBTITLE:;
#ARTIST:Jax Jones, Martin Solveig, Madison Beer;
#TITLETRANSLIT:;
#SUBTITLETRANSLIT:;
#ARTISTTRANSLIT:;
#GENRE:;
#CREDIT:;
#BANNER:;
#BACKGROUND:;
#LYRICSPATH:;
#CDTITLE:;
#MUSIC:All Day and Night.mp3;
#OFFSET:-0.203000;
#SAMPLESTART:84.792999;
#SAMPLELENGTH:15.738000;
#SELECTABLE:YES;
#BPMS:0.000000=122.000000
;
#STOPS:
;
#BGCHANGES:;
#KEYSOUNDS:;
#ATTACKS:;

//---------------dance-single - ----------------
#NOTES:
     dance-single:
     Shortysnmn2010:
     Beginner:
     1:
     0.085209,0.124264,0.008284,0.008284,0.000000,72.000000,71.000000,1.000000,1.000000,0.000000,0.000000,0.085209,0.124264,0.008284,0.008284,0.000000,72.000000,71.000000,1.000000,1.000000,0.000000,0.000000:
0000
0000
0000
0000
,
0000
0000
0000
0000
,
0000
0000
0000
0000
,
0000
0000
0000
0000
,
1000
0000
0000
0000
,
0001
0000
0000
0000
,
0010
0000
0000
0000
,
0100
0000
0000
0000
,
1000
0000
0000
0000
,
0010
0000
0000
0000
,
0100
0000
0000
0000
,
0100
0000
0000
0000
,
0001
0000
0000
0000
,
1000
0000
0000
0000
,
0010
0000
0000
0000
,
1000
0000
0000
0000
,
0100
0000
0000
0000
,
0010
0000
0002
0000
,
0000
0000
0000
0000
,
0000
0000
0003
0000
,
1000
0000
0100
0000
,
1000
0000
0000
0000
,
0001
0000
0010
0000
,
0001
0000
0000
0000
,
1000
0000
0001
0000
,
1000
0000
0000
0000
,
0001
0000
1000
0000
,
0001
0000
0000
0000
,
0100
0000
0000
0000
,
0010
0000
0000
0000
,
1000
0000
0000
0000
,
0001
0000
0000
0000
,
0010
0000
0010
0000
,
0001
0000
0000
0000
,
1000
0000
0000
0000
,
0100
0000
0100
0000
,
1000
0000
0000
0000
,
0010
0000
0000
0000
,
0100
0000
0000
0000
,
0001
0000
0001
0000
,
0001
0000
0000
0000
,
0010
0000
0000
0000
,
0100
0000
0000
0000
,
1000
0000
0000
0000
,
0001
0000
1000
0000
,
0001
0000
1000
0000
,
0001
0000
0000
0000
,
1000
0000
0000
0000
,
0010
0000
0100
0000
,
0010
0000
0100
0000
,
0010
0000
0000
0000
,
0100
0000
0000
0000
,
0001
0000
0100
0000
,
0001
0000
0100
0000
,
0001
0000
0000
0000
,
1000
0000
0000
0000
,
0100
0000
1000
0000
,
0100
0000
1000
0000
,
0100
0000
0000
0000
,
0010
0000
0000
0000
,
0110
0000
0000
0000
;

//---------------dance-single - ----------------
#NOTES:
     dance-single:
     Shortysnmn2010:
     Easy:
     2:
     0.136098,0.174694,0.008284,0.008284,0.000000,115.000000,114.000000,1.000000,1.000000,0.000000,0.000000,0.136098,0.174694,0.008284,0.008284,0.000000,115.000000,114.000000,1.000000,1.000000,0.000000,0.000000:
// measure 0
0000
0000
0000
0000
,  // measure 1
0000
0000
0000
0000
,  // measure 2
0000
0000
0000
0000
,  // measure 3
0000
0000
0000
0000
,  // measure 4
0000
1000
0000
0001
,  // measure 5
0000
0100
0000
0000
,  // measure 6
0000
0010
0000
1000
,  // measure 7
0000
0100
0000
0000
,  // measure 8
0000
1000
0000
0001
,  // measure 9
0000
0100
0000
0000
,  // measure 10
0000
0010
0000
0100
,  // measure 11
0000
0010
0000
0000
,  // measure 12
1000
0000
0001
0001
,  // measure 13
0001
0000
0010
0000
,  // measure 14
0100
0000
1000
0000
,  // measure 15
1010
0000
0000
0000
,  // measure 16
1000
0000
0100
0100
,  // measure 17
0100
0000
1000
0000
,  // measure 18
0010
0000
0000
0000
,  // measure 19
0000
0100
0000
0000
,  // measure 20
0001
0000
0000
1000
,  // measure 21
1000
0000
0000
0010
,  // measure 22
0010
0000
0000
0100
,  // measure 23
0100
0000
0001
0000
,  // measure 24
0010
0000
0000
0100
,  // measure 25
0100
0000
0000
1000
,  // measure 26
1000
0000
0000
0010
,  // measure 27
0010
0000
1000
0000
,  // measure 28
0000
0001
0000
1000
,  // measure 29
0000
0001
0000
0000
,  // measure 30
0000
0010
0000
0100
,  // measure 31
0000
0010
0000
0000
,  // measure 32
0000
0100
0000
1000
,  // measure 33
0000
0100
0000
0000
,  // measure 34
0000
0010
0000
0100
,  // measure 35
0000
0010
0010
0010
,  // measure 36
0001
0000
1000
0000
,  // measure 37
0001
0000
0100
0000
,  // measure 38
0001
0000
0010
0010
,  // measure 39
0010
0000
0100
0000
,  // measure 40
1000
0000
0010
0010
,  // measure 41
0010
0000
1000
0000
,  // measure 42
0100
0000
0000
0000
,  // measure 43
0000
0010
0000
0000
,  // measure 44
0100
1000
0000
0010
,  // measure 45
0010
0000
0000
1000
,  // measure 46
0001
0000
0000
0001
,  // measure 47
1000
0000
0001
0000
,  // measure 48
0010
0100
0000
0100
,  // measure 49
1000
0100
0000
0100
,  // measure 50
0000
0010
0000
0010
,  // measure 51
0001
0010
0000
0001
,  // measure 52
1000
0001
0000
1000
,  // measure 53
0000
0100
0000
1000
,  // measure 54
0010
1000
0000
0100
,  // measure 55
0010
0100
0000
0010
,  // measure 56
0000
0001
0000
0100
,  // measure 57
0001
0100
0000
0010
,  // measure 58
1000
0100
0000
1000
,  // measure 59
0000
0001
0000
0020
,  // measure 60
0000
0030
0000
0000
;

//---------------dance-single - ----------------
#NOTES:
     dance-single:
     Shortysnmn2010:
     Hard:
     8:
     0.443799,0.496019,0.215390,0.099411,0.310659,375.000000,349.000000,26.000000,12.000000,0.000000,0.000000,0.443799,0.496019,0.215390,0.099411,0.310659,375.000000,349.000000,26.000000,12.000000,0.000000,0.000000:
// measure 0
0000
0000
0000
0000
,  // measure 1
0000
0000
0000
0000
,  // measure 2
0000
0000
0000
0000
,  // measure 3
0000
0000
0000
0000
,  // measure 4
1000
0000
0001
0000
1000
0000
0100
1000
0000
0000
0001
0000
1000
0000
0001
0100
,  // measure 5
0000
0000
0001
0000
0010
0000
0001
0010
0000
0000
0000
0000
0000
0000
0000
0000
,  // measure 6
0001
0000
1000
0000
0001
0000
0010
0001
0000
0000
1000
0000
0100
0000
0010
0100
,  // measure 7
0000
0000
1000
0000
0010
0000
0100
0010
0000
0000
0000
0000
0000
0000
0000
0000
,  // measure 8
1000
0000
0100
0000
0010
0000
0001
0010
0000
0000
0001
0000
0010
0000
0100
1000
,  // measure 9
0000
0000
0001
0000
0100
0000
0001
0100
0000
0000
0010
0000
1000
0000
0200
0000
,  // measure 10
0000
0000
0000
0300
0000
0010
0001
0200
,  // measure 11
0000
0300
0010
1000
0001
0000
0011
0000
,  // measure 12
1000
0100
0010
0001
1000
0010
1000
0010
,  // measure 13
2000
0000
3000
0000
0001
0100
0001
0010
,  // measure 14
0100
1000
0010
1000
0100
0000
0110
0000
,  // measure 15
1100
0000
0010
0001
0100
0000
1000
0000
,  // measure 16
0100
0001
1000
0010
0100
0001
0100
0001
,  // measure 17
0200
0000
0000
0000
0300
0000
0001
0000
1000
0000
0000
0001
0000
0000
1000
0000
,  // measure 18
0000
0001
0000
0000
2002
0000
0000
0000
0000
0000
0000
0000
3003
0000
0000
0000
,  // measure 19
0000
1000
0100
1000
0001
0100
0001
1000
,  // measure 20
0100
0000
0010
0000
0000
0000
0000
0001
0000
0100
0000
0001
0100
0000
0001
0000
,  // measure 21
1000
0000
0100
0000
0000
0000
0000
1000
0000
0100
0000
1000
0100
0000
1000
0000
,  // measure 22
0010
0000
0100
0000
0000
0000
0000
0010
0000
0100
0000
0010
1000
0000
0001
0000
,  // measure 23
0010
0100
1000
0010
1000
0100
0010
0001
,  // measure 24
0100
0000
0010
0000
0000
0000
0000
0100
0000
0001
0000
0100
0010
0000
1000
0000
,  // measure 25
0001
0000
0010
0000
0000
0000
0000
0100
0000
0010
0000
0001
1000
0000
0010
0000
,  // measure 26
0100
0000
0010
0000
0000
0000
0000
0100
0000
0001
0000
0010
0001
0000
0100
0000
,  // measure 27
0010
0000
0100
0000
0000
0000
0000
0001
0000
0010
0000
0100
1000
0000
0100
0000
,  // measure 28
0000
0000
1000
0000
0100
0000
1000
0010
0000
0000
0100
0000
0001
0000
0010
0001
,  // measure 29
0000
0000
0100
0000
0010
0000
0100
0010
0000
0000
0000
0000
0000
0000
0000
0000
,  // measure 30
1000
1100
0001
0011
,  // measure 31
1000
0000
0000
0000
1100
0000
0010
0002
0000
0000
0000
0000
0003
0000
0000
0000
,  // measure 32
0100
1001
0010
1001
,  // measure 33
0100
0000
0000
0000
1010
0000
0100
0001
0000
0000
0010
0000
0100
0000
0020
0000
,  // measure 34
0000
0000
0000
0030
0000
0001
1000
0200
,  // measure 35
0000
0300
1000
0001
0100
0000
0101
0000
,  // measure 36
0001
0010
0100
1000
0001
0100
0001
0100
,  // measure 37
0002
0000
0003
0000
1000
0100
0010
0100
,  // measure 38
1000
0010
0100
0001
0010
0000
0110
0000
,  // measure 39
1100
0000
0010
0001
0100
0000
0010
0000
,  // measure 40
0100
0001
0010
0100
1000
0010
1000
0010
,  // measure 41
2000
0000
0000
0000
3000
0000
0010
0000
0100
0000
0000
0010
0000
0000
0100
0000
,  // measure 42
0000
0010
0000
0000
0110
0000
0000
0000
0000
0000
0000
0000
0000
0000
0000
0000
,  // measure 43
0000
0010
0100
0010
0001
0100
0010
0100
,  // measure 44
0001
0000
0010
0000
0000
0000
0000
0100
0000
0100
0000
1000
0100
0000
1000
0000
,  // measure 45
0010
0000
0100
0000
0000
0000
0000
0010
0000
0010
0000
1000
0001
0000
0010
0000
,  // measure 46
0001
0000
1000
0000
0000
0000
0000
0100
0000
0100
0000
1000
0001
0000
0100
0000
,  // measure 47
0010
0100
0001
0010
0100
1000
0010
1000
,  // measure 48
0100
0000
0010
0000
0000
0000
0000
0010
0000
0010
0000
0001
1000
0000
0010
0000
,  // measure 49
1000
0000
0100
0000
0000
0000
0000
1000
0000
1000
0000
0001
1000
0000
0010
0000
,  // measure 50
0001
0000
0010
0000
0000
0000
0000
0100
0000
0100
0000
0001
0010
0000
0001
0000
,  // measure 51
1000
0010
1000
0001
0100
1000
0100
0001
,  // measure 52
1000
0000
0100
0000
0010
0000
0000
0110
0000
0110
0000
0110
0000
0000
0000
0000
,  // measure 53
0001
0000
1000
0000
0100
0000
0000
1001
0000
1001
0000
1001
0000
0000
0000
0000
,  // measure 54
0010
0000
0001
0000
0100
0000
0000
0010
0000
0100
0000
0010
0100
0000
0001
0000
,  // measure 55
1000
0100
0001
0100
1000
0001
0100
0010
,  // measure 56
1000
0000
0100
0000
1000
0000
0000
0011
0000
0011
0000
0011
0000
0000
0000
0000
,  // measure 57
0001
0000
0100
0000
0001
0000
0000
1010
0000
1010
0000
1010
0000
0000
0000
0000
,  // measure 58
1000
0000
0100
0000
0010
0000
0000
0001
0000
1000
0000
0001
0100
0000
0010
0000
,  // measure 59
0100
0001
0010
0200
1000
0000
0001
0301
;

//---------------dance-single - ----------------
#NOTES:
     dance-single:
     Shortysnmn2010:
     Medium:
     6:
     0.330187,0.372015,0.207106,0.165685,0.236101,279.000000,254.000000,25.000000,20.000000,0.000000,0.000000,0.330187,0.372015,0.207106,0.165685,0.236101,279.000000,254.000000,25.000000,20.000000,0.000000,0.000000:
// measure 0
0000
0000
0000
0000
,  // measure 1
0000
0000
0000
0000
,  // measure 2
0000
0000
0000
0000
,  // measure 3
0000
0000
0000
0000
,  // measure 4
1000
0000
0001
0100
0001
0000
0100
0001
,  // measure 5
0100
0000
0001
0100
0001
0000
0000
0000
,  // measure 6
1000
0000
0100
0010
0100
0000
0010
0100
,  // measure 7
0010
0000
0100
0010
0100
0000
0000
0000
,  // measure 8
1000
0000
0001
0010
0001
0000
0010
0001
,  // measure 9
0010
0000
0001
0010
0001
0000
0200
0000
,  // measure 10
0000
0300
0000
0020
,  // measure 11
0030
0000
1000
0001
1000
0000
0100
0000
,  // measure 12
0010
0001
0010
0000
0002
0000
0100
0000
,  // measure 13
2000
3003
1000
0100
,  // measure 14
0010
0000
0100
1000
0001
0000
0100
0000
,  // measure 15
0020
0100
0100
0130
,  // measure 16
0001
0100
0010
0000
0200
0000
0001
0000
,  // measure 17
0020
0000
0330
0000
1000
0000
0000
0001
,  // measure 18
0000
0000
1001
0000
0000
0000
0000
2002
,  // measure 19
0000
0000
3003
0000
,  // measure 20
0000
0000
1000
0000
0000
0000
0000
0001
0000
0010
0000
0001
0000
0000
0100
0000
,  // measure 21
0000
0000
0110
0000
0000
0000
0000
1000
0000
0100
0000
0010
0000
0000
0100
0000
,  // measure 22
0000
0000
0110
0000
0000
0000
0000
0100
0000
1000
0000
0001
0000
0000
0100
0000
,  // measure 23
0000
0010
0100
0010
0100
0010
0100
0010
,  // measure 24
0100
0000
0001
0000
0000
0000
0000
0010
0000
0100
0000
0010
0000
0000
0001
0000
,  // measure 25
0000
0000
1001
0000
0000
0000
0000
1000
0000
0010
0000
0100
0000
0000
0001
0000
,  // measure 26
0000
0000
1100
0000
0000
0000
0000
0010
0000
0001
0000
1000
0000
0000
0010
0000
,  // measure 27
0000
0000
0101
0000
0000
0000
0000
0010
0000
1000
0000
0100
0000
0000
2000
0000
,  // measure 28
0000
0001
0000
0001
,  // measure 29
0000
0002
3003
0000
,  // measure 30
0001
0101
1000
1010
,  // measure 31
0001
0011
0100
1100
,  // measure 32
0010
0001
0100
0000
0001
0000
1100
0000
,  // measure 33
0010
0001
0100
0000
0001
0000
1010
0000
,  // measure 34
0100
0001
0010
0000
0001
0000
1100
0000
,  // measure 35
0010
0001
0100
0000
0010
0000
0010
0000
,  // measure 36
0220
0000
0330
0000
1000
0001
0010
0000
,  // measure 37
2200
3300
0010
0001
,  // measure 38
0100
0000
1000
0100
0001
0000
0010
0000
,  // measure 39
0002
0100
0100
1000
,  // measure 40
0103
0010
1000
0000
0001
0000
0010
0000
,  // measure 41
0011
0000
0000
0000
1000
0000
0000
0001
,  // measure 42
0000
0000
1001
0000
0000
0000
0000
2002
,  // measure 43
0000
0000
3003
0000
,  // measure 44
0000
0000
1001
0000
0000
0000
0000
0100
0000
0001
0000
0010
0000
0000
0100
0000
,  // measure 45
0000
0000
0110
0000
0000
0000
0000
1000
0000
0001
0000
0010
0000
0000
0100
0000
,  // measure 46
0000
0000
0011
0000
0000
0000
0000
0100
0000
1000
0000
0010
0000
0000
0100
0000
,  // measure 47
0000
0010
1000
0010
1000
0010
1000
0010
,  // measure 48
1000
0000
0100
0000
0000
0000
0000
0010
0000
0001
0000
0100
0000
0000
0001
0000
,  // measure 49
0000
0000
0110
0000
0000
0000
0000
0010
0000
1000
0000
0100
0000
0000
1000
0000
,  // measure 50
0000
0000
0110
0000
0000
0000
0000
0010
0000
0001
0000
0100
0000
0000
0001
0000
,  // measure 51
0000
1000
0001
1000
0001
1000
0001
1000
,  // measure 52
0010
0000
0100
0000
0010
0000
0000
0100
0000
0010
0000
0100
0000
0000
0000
0000
,  // measure 53
0001
0000
1000
0000
0001
0000
0000
1000
0000
0001
0000
1000
0000
0000
0000
0000
,  // measure 54
0001
0000
0010
0000
0001
0000
0000
0010
0000
0001
0000
0010
0000
0000
0000
0000
,  // measure 55
0000
0100
1000
0000
0010
0000
0100
0000
,  // measure 56
0001
0000
1000
0000
0001
0000
0000
1000
0000
0001
0000
1000
0000
0000
0000
0000
,  // measure 57
0100
0000
0010
0000
0100
0000
0000
1000
0000
0100
0000
1000
0000
0000
0000
0000
,  // measure 58
0010
0000
0100
0000
0010
0000
0000
1000
0000
0001
0000
0100
0000
0000
0000
0000
,  // measure 59
0002
0000
0013
0100
2000
0000
3001
1001
;
