#TITLE:A Bet on This Bout;
#SUBTITLE:;
#ARTIST:Motoi Sakuraba and Hibiki Aoyama;
#TITLETRANSLIT:;
#SUBTITLETRANSLIT:;
#ARTISTTRANSLIT:;
#GENRE:;
#CREDIT:;
#BANNER:;
#BACKGROUND:;
#LYRICSPATH:;
#CDTITLE:;
#MUSIC:A Bet on This Bout.mp3;
#OFFSET:-0.058000;
#SAMPLESTART:63.604000;
#SAMPLELENGTH:12.003000;
#SELECTABLE:YES;
#BPMS:0.000000=159.966003
;
#STOPS:
;
#BGCHANGES:;
#KEYSOUNDS:;
#ATTACKS:;

//---------------dance-single - ----------------
#NOTES:
     dance-single:
     Shortysnmn2010:
     Beginner:
     1:
     0.106305,0.163296,0.033073,0.107486,0.000000,90.000000,86.000000,4.000000,13.000000,0.000000,0.000000,0.106305,0.163296,0.033073,0.107486,0.000000,90.000000,86.000000,4.000000,13.000000,0.000000,0.000000:
0000
0000
0000
0000
,
0000
0000
0000
0000
,
0000
0000
0000
0000
,
0000
0000
0000
0000
,
0010
0000
0000
0000
,
0100
0000
0000
0000
,
0010
0000
0000
0000
,
0100
0000
0000
0000
,
1000
0000
0000
0000
,
0001
0000
0000
0000
,
1000
0000
0000
0000
,
0001
0000
0000
0000
,
0020
0000
0000
0000
,
0000
0000
0030
0000
,
0200
0000
0000
0000
,
0000
0000
0300
0000
,
1000
0000
0000
0000
,
0010
0000
0000
0000
,
0100
0000
0000
0000
,
0001
0000
0000
0000
,
0010
0000
0000
0000
,
0001
0000
0000
0000
,
0100
0000
0000
0000
,
0010
0000
0000
0000
,
1000
0000
0000
0001
,
0001
0000
0000
1000
,
1000
0000
0000
0001
,
0001
0000
0000
1000
,
2000
0000
3000
0000
,
0200
0000
0300
0000
,
0020
0000
0030
0000
,
0002
0000
0003
0000
,
2000
0000
3000
0000
,
0002
0000
0003
0000
,
0200
0000
0300
0000
,
0020
0000
0030
0000
,
1001
0000
0000
0000
,
1000
0000
0200
0000
,
0000
0000
0300
0000
,
0010
0000
0000
0000
,
0000
0001
0002
0000
,
0000
0000
0003
0000
,
0100
0000
0000
0000
,
0010
0000
0000
0000
,
1000
0000
0000
0000
,
0001
0000
0000
0000
,
0010
0000
0000
0000
,
0100
0000
0000
0000
,
1000
0000
0000
0000
,
0010
0000
0000
0010
,
0010
0000
0000
0000
,
1000
0000
0000
0000
,
0100
0000
0000
0000
,
0010
0000
0000
0000
,
0001
0000
0000
0000
,
0100
0000
0000
0000
,
0010
0000
0000
0000
,
0100
0000
0000
0000
,
0010
0000
0000
1000
,
1000
0000
0000
0100
,
0100
0000
0000
0010
,
0010
0000
0000
0001
,
0001
0000
0000
1000
,
1000
0000
0000
0010
,
0010
0000
0000
0100
,
0100
0000
0000
0010
,
0010
0000
0000
0000
,
1000
0000
0000
0000
,
0001
0000
0000
0000
,
0110
0000
0000
0000
,
0100
0000
0000
0000
,
1000
0000
0000
0000
,
1001
0000
0000
0000
,
0001
0000
0000
0000
,
0100
0000
0000
0000
,
0110
0000
0000
0000
,
0100
0000
0000
0000
,
0001
0000
0000
0000
,
2000
0000
0000
0000
,
3000
0000
0000
0000
;

//---------------dance-single - Blank----------------
#NOTES:
     dance-single:
     Shortysnmn2010:
     Easy:
     3:
     0.165363,0.195955,0.115754,0.157095,0.000000,140.000000,126.000000,14.000000,19.000000,0.000000,0.000000,0.165363,0.195955,0.115754,0.157095,0.000000,140.000000,126.000000,14.000000,19.000000,0.000000,0.000000:
0000
0000
0000
0000
,
0000
0000
0000
0000
,
0000
0000
0000
0000
,
0000
0000
0000
0000
,
1000
0000
0010
0000
,
1000
0000
0100
0000
,
1000
0000
0001
0000
,
0010
0000
0000
0000
,
0100
0000
0010
0000
,
0001
0000
1000
0000
,
0001
0000
0100
0000
,
0010
0000
0000
0000
,
2000
0000
0000
0000
,
0000
3000
0010
0100
,
0002
0000
0000
0000
,
0000
0003
0010
0100
,
1000
0000
0001
0000
,
0010
0000
0001
0000
,
0100
0000
0010
0000
,
0110
0000
0000
0000
,
0010
0000
1000
0000
,
0001
0000
0100
0000
,
0001
0000
1000
0000
,
1100
0000
0000
0000
,
0010
0000
0000
0001
,
0001
0000
0000
1000
,
1000
0000
0000
0010
,
0010
0000
0000
0100
,
0200
0000
0000
0300
,
0002
0000
0000
0003
,
2000
0000
0000
3000
,
0020
0000
0000
0030
,
2000
0000
0000
3000
,
0200
0000
0000
0300
,
0020
0000
0000
0030
,
0002
0000
0000
0003
,
1001
0000
0000
0000
,
0110
0000
1010
0000
,
0000
0000
0000
0000
,
1001
0000
0000
0000
,
0000
0011
1100
0000
,
0000
0000
0000
0000
,
1000
0000
1000
0000
,
1000
0000
1000
0000
,
0010
0000
0100
0000
,
0001
0000
0001
0000
,
0010
0000
0010
0000
,
0010
0000
0010
0000
,
0001
0000
0100
0000
,
0010
0000
0000
0000
,
1001
0000
0000
0000
,
0110
0000
0000
0000
,
1010
0000
0000
0000
,
0101
0000
0000
0000
,
1001
0000
1000
0000
,
0001
0000
0000
0000
,
0110
0000
0100
0000
,
0010
0000
0000
0000
,
2000
0000
3000
0001
,
0020
0000
0030
0001
,
2000
0000
3000
0001
,
0200
0000
0300
0010
,
0200
0000
0300
0001
,
2000
0000
3000
0100
,
0020
0000
0030
0001
,
0020
0000
0030
0100
,
1000
1000
1000
0000
,
0001
0000
0010
0000
,
0001
0000
0100
0000
,
0010
0010
0010
0000
,
1000
0000
0001
0000
,
1000
0000
0100
0000
,
0010
0010
0010
0000
,
0001
0000
1000
0000
,
0001
0000
0100
0000
,
0010
0010
0010
0000
,
1000
0000
0001
0000
,
0010
0000
0100
0000
,
2000
0000
0000
0000
,
3000
0000
0000
0000
;

//---------------dance-single - ----------------
#NOTES:
     dance-single:
     Shortysnmn2010:
     Medium:
     6:
     0.349625,0.386950,0.206704,0.099218,0.000000,296.000000,271.000000,25.000000,12.000000,15.000000,0.000000,0.349625,0.386950,0.206704,0.099218,0.000000,296.000000,271.000000,25.000000,12.000000,15.000000,0.000000:
0000
0000
0000
0000
,
0000
0000
0000
0000
,
0000
0000
0000
0000
,
0000
0000
0000
0000
,
1000
2000
0000
3000
,
0010
0020
0000
0030
,
1000
2000
0000
3000
,
1001
0000
0000
1001
0000
0000
0000
0000
,
0010
0020
0000
0030
,
0001
0002
0000
0003
,
0100
0200
0000
0300
,
0110
0000
0000
0110
0000
0000
0000
0000
,
10M0
0100
0001
0100
,
100M
0010
0001
0010
,
1M00
0001
0100
1000
,
01M0
0001
0010
1000
,
0M10
0002
0000
0003
,
0100
0020
0000
0030
,
1000
0002
0000
0003
,
1100
0000
0000
1100
0000
0000
0000
0000
,
0001
0200
0000
0300
,
1000
0200
0000
0300
,
0001
2000
0000
3000
,
0101
0000
0000
0101
0000
0000
0000
0000
,
1000
0000
0000
0001
0000
0010
0001
0000
,
0100
0000
0000
0010
0000
0100
0010
0000
,
1000
0000
0000
0100
0000
1000
0100
0000
,
0010
0000
0000
0001
0000
1000
0001
0000
,
1100
1000
0010
0100
,
0101
0001
0010
0001
,
0101
0100
0010
0100
,
1010
0100
0010
0100
,
1001
0001
0010
0100
,
1001
1000
0010
0100
,
0101
0010
1000
0100
,
0011
0100
1000
0010
,
0100
0001
0000
0100
0000
1000
0000
0100
,
0000
0010
1000
0000
0100
0010
0000
0001
,
0000
0100
0000
0001
0000
1000
0100
0000
,
0010
0001
0000
1000
0000
0010
0000
0001
,
0000
0010
1000
0000
0001
0010
0000
0100
,
0000
0010
0000
0001
0000
0010
0100
0000
,
100M
0100
1000
0000
0100
0000
0010
0000
,
010M
1000
0100
0000
0010
0000
0100
0000
,
10M0
0001
0100
0000
0001
0000
1000
0000
,
00M1
0100
0001
0000
1000
0000
0001
0000
,
M010
0100
0010
0000
0001
0000
0100
0000
,
M010
0100
0010
0000
0100
0000
0001
0000
,
0M10
1000
0010
0000
0001
0000
1000
0000
,
0M10
0000
0000
0001
0000
0000
0010
0000
,
1MM1
0000
0000
0100
,
1010
0000
0000
0001
,
0110
0000
0000
1000
,
0101
0000
0000
0010
,
1001
0000
0000
0000
0000
1000
0100
0000
,
0110
0000
0000
0000
0000
0001
0100
0000
,
0110
0000
0000
0000
0000
1000
0001
0000
,
1001
0000
0000
0000
0000
0010
1000
0000
,
0100
0000
0000
0010
0000
0001
0100
0000
,
0001
0000
0000
0100
0000
1000
0100
0000
,
0010
0000
0000
1000
0000
0010
0100
0000
,
0010
0000
0000
1000
0000
0100
0010
0000
,
0001
0000
0000
1000
0000
0100
0001
0000
,
0100
0000
0000
1000
0000
0100
1000
0000
,
0010
0000
0000
1000
0000
0010
1000
0000
,
0010
0000
0000
0001
0000
0010
0001
0000
,
0010
1000
0000
0010
0000
0100
0000
1000
,
0000
0100
0010
0000
0100
0001
0000
0010
,
0000
0100
0000
0001
0000
0100
0010
0000
,
0100
1000
0000
0010
0000
0100
0000
0010
,
0000
0100
1000
0000
0100
0010
0000
1000
,
0000
0100
0000
0001
0000
0100
0010
0000
,
0001
1000
0000
0010
0000
1000
0000
0001
,
0000
0010
0001
0000
1000
0010
0000
1000
,
0000
0001
0000
0100
0000
0001
0100
0000
,
1000
0100
0000
0010
0000
1000
0000
0100
,
0000
0001
0100
0000
0010
0100
0000
0010
,
0000
0001
0000
0100
0000
0010
0100
0000
,
1001
0000
0000
0000
;

//---------------dance-single - Blank----------------
#NOTES:
     dance-single:
     Shortysnmn2010:
     Hard:
     7:
     0.459473,0.522547,0.372067,0.363799,0.115754,389.000000,344.000000,45.000000,44.000000,2.000000,0.000000,0.459473,0.522547,0.372067,0.363799,0.115754,389.000000,344.000000,45.000000,44.000000,2.000000,0.000000:
// measure 0
0000
0000
0000
0000
,  // measure 1
0000
0000
0000
0000
,  // measure 2
0000
0000
0000
0000
,  // measure 3
0000
0000
0000
0000
,  // measure 4
1000
0000
0100
0000
1000
0000
0000
0010
0000
0000
0000
0000
0000
0000
0000
0000
,  // measure 5
0100
0000
0001
0000
1000
0000
0000
0010
0000
0000
0000
0000
0000
0000
0000
0000
,  // measure 6
1000
0000
0100
0000
0010
0000
0000
0001
0000
0000
0000
0000
0000
0000
0000
0000
,  // measure 7
1000
0000
0000
0202
0000
0000
0303
0000
,  // measure 8
0010
0000
1000
0000
0001
0000
0000
0011
0000
0000
0000
0000
0000
0000
0000
0000
,  // measure 9
0100
0000
1000
0000
0010
0000
0000
0110
0000
0000
0000
0000
0000
0000
0000
0000
,  // measure 10
0100
0000
0001
0000
1000
0000
0000
1010
0000
0000
0000
0000
0000
0000
0000
0000
,  // measure 11
0001
0000
0000
2200
0000
0000
3300
0000
,  // measure 12
0010
0001
0010
0001
1000
0010
0001
0010
,  // measure 13
1000
0001
1000
0001
0100
0010
0100
0000
,  // measure 14
0010
1000
0010
1000
0100
0010
0001
1000
,  // measure 15
0001
1000
0010
0100
0001
1000
0001
0000
,  // measure 16
1000
0000
0100
0000
0020
0000
0000
0002
0000
0000
0033
0000
0000
0000
0000
0000
,  // measure 17
0001
0000
0100
0000
0020
0000
0000
0200
0000
0000
0330
0000
0000
0000
0000
0000
,  // measure 18
1000
0000
0010
0000
0200
0000
0000
0002
0000
0000
0303
0000
0000
0000
0000
0000
,  // measure 19
1001
0000
0000
0110
0000
0000
0000
0000
,  // measure 20
0001
0000
0010
0000
0100
0000
0000
2200
0000
0000
3300
0000
0000
0000
0000
0000
,  // measure 21
1000
0000
0010
0000
1000
0000
0000
0202
0000
0000
0303
0000
0000
0000
0000
0000
,  // measure 22
0010
0000
0100
0000
0010
0000
0000
2002
0000
0000
3003
0000
0000
0000
0000
0000
,  // measure 23
1100
0000
0000
0022
0000
0033
0000
0000
,  // measure 24
0001
0000
0000
0100
0000
0000
1001
0000
0000
0000
1000
0000
0010
0000
1000
0000
,  // measure 25
0100
0000
0000
0010
0000
0000
1100
0000
0000
0000
0010
0000
0001
0000
0010
0000
,  // measure 26
0100
0000
0000
1000
0000
0000
0110
0000
0000
0000
0010
0000
0001
0000
1000
0000
,  // measure 27
0010
0000
0000
0100
0000
0000
1010
0000
0000
0000
1000
0000
0100
0000
0010
0000
,  // measure 28
0002
0000
0000
0103
,  // measure 29
2001
0000
0000
3010
,  // measure 30
0210
0000
0000
0301
,  // measure 31
1020
0000
0000
0130
,  // measure 32
1020
1000
0001
0130
,  // measure 33
2001
0001
0100
3010
,  // measure 34
0102
0100
0010
1003
,  // measure 35
2002
0000
3003
M00M
,  // measure 36
0010
0100
0000
1100
0000
0011
0000
1100
,  // measure 37
0000
0011
0011
0000
0100
1000
0000
0010
,  // measure 38
0000
0100
0000
0102
0000
1000
1003
0000
,  // measure 39
0001
0010
0000
0110
0000
1001
0000
0110
,  // measure 40
0000
1001
1001
0000
0100
0010
0000
1000
,  // measure 41
0000
0001
0000
0012
0000
1000
1003
0000
,  // measure 42
0001
0100
0001
0000
1000
0010
0100
0000
,  // measure 43
0001
1000
0001
0000
0010
0100
1000
0000
,  // measure 44
0010
0100
0010
0000
1000
0100
0001
0000
,  // measure 45
0100
1000
0100
0000
0010
0100
1000
0000
,  // measure 46
0001
0100
0001
0100
0010
1000
0001
0000
,  // measure 47
1000
0100
1000
0100
0001
0100
1000
0000
,  // measure 48
0001
0100
0010
1000
0010
0100
0001
0000
,  // measure 49
2000
0000
0000
0100
0000
0000
3100
0000
,  // measure 50
2200
0000
3300
0000
0000
0010
0001
0200
,  // measure 51
0020
0000
0330
0000
0000
0001
1000
0002
,  // measure 52
0200
0000
0303
0000
0000
0010
1000
0200
,  // measure 53
2000
0000
3300
0000
0000
0100
0010
0001
,  // measure 54
0100
0000
0000
0010
0000
0000
1001
0000
0000
0000
0000
0000
0100
0000
0000
0000
,  // measure 55
0010
0000
0000
1000
0000
0000
0101
0000
0000
0000
0000
0000
0010
0000
0000
0000
,  // measure 56
1000
0000
0000
0100
0000
0000
0011
0000
0000
0000
0000
0000
0100
0000
0000
0000
,  // measure 57
1000
0000
0000
0001
0000
0000
0110
0000
0000
0000
0000
0000
0001
0000
0000
0000
,  // measure 58
0010
0000
0000
1000
0000
0000
0010
0000
0000
0000
0100
0000
0010
0000
0100
0000
,  // measure 59
0010
0000
0000
1000
0000
0000
0001
0000
0000
0000
1000
0000
0100
0000
1000
0000
,  // measure 60
0100
0000
0000
0010
0000
0000
0001
0000
0000
0000
0100
0000
0001
0000
1000
0000
,  // measure 61
0001
0000
0000
0010
0000
0000
0100
0000
0000
0000
1000
0000
0100
0000
0010
0000
,  // measure 62
0001
0000
0000
1000
0000
0000
0001
0000
0000
0000
1000
0000
0010
0000
0100
0000
,  // measure 63
0001
0000
0000
0010
0000
0000
0001
0000
0000
0000
0100
0000
0010
0000
1000
0000
,  // measure 64
0001
0000
0000
0010
0000
0000
1000
0000
0000
0000
0010
0000
0100
0000
0010
0000
,  // measure 65
0001
0000
0000
0100
0000
0000
0010
0000
0000
0000
1000
0000
0100
0000
0010
0000
,  // measure 66
0001
2000
0000
0010
0000
3100
0000
1001
,  // measure 67
0000
0001
0100
0000
0100
0002
0000
0010
,  // measure 68
0000
0103
0000
1001
0000
0001
0100
0000
,  // measure 69
0100
0020
0000
0001
0000
0130
0000
1010
,  // measure 70
0000
0100
0001
0000
0001
2000
0000
0100
,  // measure 71
0000
3001
0000
0011
0000
1000
0100
0000
,  // measure 72
0001
0010
0000
0001
0000
0100
0000
0010
,  // measure 73
0000
1000
1000
0000
0001
0001
0000
0010
,  // measure 74
0000
0100
0000
1000
0000
0010
0010
0000
,  // measure 75
0100
0001
0000
1000
0000
0100
0000
0001
,  // measure 76
0000
0100
1000
0000
0100
1000
0000
0010
,  // measure 77
0000
0100
0000
0010
0000
1000
0100
0000
,  // measure 78
0220
0000
0000
0000
,  // measure 79
0330
0000
0000
0000
;

//---------------dance-single - ----------------
#NOTES:
     dance-single:
     Shortysnmn2010:
     Challenge:
     9:
     0.646097,0.653184,0.496089,0.322458,0.239776,547.000000,487.000000,60.000000,39.000000,0.000000,0.000000,0.646097,0.653184,0.496089,0.322458,0.239776,547.000000,487.000000,60.000000,39.000000,0.000000,0.000000:
0000
0000
0000
0000
,
0000
0000
0000
0000
,
0000
0000
0000
0000
,
0000
0000
0000
0000
,
1000
0000
0001
0000
0010
0001
0000
0010
0001
0000
1000
0000
0010
0000
1000
0000
,
0001
0000
0100
0000
0001
1000
0000
0001
1000
0000
0100
0000
1000
0000
0001
0000
,
0100
0000
0010
0000
1000
0010
0000
1000
0010
0000
0100
0000
0001
0000
0010
0000
,
0100
0000
0000
2002
0000
3003
0000
0000
,
1000
0000
0100
0000
0010
0001
0000
0010
0100
0000
1000
0000
0001
0000
0100
0000
,
1000
0000
0100
0000
0010
1000
0000
0010
0100
0000
0001
0000
0010
0000
0100
0000
,
0010
0000
0001
0000
1000
0100
0000
1000
0001
0000
0100
0000
0010
0000
1000
0000
,
0001
0000
0000
0220
0000
0330
0000
0000
,
1000
0001
0010
0100
0001
1000
0010
0100
,
1000
0001
0100
0010
0001
1000
0100
0010
,
1000
0001
0010
0100
0001
1000
0010
0100
,
1000
0001
0100
0010
0001
1000
0100
0010
,
1000
0000
0100
0000
0010
0001
0000
1000
0010
0000
0100
0000
0001
0000
1000
0000
,
0001
0000
0010
0000
0001
1000
0000
0100
0010
0000
0001
0000
0100
0000
0010
0000
,
0100
0000
0001
0000
0010
0100
0000
1000
0010
0000
0100
0000
0001
0000
0010
0000
,
0001
0000
0000
2200
0000
3300
0000
0000
,
0010
0000
0001
0000
0100
0010
0000
0010
0100
0000
0001
0000
0010
0000
0100
0000
,
0010
0000
0001
0000
1000
0010
0000
0010
1000
0000
0100
0000
0010
0000
0100
0000
,
1000
0000
0001
0000
0100
0001
0000
0001
0100
0000
0010
0000
1000
0000
0001
0000
,
0010
0000
0000
2200
0000
3300
0000
0000
,
0011
0000
0000
1100
0000
0000
1001
0000
0000
0000
0100
0000
0001
0000
1000
0000
,
0100
0000
0000
0011
0000
0000
1100
0000
0000
0000
1000
0000
0010
0000
0001
0000
,
0010
0000
0000
1001
0000
0000
0101
0000
0000
0000
0010
0000
0100
0000
0001
0000
,
0010
0000
0000
1100
0000
0000
0101
0000
0000
0000
0010
0000
1000
0000
0001
0000
,
0100
0000
0100
0000
0001
1000
0000
0110
0000
0000
1000
0000
0100
0000
0010
0000
,
0001
0000
0001
0000
1000
0010
0000
0101
0000
0000
0010
0000
1000
0000
0100
0000
,
0010
0000
0010
0000
0100
1000
0000
0011
0000
0000
1000
0000
0010
0000
0001
0000
,
0010
0000
0010
0000
1000
0001
0000
0110
0000
0000
0001
0000
0100
0000
0010
0000
,
1000
0000
1000
0000
0100
1000
0000
1010
0000
0000
0100
0000
0001
0000
0100
0000
,
0001
0000
0001
0000
0010
0001
0000
0101
0000
0000
0010
0000
1000
0000
0010
0000
,
0100
0000
0100
0000
0001
0010
0000
0011
0000
0000
0100
0000
1000
0000
0100
0000
,
0020
0000
0030
0000
,
0002
1000
0000
0010
0000
0103
0000
2010
,
0000
0100
3100
0000
0002
0100
0000
1000
,
0000
0013
0000
1200
0000
0310
1001
0000
,
2000
0010
0000
0100
0000
3010
0000
0201
,
0000
0010
0310
0000
0002
0010
0000
0100
,
0000
0013
0000
1200
0000
0310
1001
0000
,
1001
0001
1000
0100
1000
0001
0100
0001
,
1001
1000
0010
1000
0001
0010
1000
0010
,
0110
0100
1000
0100
0010
0001
0100
0010
,
0110
0100
0001
1000
0001
0100
0010
1000
,
1100
0100
0001
0100
1000
0010
0100
1000
,
1100
0100
0001
1000
0010
0100
0001
0010
,
0011
0001
1000
0100
0001
0100
0010
0001
,
0011
0000
0000
1100
0000
0000
1001
0000
,
0110
0000
0000
1000
0000
0000
0001
0000
0000
0000
0100
0000
0010
0000
1000
0000
,
0100
0000
0000
1000
0000
0000
0010
0000
0000
0000
0001
0000
0010
0000
0100
0000
,
0010
0000
0000
1000
0000
0000
0001
0000
0000
0000
0100
0000
0010
0000
0100
0000
,
0001
0000
0000
0010
0000
0000
0001
0000
0000
0000
1000
0000
0100
0000
0010
0000
,
0002
0000
0000
0100
0000
0000
1003
0000
0000
0000
0001
0000
0010
0000
0100
0000
,
2000
0000
0000
0100
0000
0000
3001
0000
0000
0000
1000
0000
0010
0000
0100
0000
,
0020
0000
0000
0001
0000
0000
0130
0000
0000
0000
0010
0000
1000
0000
0100
0000
,
0002
0000
0000
0100
0000
0000
1003
0000
0000
0000
0001
0000
0100
0000
1000
0000
,
0100
0000
0000
1100
0000
0000
1002
0000
0000
0000
0100
0000
0103
0000
0010
0000
,
1000
0000
0000
1010
0000
0000
2001
0000
0000
0000
0100
0000
3100
0000
0010
0000
,
0001
0000
0000
0101
0000
0000
1002
0000
0000
0000
0100
0000
0103
0000
0010
0000
,
1000
0000
0000
1100
0000
0000
2010
0000
0000
0000
0100
0000
3100
0000
0010
0000
,
0001
0000
0000
1100
0000
0000
1002
0000
0000
0000
0010
0000
1003
0000
0100
0000
,
0010
0000
0000
0011
0000
0000
2100
0000
0000
0000
0010
0000
3001
0000
0100
0000
,
0010
0000
0000
0110
0000
0000
1002
0000
0000
0000
0100
0000
1003
0000
0010
0000
,
0100
0000
0000
1010
0000
0000
0201
0000
0000
0000
0010
0000
0301
0000
1000
0000
,
0020
0001
0000
1000
0000
0031
0000
0210
,
0000
0001
0301
0000
2000
0100
0000
0010
,
0000
3100
0000
0021
0000
0130
1001
0000
,
0002
0010
0000
0100
0000
0013
0000
2100
,
0000
0010
3010
0000
0200
0001
0000
1000
,
0000
0310
0000
0102
0000
1003
0110
0000
,
1000
1000
0100
0010
0001
0010
1000
0010
,
0001
0100
0100
0010
1000
1000
0100
0010
,
0001
0010
0100
0010
0001
0100
0100
0000
,
0001
0001
0010
0100
1000
0100
0010
0100
,
0001
0100
0100
1000
0010
0010
0100
0001
,
1000
0001
0010
0001
0100
0010
0010
0000
,
2002
0000
0000
0000
,
3003
0000
0000
0000
;
