#TITLE:Zauberkugel;
#SUBTITLE:;
#ARTIST:Xi;
#TITLETRANSLIT:;
#SUBTITLETRANSLIT:;
#ARTISTTRANSLIT:;
#GENRE:;
#CREDIT:;
#BANNER:Zauberkugel banner.jpg;
#BACKGROUND:;
#LYRICSPATH:;
#CDTITLE:;
#MUSIC:Zauberkugel - Xi.mp3;
#OFFSET:-0.708000;
#SAMPLESTART:22.618999;
#SAMPLELENGTH:12.488000;
#SELECTABLE:YES;
#BPMS:0.000000=153.498001
;
#STOPS:
;
#BGCHANGES:;
#KEYSOUNDS:;
#ATTACKS:;

//---------------dance-single - ----------------
#NOTES:
     dance-single:
     Shortysnmn2010:
     Beginner:
     1:
     0.108916,0.155994,0.008025,0.016051,0.000000,95.000000,94.000000,1.000000,2.000000,0.000000,0.000000,0.108916,0.155994,0.008025,0.016051,0.000000,95.000000,94.000000,1.000000,2.000000,0.000000,0.000000:
0000
0000
0000
0000
,
0000
0000
0000
0000
,
0000
0000
0000
0000
,
0001
0000
1000
1000
,
0000
0000
0000
0000
,
0010
0000
0000
0000
,
0100
0000
0000
0000
,
0001
0000
0000
0000
,
0010
0000
0000
0000
,
0001
0000
0000
0000
,
0100
0000
0000
0000
,
1000
0000
0000
0000
,
0100
0000
0000
0010
,
0010
0000
0000
0000
,
1000
0000
0001
0000
,
1000
0000
0000
0000
,
0100
0000
0000
0000
,
0010
0000
0000
0000
,
0001
0000
0100
0000
,
0001
0000
0000
0000
,
1000
0000
0000
0000
,
0010
0000
0000
1000
,
1000
0000
0100
0000
,
1000
0000
0000
0000
,
0001
0000
0000
0000
,
0010
0000
0000
0000
,
0100
0000
0000
0001
,
0000
0000
0100
0000
,
0000
0010
0000
0000
,
0100
0000
0000
0010
,
0000
0000
1000
0000
,
0000
0100
0000
0000
,
0010
0000
0000
0001
,
0000
0000
1000
0000
,
0100
0000
0010
0010
,
0000
0000
0100
0000
,
0000
2000
0000
0000
,
0000
0000
3000
0010
,
1001
0000
0000
0000
,
0001
0000
0000
0000
,
0010
0000
0000
0000
,
0100
0000
0000
0000
,
0010
0000
0000
0000
,
0001
0000
0000
0000
,
0100
0000
0000
0000
,
1000
0000
0000
0000
,
0100
0000
0100
0000
,
0001
0000
0000
0000
,
1000
0000
1000
0000
,
0010
0000
0000
0000
,
1000
0000
0001
0000
,
1000
0000
0000
0000
,
0001
0000
1000
0000
,
0001
0000
0000
0000
,
0010
0000
0000
0000
,
0010
0000
0000
0000
,
1000
0000
0100
0000
,
1000
0000
0000
0000
,
0001
0000
0000
0000
,
0100
0000
0000
0000
,
0010
0000
0100
0000
,
0010
0000
0000
0000
,
1000
0000
0000
0000
,
0100
0000
0000
0000
,
0001
0000
0100
0000
,
0001
0000
0000
0000
,
0100
0000
0000
0000
,
1000
0000
0000
0000
,
0010
0000
0000
0000
,
0100
0000
1000
0000
,
0100
0000
0000
0000
,
0001
0000
0000
0000
,
1000
0000
0010
0000
,
0001
0000
0000
0000
,
1000
0000
0000
0000
,
0100
0000
0000
0000
,
0002
0000
0000
0000
,
0000
0000
0000
0003
;

//---------------dance-single - ----------------
#NOTES:
     dance-single:
     Shortysnmn2010:
     Easy:
     3:
     0.174266,0.218392,0.008025,0.184585,0.000000,152.000000,151.000000,1.000000,23.000000,0.000000,0.000000,0.174266,0.218392,0.008025,0.184585,0.000000,152.000000,151.000000,1.000000,23.000000,0.000000,0.000000:
0000
0000
0000
0000
,
0000
0000
0000
0000
,
0000
0000
0000
0000
,
1000
0000
0100
0100
,
0000
0010
0010
0000
,
0002
0000
0003
0000
,
1000
0000
0010
0000
,
1000
0000
0100
0000
,
1000
0000
0001
0000
,
1000
0000
0001
0000
,
0010
0020
0000
0030
,
0001
0000
0000
0000
,
1000
0000
0000
0001
,
0001
0000
0010
0000
,
0001
1000
0001
0000
,
1000
0000
0100
0000
,
0010
0000
0001
0000
,
1000
0000
0000
0000
,
0001
0010
0100
0000
,
1000
2000
0000
3000
,
0001
0000
1000
0000
,
0001
0000
0000
0000
,
0010
0001
0100
0000
,
0010
0000
1000
0000
,
0001
0000
1000
0000
,
0100
0000
0000
0000
,
0020
0000
0030
0002
,
0000
0003
1000
0000
,
0010
0100
0001
1000
,
0200
0000
0300
0020
,
0000
0030
0001
0000
,
0100
0010
0100
0010
,
2000
0000
3000
0002
,
0000
0003
0010
0000
,
0100
1000
0010
0002
,
0000
0003
2000
0000
,
3000
0000
0100
0000
0000
0001
0000
0000
,
0010
0000
0000
0100
0000
0000
1000
0000
,
2000
0000
0000
3000
,
0000
0001
0000
0010
0000
0100
0000
1000
,
0000
0000
0000
0000
0000
0020
0000
0030
,
0000
1000
0000
0001
0000
1000
0000
0100
,
0000
0000
0000
0010
0000
0001
0000
0001
,
0000
0000
0000
1000
,
0002
0003
2000
3000
,
0002
0003
2000
3000
,
0001
0000
0010
0000
,
0001
0000
0010
0000
,
0100
0000
1000
0000
,
0100
0000
1000
0000
,
0010
0000
1000
0000
,
0010
0000
1000
0000
,
0001
0000
0100
0000
,
0001
0000
0000
0100
,
0200
0000
0300
0000
,
2002
0000
3003
0000
,
0100
0001
0100
0000
,
0010
0000
1000
0000
,
0100
0000
0010
0000
,
0001
0000
0000
0000
,
1000
0000
0010
0000
,
1000
2000
0000
3000
,
0010
0000
0001
0000
,
1000
0000
0000
0010
,
0010
0100
0001
0000
,
0010
0000
0001
0000
,
1000
0000
0100
0000
,
0010
0000
0001
0000
,
1000
0000
0001
0000
,
0001
0002
0000
0003
,
0100
0000
0010
0000
,
1000
0000
0000
0001
,
0001
0010
0100
0000
,
1000
0000
0010
0000
,
0001
0000
0010
0000
,
1000
0000
0000
0000
0010
0000
0000
0020
,
0000
0000
0000
0000
,
0000
0000
0000
0030
;

//---------------dance-single - ----------------
#NOTES:
     dance-single:
     Shortysnmn2010:
     Medium:
     6:
     0.345093,0.406237,0.096305,0.200636,0.184585,301.000000,289.000000,12.000000,25.000000,16.000000,0.000000,0.345093,0.406237,0.096305,0.200636,0.184585,301.000000,289.000000,12.000000,25.000000,16.000000,0.000000:
0000
0000
0000
0000
,
0000
0000
0000
0000
,
0000
0000
0000
0000
,
2000
3000
0110
0110
,
0000
0000
0001
0010
0001
0000
0000
0000
,
1000
0001
0100
0001
,
0010
0100
1000
0010
,
0001
0010
0100
0001
,
0010
1000
0010
0100
,
1000
0010
0100
0001
,
1000
0000
0100
0000
2000
0000
0000
3000
,
0000
0000
0004
0040
0000
0000
0000
0000
0000
0000
0000
0000
0033
0000
0000
0000
,
0100
0000
0000
0100
0000
0000
0100
0000
,
2002
0000
0000
3003
0000
0010
0001
0000
,
0100
0000
0000
0000
0010
0000
0000
0000
1000
0000
0000
0001
0000
0000
0010
0000
,
0000
0100
0000
0000
1000
0000
0000
0010
,
0000
0000
0100
0000
0010
0000
0000
0000
1000
0000
0000
0001
0000
0000
2000
0000
,
0000
0000
0000
0000
0000
0000
0000
0000
0010
0000
0000
0010
0000
0000
3010
0000
,
0000
0100
0001
0000
0020
0000
0000
0000
,
0030
0000
0000
1001
0000
1000
0001
1000
,
0200
0000
0300
0000
0000
0010
0001
0010
,
0001
0000
0000
0000
0000
1000
0010
0100
,
0001
0000
0000
0000
0010
0000
0000
0000
0001
0000
0000
0100
0000
0000
0001
0000
,
0000
0100
0000
0000
0010
0000
0000
1000
,
0000
0000
1000
0000
0100
0000
0000
0000
0010
0000
0000
0010
0000
0000
0010
0000
,
0000
0000
0000
0000
0000
0000
0000
0000
0001
0000
0000
0001
0000
0000
0001
0000
,
1000
0000
0000
2000
0000
0000
0000
0000
3000
0000
0000
0000
0010
0000
0000
0020
,
0000
0000
0000
0000
0030
0000
0000
0000
0001
0000
0000
0001
0000
0000
0001
0000
,
0010
1000
0001
0010
,
0100
0000
0000
0200
0000
0000
0000
0000
0300
0000
0000
0000
1000
0000
0000
2000
,
0000
0000
0000
0000
3000
0000
0000
0000
0010
0000
0000
0010
0000
0000
0010
0000
,
0100
0001
0010
0100
,
1000
0000
0000
0020
0000
0000
0000
0000
0030
0000
0000
0000
0100
0000
0000
0002
,
0000
0000
0000
0000
0003
0000
0000
0000
0010
0000
0000
0100
0000
0000
0010
0000
,
0001
0000
0000
0000
0100
0000
0000
0000
1000
0000
0000
0000
0100
0000
0000
0002
,
0000
0000
0000
0000
0003
0000
0000
0000
0010
0000
0000
0200
0000
0000
0000
0000
,
0300
0000
0000
0000
1000
0000
000M
1000
0000
000M
1000
0000
000M
1000
0000
0MM0
,
0001
0000
M000
0001
0000
M000
0001
0000
M000
0001
0000
M000
0010
0000
0100
0000
,
2000
0000
00MM
3000
0000
0010
0100
0010
,
0000
1000
0000
0100
0000
0011
0000
2200
,
0000
0000
0000
3300
0000
0010
0001
0010
,
0000
0100
0000
1000
0000
0101
0000
0010
,
1000
0000
0000
0100
0000
0000
1000
0000
0000
0000
0000
0000
0001
0000
0010
0000
,
0001
0000
0000
0000
0101
0000
0010
1000
,
0400
0040
0000
0000
0000
0000
0000
0000
0000
0000
0330
0000
0000
0000
0000
0000
,
0004
4000
0000
0000
0000
0000
0000
0000
0000
0000
3003
0000
0000
0000
0000
0000
,
0001
0100
0001
0000
0010
0001
0010
0000
,
0100
0010
0100
0000
1000
0100
1000
0000
,
0010
1000
0010
0000
0100
0010
0100
0000
,
0001
0100
0001
0000
0010
0001
0010
0000
,
0100
0000
0000
0100
0000
0000
0000
0000
1000
0000
0000
0001
0000
0000
1000
0000
,
0000
0000
0000
0000
0010
0000
0000
0000
0100
0000
0000
0001
0000
0000
0010
0000
,
0000
0000
0000
0000
0100
0000
0000
0000
1000
0000
0000
0010
0000
0000
0100
0000
,
0010
0000
0000
0010
0000
0000
0010
0000
,
2000
0000
3000
0000
,
0002
0000
0003
0000
,
1000
0000
0100
0000
1000
0000
0001
0000
1000
0000
0000
0100
0000
0000
0010
0000
,
0000
0001
0000
0000
0100
0000
0000
0010
,
0000
0000
1000
0000
0010
0000
1000
0000
0010
0000
0000
1000
0000
0000
0010
0000
,
0000
0000
0000
0000
0100
0000
0000
0000
0001
0000
0000
0001
0000
0000
0001
0000
,
0000
0010
0001
0000
1000
0020
0000
0030
,
0000
0000
0000
1001
0000
1000
0100
0010
,
0002
0010
1000
0013
,
0110
0000
0000
0000
0000
0000
0000
0000
0000
0000
1000
0000
0010
0000
0000
0100
,
0000
0000
0001
0000
1000
0000
0001
0000
1000
0000
0000
0001
0000
0000
0010
0000
,
0000
0100
0000
0000
0010
0000
0000
0001
,
0000
0000
1000
0000
0001
0000
1000
0000
0001
0000
0000
1000
0000
0000
0100
0000
,
0000
0000
0000
0000
0010
0000
0000
0000
0100
0000
0000
0100
0000
0000
0100
0000
,
0000
1000
0001
0000
0010
0002
0000
0003
,
0000
0000
0000
0110
0000
0001
0100
0010
,
2000
0100
0001
3100
,
0110
0000
0000
0000
0000
0001
0010
0100
,
1000
0000
0000
0000
0001
0000
0000
0000
0010
0000
0000
0001
0000
0000
1000
0000
,
0000
0100
0000
0000
1000
0000
0000
0010
,
0000
0000
0100
0000
0010
0000
0100
0000
0010
0000
0000
1000
0000
0000
0010
0000
,
0000
0000
0000
0000
0100
0000
0000
0000
0001
0000
0000
1000
0000
0000
0002
0000
,
0000
0000
0000
0000
,
0000
0000
0000
0000
0000
0000
0000
0000
0000
0M00
0003
M000
0000
0M00
00MM
0000
;

//---------------dance-single - ----------------
#NOTES:
     dance-single:
     Shortysnmn2010:
     Hard:
     9:
     0.552608,0.656229,0.401271,0.168534,0.405284,482.000000,432.000000,50.000000,21.000000,0.000000,0.000000,0.552608,0.656229,0.401271,0.168534,0.405284,482.000000,432.000000,50.000000,21.000000,0.000000,0.000000:
// measure 0
0000
0000
0000
0000
,  // measure 1
0000
0000
0000
0000
,  // measure 2
0000
0000
0000
0000
,  // measure 3
2002
3003
0100
0100
,  // measure 4
0000
0000
0000
0000
1000
0000
0001
0100
0001
0000
0000
0000
0000
0000
0000
0000
,  // measure 5
1000
0000
0100
0000
1000
0000
0100
0000
0040
0400
0000
0000
0000
0000
0000
0330
,  // measure 6
1000
0000
1010
0000
1100
0000
1000
0001
,  // measure 7
0100
0000
0101
0000
1100
0000
0010
0001
,  // measure 8
0100
0000
1010
0000
0101
0000
1000
0100
,  // measure 9
0001
0000
0101
0000
1100
0000
0010
0100
,  // measure 10
0001
0000
0010
0001
0100
0000
0000
0000
,  // measure 11
0000
0001
1000
0010
0001
0010
0100
0010
,  // measure 12
1000
0100
0000
0000
0000
0000
0010
0001
0000
0000
0000
0000
0100
0000
0001
0000
,  // measure 13
1000
0000
1000
0000
0100
0000
0010
0000
0100
0000
1000
0000
0010
0000
0000
0100
,  // measure 14
0010
0000
0100
0000
0001
0000
1000
0000
0100
0000
0000
1000
0000
0000
1100
0000
,  // measure 15
0000
0000
1001
0000
0000
0000
0000
0000
0010
1000
0000
0100
0000
0000
0020
0000
,  // measure 16
0000
0000
0130
0000
1000
0000
0100
0000
0001
0000
0000
0100
0000
0000
2000
0000
,  // measure 17
0000
0000
0000
3000
0000
0000
0000
0000
0101
0000
0000
1010
0000
0000
0101
0000
,  // measure 18
0000
0000
0001
0000
0010
0000
0100
0000
0010
0000
0100
0010
0000
0100
0000
2000
,  // measure 19
0000
0000
0000
0001
0000
0000
3001
0000
0000
0000
0100
0000
1000
0000
0100
0000
,  // measure 20
0010
0000
0010
0000
1000
0100
0010
0001
,  // measure 21
0010
0100
0000
1000
0000
0010
0000
1000
0000
0000
0100
0000
0010
0000
0100
0000
,  // measure 22
1000
0000
0010
0000
0100
0000
0010
0000
0001
0000
0000
0010
0000
0000
2000
0000
,  // measure 23
0000
0000
0000
0000
3000
0000
0000
0000
0100
1000
0000
0001
0000
0000
0100
0000
,  // measure 24
0010
0000
0100
0000
0001
0000
0010
0000
0001
0000
0000
1000
0000
0000
1100
0000
,  // measure 25
0000
0000
0000
0000
0000
0000
0000
0000
0110
0000
0000
1001
0000
0000
0010
0000
,  // measure 26
0100
0000
0000
1100
0000
0000
1000
0000
0010
0000
0100
0000
0001
0000
0000
0101
,  // measure 27
0000
0000
0001
0000
0010
0000
0100
0000
1000
0000
0000
1010
0000
0000
1000
0000
,  // measure 28
0001
0000
0000
0001
0000
0000
0100
0000
0000
0010
0100
0010
0100
0000
0000
0001
0000
0000
0010
0000
0000
0100
0000
0000
,  // measure 29
1000
0000
0000
1100
0000
0000
1000
0000
0001
0000
0100
0000
0001
0000
0000
0011
,  // measure 30
0000
0000
0001
0000
1000
0000
0100
0000
1000
0000
0000
1010
0000
0000
0100
0000
,  // measure 31
0001
0000
0000
0001
0000
0000
0010
0000
0000
0100
1000
0100
1000
0000
0000
0001
0000
0000
0100
0000
0000
0001
0000
0000
,  // measure 32
1000
0000
0000
1001
0000
0000
0001
0000
0010
0000
0001
0000
1000
0000
0000
1001
,  // measure 33
0000
0000
1000
0000
0100
0000
1000
0000
0001
0000
0000
1001
0000
0000
0100
0000
,  // measure 34
0010
0000
0000
0000
0000
0000
0100
0000
0000
0000
0000
0000
0001
0000
0000
0000
0000
0000
0010
0000
0000
0000
0000
0000
0100
0000
0000
0000
1000
0000
0000
0000
0100
0000
0000
0000
1000
0000
0000
0000
0000
0000
0000
0000
0000
1010
0000
0000
,  // measure 35
0000
0000
1000
0000
0100
0000
0001
0000
0100
0000
0000
1100
0000
0000
1000
0000
,  // measure 36
0010
0000
0100
0000
0001
0000
1000
0100
0000
0100
1000
0000
0001
0010
0000
0010
,  // measure 37
0001
0000
1000
0010
0000
0010
1000
0000
0001
0100
0000
0100
0001
0000
0010
0000
,  // measure 38
0100
0000
0000
2000
0000
0000
0001
0000
0000
0000
3100
0000
0010
0000
0002
0000
,  // measure 39
0000
0203
0000
2300
0000
3020
0000
0031
,  // measure 40
0100
0000
0000
0010
0000
0000
0100
0000
0000
0000
0010
0000
2000
0000
0100
0000
,  // measure 41
0000
0001
0000
0010
0000
3001
0000
1000
,  // measure 42
0001
0000
0000
0010
0000
0000
1001
0000
0000
0000
0100
0000
0010
0000
0001
0000
,  // measure 43
0000
0000
1100
0000
0000
0001
0100
0000
0000
0000
0000
0000
0001
0000
0010
0000
,  // measure 44
0000
0000
0000
0110
0000
1000
0001
1000
,  // measure 45
0040
0400
0000
0000
0000
0000
0000
0000
0000
0000
0000
0000
0330
0000
0000
0000
,  // measure 46
1001
0000
1000
0100
0000
0010
0001
0100
,  // measure 47
0000
0000
0000
0010
0000
0000
0100
0000
0000
0000
0000
0001
0000
0000
0001
0000
,  // measure 48
0000
0000
1000
0100
0010
0000
0000
0100
0000
0000
1000
0000
0001
0000
0010
0000
,  // measure 49
1000
0000
0010
0000
0001
1000
0000
0010
0000
2000
0000
0000
0000
3010
0000
0000
,  // measure 50
0100
0000
0000
0001
0000
0000
0010
0000
0100
0000
0000
1000
0000
0000
0010
0000
,  // measure 51
0000
0000
0000
0000
0000
0000
0000
0000
0101
0000
0000
0010
0000
0000
1001
0000
,  // measure 52
0000
0000
0000
0000
0000
0000
0000
0000
0011
0000
0000
0100
0000
0000
1000
0000
,  // measure 53
0001
0100
0000
0000
0000
0000
0100
0001
0000
0000
0000
0000
0001
0010
0000
0000
,  // measure 54
0000
0000
2000
0000
0000
3000
0000
0000
0200
0000
0000
0300
0000
0002
0000
0000
,  // measure 55
0200
0000
0303
0000
,  // measure 56
1000
0000
0001
0000
0100
0000
0010
0000
1000
0000
0000
0100
0000
0000
1100
0000
,  // measure 57
0000
0000
0110
0000
0000
0000
0000
0000
0010
0100
0000
1000
0000
0000
0010
0000
,  // measure 58
0000
0000
0100
0000
1000
0000
0100
0000
0001
0000
0000
0011
0000
0000
0110
0000
,  // measure 59
0000
0000
1000
0000
0001
0000
0100
0000
0010
0000
0000
0100
0000
0000
1001
0000
,  // measure 60
0000
0000
1000
0000
0010
0000
0001
0000
1000
0000
0100
0001
0000
0010
0000
0100
,  // measure 61
0000
0000
0000
1100
0000
0000
1100
0000
0000
0000
0010
0000
0100
0000
0010
0000
,  // measure 62
0100
0000
0001
0010
0001
0100
0010
1000
,  // measure 63
0100
0010
0000
0100
0000
1000
0000
1010
0000
0000
0100
0000
0001
0000
0000
0100
,  // measure 64
0001
0000
0010
0000
0001
0000
0100
0000
0010
0000
0000
0100
0000
0000
0101
0000
,  // measure 65
0000
0000
0011
0000
0000
0000
0000
0000
0100
0010
0000
0001
0000
0000
0100
0000
,  // measure 66
0000
0000
0001
0000
0100
0000
0001
0000
0010
0000
0000
1000
0000
0000
1010
0000
,  // measure 67
0000
0000
0010
0000
0001
0000
0100
0000
0010
0000
0000
1010
0000
0000
1100
0000
,  // measure 68
0000
0000
1000
0000
0100
0000
0001
0000
0100
0000
0010
0100
0000
1000
0000
0010
,  // measure 69
0000
0000
0000
0100
0000
0000
0010
0000
0000
0000
1000
0000
0100
0000
1000
0000
,  // measure 70
0001
0000
0100
0010
1000
0100
0001
0100
,  // measure 71
1000
0100
0000
0010
0000
0001
0000
0100
0000
0000
1000
0000
0100
0000
0010
0000
,  // measure 72
1000
0000
0100
0000
0010
0000
0100
0000
1000
0000
0000
0020
0000
0000
0200
0000
,  // measure 73
0000
0000
0000
0000
0330
0000
0000
0000
0001
0100
0000
0010
0000
0000
0100
0000
,  // measure 74
0010
0000
1000
0000
0100
0000
1000
0000
0001
0000
0000
0001
0000
0000
0011
0000
,  // measure 75
0000
0000
0100
0000
0010
0000
0100
0000
1000
0000
0000
1000
0000
0000
2020
0000
,  // measure 76
0000
0000
0000
0000
,  // measure 77
0000
0000
0000
0000
0000
0000
0000
3030
;

//---------------dance-single - ----------------
#NOTES:
     dance-single:
     Shortysnmn2010:
     Challenge:
     10:
     0.659231,0.749976,0.473500,0.128407,0.690187,575.000000,516.000000,59.000000,16.000000,4.000000,0.000000,0.659231,0.749976,0.473500,0.128407,0.690187,575.000000,516.000000,59.000000,16.000000,4.000000,0.000000:
0000
0000
0000
0000
,
0000
0000
0000
0000
,
0000
0000
0000
0000
0000
0000
0000
0000
0000
0000
0000
0000
0000
0000
0000
0000
0000
0000
0000
0000
0000
0001
1000
0001
,
2000
3000
0110
0110
,
0000
0000
0000
0000
0001
0000
0010
0100
2000
0000
0000
0000
3000
0000
0000
0000
,
0001
0000
0100
0000
0001
0000
0100
0000
0010
1000
0010
1000
0001
0010
0001
0010
,
0100
0000
1100
0000
1001
0000
0001
0100
,
0010
0000
1010
0000
0011
0000
0100
1000
,
0010
0000
0110
0000
0101
0000
1000
0100
,
0010
0000
0011
0000
1100
0000
0010
1000
,
0100
0000
0100
2000
0020
0000
0000
0030
,
0000
0000
0001
0000
3010
0100
0001
0100
0010
1000
0001
0010
0100
1000
0100
0010
,
0001
1000
0000
0000
0000
0000
0001
1000
0000
0000
0000
0000
0110
0000
0000
0000
,
1000
0001
0100
0001
0010
0100
1000
0001
0100
0000
0010
0000
1000
0000
0000
1000
,
0100
0000
1000
0000
0010
0000
0100
0000
0010
0000
0000
1000
0000
0000
1100
0000
,
0000
0000
0011
0000
0000
0000
0000
0000
0001
0100
0000
0001
0000
0000
2000
0000
,
0000
0000
3001
0000
0010
0000
0001
0000
1000
0000
0000
1100
0000
0000
1001
0000
,
0000
0001
0010
0001
1000
0000
0001
0000
0100
0000
0000
0110
0000
0000
1001
0000
,
0000
0000
0001
0000
0010
0000
0001
0000
1000
0000
0010
0100
0000
0010
0000
2000
,
0000
0000
0000
3001
0000
0000
0011
0000
0000
0000
0100
0000
1000
0000
0100
0000
,
0010
0001
0000
0000
0010
0001
1000
0100
1000
0000
0001
0000
0100
0010
0100
0010
,
0100
0001
0000
1000
0000
0100
0000
0100
0000
0000
1000
0000
1010
0000
0100
0000
,
0001
0000
0010
0000
0100
0000
0010
0000
0001
0000
0000
0100
0000
0000
0220
0000
,
0000
0000
0000
0000
0330
0000
0000
0000
1000
0010
0000
0100
0000
0000
0001
0000
,
0100
0000
0010
0000
0100
0000
1000
0000
0100
0000
0000
0110
0000
0000
1010
0000
,
0000
0001
0010
0001
1000
0010
1000
0001
0100
0000
0000
0110
0000
0000
1000
0001
,
1000
0000
0000
0000
0000
0000
0000
0000
0000
1001
0000
0000
0000
0000
0000
0000
0000
0000
0001
0000
0000
0000
0000
0000
0010
0000
0100
0000
1000
0000
0100
0000
0000
0000
0000
0000
1000
0000
0000
0000
0000
0000
0000
0000
0000
1100
0000
0000
,
0000
0000
0000
0000
0000
0000
0001
0000
0000
0000
0000
0000
0100
0000
0010
0000
0100
0000
0010
0000
0000
0000
0000
0000
0100
0000
0000
0000
0000
0000
0000
0000
0000
0110
0000
0000
0000
0000
0000
0000
0000
0000
1000
0000
0000
0000
0000
0000
,
0001
0000
0000
0010
0000
0000
0001
0000
0000
1000
0100
1000
0100
0000
0000
0010
0000
0000
0001
0000
0000
1000
0000
0000
,
0010
0000
0000
0000
0000
0000
0000
0000
0000
0110
0000
0000
0000
0000
0000
0000
0000
0000
0001
0000
0000
0000
0000
0000
0100
0000
0010
0000
1000
0000
0010
0000
0000
0000
0000
0000
1000
0000
0000
0000
0000
0000
0000
0000
0000
1100
0000
0000
,
0000
0000
0000
0000
0000
0000
1000
0000
0000
0000
0000
0000
0001
0000
1000
0000
0100
0000
1000
0000
0000
0000
0000
0000
0001
0000
0000
0000
0000
0000
0000
0000
0000
0011
0000
0000
0000
0000
0000
0000
0000
0000
0001
0000
0000
0000
0000
0000
,
1000
0000
0000
0010
0000
0000
0001
0000
0000
0010
0100
0010
0100
0000
0000
0001
0000
0000
1000
0000
0000
0100
0000
0000
,
0010
0000
0000
0000
0000
0000
0000
0000
0000
0011
0000
0000
0000
0000
0000
0000
0000
0000
0001
0000
0000
0000
0000
0000
1000
0000
0001
0000
1000
0000
0100
0000
0000
0000
0000
0000
1000
0000
0000
0000
0000
0000
0000
0000
0000
1010
0000
0000
,
0000
0000
0000
0000
0000
0000
1000
0000
0000
0000
0000
0000
0001
0000
1000
0000
0001
0000
0100
0000
0000
0000
0000
0000
0001
0000
0000
0000
0000
0000
0000
0000
0000
0011
0000
0000
0000
0000
0000
0000
0000
0000
0001
0000
0000
0000
0000
0000
,
1000
0000
0000
0000
0000
0000
0010
0000
0000
0000
0000
0000
0100
0000
0000
0000
0000
0000
0010
0000
1000
0000
0010
0000
1000
0000
0000
0000
0010
0000
0000
0000
0100
0000
0000
0000
0001
0000
0000
0000
0000
0000
0000
0000
0000
0101
0000
0000
,
0000
0000
0000
0000
0000
0000
0010
0000
0000
0000
0000
0000
1000
0000
0100
0000
1000
0000
0100
0000
0000
0000
0000
0000
0010
0000
0000
0000
0000
0000
0000
0000
0000
0011
0000
0000
0000
0000
0000
0000
0000
0000
0100
0000
0000
0000
0000
0000
,
1000
0000
0010
0000
1000
0000
0010
0000
0000
0000
0000
0000
0100
0000
0000
0000
0000
0000
0001
0000
0000
0010
0000
0000
0000
0000
0000
0010
0000
0000
0100
0000
0000
0000
0000
0000
0100
0000
0000
1000
0000
0000
00MM
0000
0000
1000
0000
0000
,
0100
0000
0100
0010
0000
0010
0001
MM00
0001
0010
0000
0010
0100
0000
1000
0000
,
0010
0000
0000
0100
0000
0000
1001
0000
0000
0000
0010
0000
0100
0000
1000
0000
,
0000
0001
0000
0100
0000
1100
0000
0101
,
0000
0000
0000
1010
0000
0000
1001
0000
0000
0000
0010
0100
0010
0100
0010
0000
,
0000
0011
0000
0101
0000
1010
0000
1000
,
0002
0000
0000
0010
0000
0000
1003
0000
0000
0000
0010
0000
0100
0000
0001
0000
,
0000
0000
0011
0000
0000
0001
0010
0000
0000
0000
0100
0000
1000
0000
0001
0000
,
0400
0040
0000
0000
0000
0000
0000
0000
0000
0000
0330
0000
1001
0000
0000
0000
,
0004
4000
0000
0000
0000
0000
0000
0000
0000
0000
0000
0000
3003
0000
0000
0000
,
1001
0000
0001
0010
0000
0001
0100
0001
,
0000
0000
0000
1000
0000
0000
0100
0000
0000
0000
0000
0010
0000
0000
0001
0000
,
0000
0000
1000
0001
1000
0000
0000
0010
0000
0000
0100
0000
0010
0000
1000
0000
,
0001
0000
0010
0000
0001
1000
0000
0001
0000
1000
0001
1000
0100
0010
0000
0000
,
0100
0000
0000
1000
0000
0000
0010
0000
0100
0000
0000
0001
0000
0000
1001
0000
,
0000
0000
0000
0000
0000
0000
0000
0000
0100
0000
0000
1000
0000
0000
1001
0000
,
0000
0000
0000
0000
0000
0000
0000
0000
0010
0000
0000
1000
0000
0000
0100
0000
,
1000
0001
0000
0000
0000
0000
0001
1000
0000
0000
0000
0000
0010
0100
0000
0000
,
0000
0000
0001
1000
0001
1000
0000
0000
0010
0100
0010
0100
0000
0001
0100
0001
,
0200
0000
0300
0000
,
0001
0000
0010
0000
0100
0000
0010
0000
0001
0000
0000
0100
0000
0000
0101
0000
,
0000
0000
1010
0000
0000
0000
0000
0000
1000
0100
0000
1000
0000
0000
0001
0000
,
0000
0000
0100
0000
0010
0000
0100
0000
0001
0000
0000
0011
0000
0000
0011
0000
,
0000
1000
0100
1000
0100
0000
0010
0000
0002
0000
0000
0100
0000
0000
1003
0000
,
0000
0000
0001
0000
0010
0000
0001
0000
1000
0000
0001
0100
0000
0001
0000
0002
,
0000
0000
0000
1003
0000
0000
1100
0000
0000
0000
1000
0000
0010
0000
1000
0000
,
0001
0100
0000
0000
0001
0100
0010
1000
0001
0000
0010
0000
0001
1000
0001
1000
,
0001
0100
0000
0010
0000
1000
0000
1000
0000
0000
0001
0000
0010
0000
0000
0001
,
0010
0000
0100
0000
1000
0000
0010
0000
1000
0000
0000
0100
0000
0000
1100
0000
,
0000
0000
0011
0000
0000
0000
0000
0000
0001
0100
0000
0001
0000
0000
0010
0000
,
0000
0000
0100
0000
0010
0000
0001
0000
1000
0000
0000
0100
0000
0000
1100
0000
,
0000
0000
1000
0000
0100
0000
1000
0000
0001
0000
0000
1100
0000
0000
1001
0000
,
0000
0000
0010
0000
0001
0000
1000
0000
0010
0000
0100
0010
0000
1000
0000
0002
,
0000
0000
0000
0013
0000
0000
0110
0000
0000
0000
0100
0000
1000
0000
0010
0000
,
1000
0001
0000
0000
0100
0010
1000
0010
0100
0000
0001
0000
1000
0100
0010
0100
,
1000
0001
0000
0010
0000
0001
0000
0001
0000
0000
1000
0000
0100
0000
0010
0000
,
0001
0000
0100
0000
1000
0000
0100
0000
0001
0000
0000
1000
0000
0000
0220
0000
,
0000
0000
0000
0000
0330
0000
0000
0000
0001
0100
0000
0001
0000
0000
1000
0000
,
0100
0000
0010
0000
0100
0000
1000
0000
0001
0000
0000
0001
0000
0000
0001
0000
,
1000
0001
0100
0010
0100
0001
1000
0100
1000
0000
0000
1000
0000
0000
2000
0000
,
0000
0000
0000
0000
,
0000
0000
0000
0000
0000
0000
0000
3000
;
