#TITLE:Your Best Nightmare;
#SUBTITLE:;
#ARTIST:Toby Fox;
#TITLETRANSLIT:;
#SUBTITLETRANSLIT:;
#ARTISTTRANSLIT:;
#GENRE:;
#CREDIT:;
#BANNER:;
#BACKGROUND:;
#LYRICSPATH:;
#CDTITLE:;
#MUSIC:Your Best Nightmare.mp3;
#OFFSET:-0.073000;
#SAMPLESTART:86.559998;
#SAMPLELENGTH:10.732000;
#SELECTABLE:YES;
#BPMS:0.000000=44.726002
,4.000000=190.085999
,101.000000=95.042999
,126.000000=190.085999
;
#STOPS:4.000000=0.631000,
101.000000=0.631000,
126.000000=0.631000,
176.000000=0.631000,
226.000000=0.631000
;
#BGCHANGES:;
#KEYSOUNDS:;
#ATTACKS:;

//---------------dance-single - ----------------
#NOTES:
     dance-single:
     Shortysnmn2010:
     Beginner:
     1:
     0.113614,0.167548,0.000000,0.044680,0.000000,89.000000,89.000000,0.000000,5.000000,0.000000,0.000000,0.113614,0.167548,0.000000,0.044680,0.000000,89.000000,89.000000,0.000000,5.000000,0.000000,0.000000:
0000
0000
0000
0000
,
0000
1000
0000
1000
,
0000
0002
0000
0000
,
0000
0003
0000
0000
,
0000
0001
0000
0001
,
0000
2000
0000
0000
,
0000
3000
0000
0000
,
0000
0010
0000
0010
,
0000
0200
0000
0000
,
0000
0300
0000
0000
,
0000
0100
0000
0100
,
0000
0020
0000
0000
,
0000
0030
0000
0000
,
0000
1000
0000
0001
,
0000
0100
0000
0000
,
0000
0000
0000
0000
,
0000
0001
0000
1000
,
0000
0010
0000
0000
,
0000
0000
0000
0000
,
0000
1000
0000
0000
,
0000
0100
0000
0000
,
0000
0010
0000
0000
,
0000
0001
0000
0000
,
0000
1000
0000
0000
,
0000
0001
0000
0000
,
0000
0100
0010
0000
,
1000
0000
0010
0000
,
1000
0000
0010
0000
,
0100
0000
0010
0000
,
0100
0000
0001
0000
,
0100
0000
0001
0000
,
0100
0000
0010
0000
,
1000
0000
0000
0000
,
0100
0000
0000
0000
,
0010
0000
0000
0000
,
0001
0000
0000
0000
,
1000
0000
1000
0000
,
1000
0000
0000
0000
,
0001
0000
0001
0000
,
0001
0000
0000
0000
,
0010
0000
0010
0000
,
0010
0000
0000
0000
,
0100
0000
0100
0000
,
0100
0000
0000
0000
,
1000
0000
0001
0000
,
0000
0000
0010
0000
,
0000
0000
0100
0000
,
0000
0000
1000
0000
,
0000
0000
0010
0000
,
0010
0000
0010
0000
,
0000
0000
0100
0000
,
0100
0000
0100
0000
,
0000
0000
0001
0000
,
0001
0000
0001
0000
,
0000
0000
0010
0000
,
0010
0000
0010
0000
,
0000
0000
0100
0000
,
0010
0000
0000
0000
,
0001
0000
0000
0000
,
0010
0000
0000
0000
,
0100
0000
0000
0000
,
1000
0000
0000
0000
,
0100
0000
0000
0000
,
1000
0000
0000
0000
,
0001
0000
0000
0000
,
0100
0000
0000
0000
,
0010
0000
0000
0000
,
0100
0000
0000
0000
,
0001
0000
0000
0000
,
1000
0000
0000
0000
,
0100
0000
0000
0000
,
0010
0000
0000
0000
,
0100
0000
0000
0000
,
2000
0000
0000
0000
,
0000
0000
0000
0000
,
3000
0000
0000
0000
;

//---------------dance-single - ----------------
#NOTES:
     dance-single:
     Shortysnmn2010:
     Easy:
     4:
     0.268077,0.366149,0.062551,0.080423,0.000000,210.000000,203.000000,7.000000,9.000000,6.000000,0.000000,0.268077,0.366149,0.062551,0.080423,0.000000,210.000000,203.000000,7.000000,9.000000,6.000000,0.000000:
0000
0000
0000
0000
,
0000
1000
0000
0001
,
0000
0100
0010
0100
,
0000
0010
1000
0100
,
0000
1000
0000
0100
,
0000
0010
0001
0010
,
0000
0001
0100
0010
,
0000
0100
0000
0010
,
0000
1000
0001
1000
,
0000
0100
0010
0100
,
0000
0001
0000
1000
,
0000
0010
0100
0010
,
0000
1000
0001
1000
,
0000
0010
0000
0010
,
0000
0100
0001
1000
,
0001
0100
0001
1000
,
0001
0100
0000
0010
,
0000
1000
0001
1000
,
0010
1000
0001
1000
,
0010
1000
0000
0000
,
0000
0001
0000
0000
,
0000
0020
0000
0000
,
0030
0200
0000
0000
,
0300
2000
0000
0000
,
3000
0002
0000
0000
,
0003
1001
1000
0M01
,
1000
0010
1000
0M01
,
1000
0100
1000
0M01
,
1000
0010
1000
0M01
,
1001
0110
0001
0M10
,
0001
1000
0001
01M0
,
0001
1001
1001
0000
,
1000
0000
0001
0000
,
0010
0000
0100
1000
,
0100
0000
0010
0000
,
0001
0000
0100
0010
,
0100
0001
0100
0001
,
0100
0000
0010
0000
,
1000
0010
1000
0100
,
1000
0000
0010
0000
,
0100
0010
0100
0010
,
1000
0000
0001
0000
,
0010
0100
0010
0100
,
1000
0000
0001
0000
,
2002
3003
0010
0000
,
0100
1000
0100
0000
,
0010
0001
0010
0000
,
0100
1000
0100
0000
,
1000
0001
1000
0000
,
0001
0100
0001
0000
,
1000
0010
1000
0000
,
0001
0010
0001
0000
,
1000
0000
0001
0000
,
0100
0001
0100
0000
,
0010
0100
0010
0000
,
1000
0010
1000
0000
,
0100
0000
0220
0330
,
0001
0010
0100
0000
,
1000
0001
0100
0000
,
0010
1000
0100
0000
,
1000
0001
1000
0000
,
0100
1000
0010
0000
,
0100
0001
0010
0000
,
0001
1000
0001
0000
,
0100
0001
0010
0000
,
0100
1000
0100
0000
,
0010
0100
0010
0000
,
0001
0010
0001
0000
,
0100
0010
0100
0000
,
0010
1000
0010
0000
,
1000
0001
1000
0000
,
0100
0010
0100
0000
,
1000
0001
1000
0000
,
0020
0000
0000
0000
,
0000
0000
0030
0000
;

//---------------dance-single - ----------------
#NOTES:
     dance-single:
     Shortysnmn2010:
     Medium:
     6:
     0.343394,0.432722,0.035744,0.035744,0.017872,269.000000,265.000000,4.000000,4.000000,26.000000,0.000000,0.343394,0.432722,0.035744,0.035744,0.017872,269.000000,265.000000,4.000000,4.000000,26.000000,0.000000:
// measure 0
0000
0000
0000
0000
,  // measure 1
0000
1000
0000
0001
,  // measure 2
0000
0100
0001
0100
,  // measure 3
0001
1000
0010
1000
,  // measure 4
0010
0100
0000
0001
,  // measure 5
0000
0010
0001
0010
,  // measure 6
0001
1000
0100
1000
,  // measure 7
0100
0010
0000
0001
,  // measure 8
0000
1000
0001
1000
,  // measure 9
0001
0100
0010
0100
,  // measure 10
0010
1000
0000
0001
,  // measure 11
0000
0010
0100
0010
,  // measure 12
0100
1000
0001
1000
,  // measure 13
0001
0100
0000
0010
,  // measure 14
0000
1000
0100
0001
,  // measure 15
0100
1000
0001
1000
,  // measure 16
0010
1000
0000
0001
,  // measure 17
0000
0100
1000
0100
,  // measure 18
0010
0100
0001
0100
,  // measure 19
0010
1000
0000
0000
,  // measure 20
0000
0001
0000
0000
,  // measure 21
0000
0000
0000
0000
4000
0004
0000
0000
0000
0000
0000
0000
3003
0000
0000
0000
,  // measure 22
0000
0000
0000
0000
0004
4000
0000
0000
0000
0000
0000
0000
3003
0000
0000
0000
,  // measure 23
0000
0000
0000
0000
0400
0040
0000
0000
0000
0000
0000
0000
0330
0000
0000
0000
,  // measure 24
0000
0000
0000
0000
0040
0400
0000
0000
0000
0000
0000
0000
0330
0000
0000
0000
,  // measure 25
0000
0000
0001
0000
1000
0000
00M1
0100
,  // measure 26
1000
0000
1000
0100
0001
0000
0M01
0010
,  // measure 27
1000
0000
1000
0010
0001
0000
10M0
0100
,  // measure 28
0001
0000
0001
0100
1000
0000
1M00
0010
,  // measure 29
0001
0000
1000
0000
0100
0000
M001
0010
,  // measure 30
0100
0000
0010
1000
0010
0000
010M
1000
,  // measure 31
0010
0100
M11M
0000
,  // measure 32
1000
0100
0010
0010
,  // measure 33
0100
1000
0100
1000
,  // measure 34
0010
0100
0001
0001
,  // measure 35
0100
0010
0100
0010
,  // measure 36
1000
0000
0001
1000
0001
0000
0010
0000
,  // measure 37
0001
0000
1000
0001
1000
0000
0100
0000
,  // measure 38
1000
0000
0001
1000
0001
0000
0010
0000
,  // measure 39
0001
0000
0100
0000
,  // measure 40
0010
0000
0100
0010
0100
0000
0010
0000
,  // measure 41
1000
0000
0100
1000
0100
0000
0010
0000
,  // measure 42
1000
0000
0010
0001
0010
0000
0100
0000
,  // measure 43
1000
0000
0001
0000
,  // measure 44
0220
0000
0330
0000
0001
0000
0000
0100
,  // measure 45
0001
0000
0001
0000
0001
0000
0000
0010
,  // measure 46
1000
0000
1000
0000
1000
0000
0000
0010
,  // measure 47
0001
0000
0001
0000
0001
0000
0000
0100
,  // measure 48
1000
0000
1000
0000
0100
0000
0001
0100
,  // measure 49
0001
0000
0010
0000
0100
0000
0001
0100
,  // measure 50
0001
0000
0100
0000
1000
0000
0100
1000
,  // measure 51
0100
1000
0010
0000
,  // measure 52
1000
0000
0000
0000
0010
0000
0001
0010
,  // measure 53
0001
0000
0010
0000
1000
0000
0100
1000
,  // measure 54
0100
0000
0001
0000
0100
0000
1000
0100
,  // measure 55
1000
0010
0100
0000
,  // measure 56
0001
0000
1001
0000
,  // measure 57
1000
0100
1000
000M
,  // measure 58
0010
0100
0010
M000
,  // measure 59
0100
0001
0100
00M0
,  // measure 60
0001
0010
0001
M000
,  // measure 61
0010
0100
0010
000M
,  // measure 62
0100
1000
0100
000M
,  // measure 63
1000
0010
1000
00M0
,  // measure 64
0100
0001
0100
M000
,  // measure 65
0010
0001
0100
00MM
,  // measure 66
1000
0000
0100
0000
0001
0100
0000
0100
,  // measure 67
1000
0001
0010
0M0M
,  // measure 68
1000
0000
0100
0000
0001
0100
0000
0100
,  // measure 69
0010
0100
1000
0M0M
,  // measure 70
0010
0000
0100
0000
0001
1000
0000
1000
,  // measure 71
0100
0001
0100
M00M
,  // measure 72
0010
0000
0001
0000
0100
0010
0000
0010
,  // measure 73
2002
0000
0000
0MM0
,  // measure 74
0000
0000
3003
0000
;

//---------------dance-single - ----------------
#NOTES:
     dance-single:
     Shortysnmn2010:
     Hard:
     8:
     0.482539,0.904761,0.268077,0.491475,0.053615,378.000000,348.000000,30.000000,55.000000,28.000000,0.000000,0.482539,0.904761,0.268077,0.491475,0.053615,378.000000,348.000000,30.000000,55.000000,28.000000,0.000000:
// measure 0
0000
0000
0000
0000
,  // measure 1
0000
2000
3000
0002
,  // measure 2
0003
0000
1000
0100
0010
0000
0100
1000
,  // measure 3
0001
0000
0100
0001
0100
0010
0100
1000
,  // measure 4
0100
0002
0003
2000
,  // measure 5
3000
0000
0010
1000
0100
0000
1000
0001
,  // measure 6
0100
0000
0010
0001
0010
0100
0010
1000
,  // measure 7
0010
2000
3000
0002
,  // measure 8
0003
0000
1000
0100
0001
0000
0100
0010
,  // measure 9
0100
0000
1000
0010
1000
0001
1000
0100
,  // measure 10
1000
0002
0003
2000
,  // measure 11
3000
0000
0001
0010
1000
0000
0010
0100
,  // measure 12
0010
0000
0001
0100
0001
1000
0001
0010
,  // measure 13
0001
0200
0300
0200
,  // measure 14
0300
0000
0001
0010
0001
1000
0001
0010
,  // measure 15
0001
0000
1000
0100
1000
0001
1000
0100
,  // measure 16
1000
0020
0030
0020
,  // measure 17
0030
0000
0100
0001
0100
0010
0100
0001
,  // measure 18
0100
0000
0010
1000
0010
0100
0010
1000
,  // measure 19
0010
0000
0100
0001
1000
0000
0100
0010
,  // measure 20
0001
0000
1000
0010
0100
0000
0001
0010
,  // measure 21
0001
0000
0000
0000
4000
0400
0000
0000
0000
0000
0000
0000
3300
0000
0000
0000
,  // measure 22
0000
0000
0000
0000
0040
0004
0000
0000
0000
0000
0000
0000
0033
0000
0000
0000
,  // measure 23
0000
0000
0000
0000
0004
0400
0000
0000
0000
0000
0000
0000
0303
0000
0000
0000
,  // measure 24
0000
0000
0000
0000
0040
4000
0000
0000
0000
0000
0000
0000
3030
0000
0000
0000
,  // measure 25
0000
0000
0000
0000
2002
3003
0000
0000
0M10
0000
0000
0000
10M1
0000
1100
0000
,  // measure 26
10M1
0000
10M1
0101
10M1
0000
1M01
1010
,  // measure 27
1M01
0000
0000
0000
1M01
0000
0011
0000
1M01
0000
1000
0100
0010
0000
0100
0000
,  // measure 28
100M
0000
0100
0010
0100
0000
1000
0000
001M
0000
0100
0010
0100
0000
0001
0000
,  // measure 29
M020
0000
0000
0030
0200
0000
0000
0300
M010
0000
0001
0100
0001
0000
0010
0000
,  // measure 30
M100
0000
0010
0100
0010
0000
0001
0000
M100
0000
0010
0100
0010
0000
0100
0000
,  // measure 31
00M2
0000
0000
0003
2000
0000
0000
3000
0MM0
0000
0000
0000
0000
0000
0000
0000
,  // measure 32
0100
1000
0100
1000
0010
0100
0001
0100
,  // measure 33
0010
0100
0001
0100
,  // measure 34
0010
1000
0100
1000
0001
0010
0001
0010
,  // measure 35
0100
1000
0100
0001
,  // measure 36
0100
0000
1000
0100
0010
0000
0100
0000
,  // measure 37
0001
0000
0100
0010
0100
0000
1000
0000
,  // measure 38
0010
0000
0100
0010
0100
0000
0001
0000
,  // measure 39
2002
3003
2200
3300
,  // measure 40
0010
0000
0001
1000
0001
0000
0100
0000
,  // measure 41
1000
0000
0001
1000
0100
0000
0001
0000
,  // measure 42
0010
0000
0001
1000
0001
0000
1000
0000
,  // measure 43
2200
3300
0022
0033
,  // measure 44
0000
MMMM
0000
0000
0000
0000
0000
0000
1001
0000
0000
0000
0000
0000
1000
0000
,  // measure 45
0100
1000
0100
1000
2000
0000
3000
0001
,  // measure 46
0100
0001
0100
0001
0002
0000
0003
0010
,  // measure 47
0100
0010
0100
0010
0020
0000
0030
0100
,  // measure 48
1000
0100
1000
0100
0100
0000
0010
0002
,  // measure 49
0010
0000
0013
0000
0011
0000
0001
0020
,  // measure 50
0001
0000
0031
0000
1001
0000
1000
0200
,  // measure 51
1000
1300
1001
0000
,  // measure 52
0110
0000
0000
0000
0101
0000
0001
0020
,  // measure 53
0001
0000
0130
0000
0110
0000
0100
0020
,  // measure 54
0001
0000
0130
0000
0110
0000
0100
2000
,  // measure 55
0001
3100
1001
0000
,  // measure 56
0110
0000
0000
0000
0000
0000
0000
0000
0000
MMMM
0000
0000
0000
0000
0000
0000
,  // measure 57
1000
0001
0100
0000
0020
0000
0030
0000
,  // measure 58
1000
0001
0010
0000
2000
0000
3000
0000
,  // measure 59
0010
0001
0100
0000
0002
0000
0003
0000
,  // measure 60
1000
0100
1000
0000
0220
0000
0330
0000
,  // measure 61
0001
1000
0100
0000
0020
0000
0030
0000
,  // measure 62
0100
1000
0001
0000
0020
0000
0030
0000
,  // measure 63
0001
1000
0010
0000
0200
0000
0300
0000
,  // measure 64
0001
1000
0100
0000
0220
0000
0330
0000
,  // measure 65
1000
0010
0100
0001
2000
0000
3000
0000
,  // measure 66
0001
0010
0100
1000
0002
0000
0003
0000
,  // measure 67
0100
0010
0100
0010
2000
0000
3000
0000
,  // measure 68
0100
0010
0100
0010
0002
0000
0003
0000
,  // measure 69
1000
0100
1000
0100
0002
0000
0003
0000
,  // measure 70
0100
1000
0100
1000
0020
0000
0030
0000
,  // measure 71
0100
0001
1000
0100
2000
0000
3000
0000
,  // measure 72
0001
1000
0010
1000
0002
0000
0003
0000
,  // measure 73
0220
0000
0000
0000
,  // measure 74
0000
0000
0000
0330
,  // measure 75
0MM0
0000
0000
0000
;
