#TITLE:Will Be Venus;
#SUBTITLE:;
#ARTIST:Takeshi Abo;
#TITLETRANSLIT:;
#SUBTITLETRANSLIT:;
#ARTISTTRANSLIT:;
#GENRE:;
#CREDIT:;
#MUSIC:Will Be Venus.mp3;
#BANNER:Will Be Venus banner.jpg;
#BACKGROUND:;
#CDTITLE:;
#SAMPLESTART:64.374;
#SAMPLELENGTH:12.448;
#SELECTABLE:YES;
#OFFSET:-0.503;
#BPMS:0.000=153.989
,205.000=153.000
,206.000=154.001
;
#STOPS:;
#DISPLAYBPM:154.000;
#BGCHANGES:;
#FGCHANGES:;

//--------------- dance-single - ----------------
#NOTES:
     dance-single:
     Shortysnmn2010:
     Beginner:
     1:
     0.103437,0.157589,0.017037,0.05111,0,85,83,2,6,0,0,0.103437,0.157589,0.017037,0.05111,0,85,83,2,6,0,0:
0000
0000
0000
0000
,
0000
0000
0000
0000
,
0000
0000
0000
0000
,
0000
0000
0000
0000
,
0000
0000
0000
0000
,
1000
0000
0000
0000
,
0100
0000
0000
0000
,
0010
0000
0010
0000
,
0010
0000
0000
0000
,
0001
0000
0000
0000
,
0100
0000
0000
0000
,
0010
0000
0010
0000
,
0010
0000
0010
0000
,
1000
0000
0000
1000
,
1000
0000
0000
0001
,
0001
0000
0000
0001
,
0000
0000
0000
0000
,
0010
0000
0000
0000
,
0100
0000
0000
0000
,
1000
0000
0000
0000
,
0010
0000
0000
0000
,
0001
0000
0000
0000
,
0010
0000
0000
0000
,
1000
0000
1000
0000
,
1000
0000
0000
0000
,
0100
0000
0000
0000
,
0010
0000
0000
0000
,
0001
0000
0000
0000
,
0100
0000
0000
0000
,
0001
0000
0000
0000
,
0010
0000
0000
0000
,
0100
0000
0000
0000
,
1000
0000
0000
0000
,
0001
0000
0001
0000
,
0001
0000
0001
0000
,
1000
0000
0000
0000
,
0010
0000
0000
0000
,
0100
0000
0100
0000
,
0000
0000
0001
0000
,
0010
0000
0000
0000
,
0010
0000
0000
0000
,
0100
0000
0000
0000
,
1000
0000
0000
0000
,
0100
0000
0000
0000
,
0010
0000
0000
0000
,
0001
0000
0000
0000
,
0001
0000
0000
0000
,
0100
0000
0100
0000
,
0100
0000
0000
0000
,
0010
0000
0000
0000
,
1000
0000
0000
0000
,
0001
0000
0010
0000
,
0100
0000
0000
0000
,
1000
0000
0000
0000
,
0010
0000
0000
0000
,
0100
0000
0000
0000
,
0001
0000
0000
0000
,
2000
0000
0000
0000
,
3001
0000
0000
0000
,
0002
0000
0000
0000
,
1003
0000
0000
0000
,
0020
0000
0000
0000
,
0130
0000
0000
0000
,
0200
0000
0000
0000
,
0310
0000
0000
0000
,
1000
0000
0001
0000
,
1000
0000
0000
0000
,
0010
0000
0100
0000
,
0010
0000
0000
0000
,
1000
0000
0000
0000
,
0100
0000
0000
0000
,
0001
0000
0000
0000
,
0010
0000
0000
0000
,
2002
0000
0000
3003
,
1001
0000
0000
0000
;

//--------------- dance-single - ----------------
#NOTES:
     dance-single:
     Shortysnmn2010:
     Easy:
     2:
     0.13751,0.28366,0.017037,0.042592,0,113,111,2,5,0,0,0.13751,0.28366,0.017037,0.042592,0,113,111,2,5,0,0:
0000
0000
0000
0000
,
0000
0000
0000
0000
,
0000
0000
0000
0000
,
0000
0000
0000
0000
,
0000
0000
0000
0000
,
1000
0000
0000
0000
,
0010
0000
0000
0000
,
0100
0000
0100
0000
,
0100
0000
0100
0000
,
0001
0000
0000
0000
,
0010
0000
0000
0000
,
0100
0000
0100
0000
,
0100
0000
0100
0000
,
0100
0000
0000
1000
,
1000
0000
0000
0001
,
0001
0000
0000
0020
,
0000
0000
0030
0000
,
0001
0000
1000
0000
,
0001
0000
0000
0000
,
0100
0000
0010
0000
,
0100
0000
0000
0000
,
0001
0000
0010
0000
,
0001
0000
0000
0000
,
1000
0000
0100
0000
,
1000
0000
0000
0000
,
0010
0000
0010
0000
,
0100
0000
0100
0000
,
0010
0000
0000
0000
,
0100
0000
0000
0000
,
0001
0000
0001
0000
,
1000
0000
1000
0000
,
0001
0000
0000
0000
,
1000
0000
0000
0000
,
0100
0100
0100
0000
,
0100
0000
0000
0000
,
0010
0000
0010
0000
0010
0000
0000
0001
,
0000
0000
0000
0001
0000
0000
0000
0000
,
1000
0000
1000
0000
1000
0000
0000
2000
,
0000
0000
0000
0000
3000
0000
0000
0002
,
0000
0000
0000
0000
0003
0000
0000
0020
,
0000
0000
0030
0000
,
0100
0000
0100
0000
,
0100
0000
0000
0000
,
1000
0000
0010
0000
,
1000
0000
0000
0000
,
0001
0000
0100
0000
,
0001
0000
0000
0000
,
0010
0000
0010
0000
,
0010
0000
0010
0000
,
0100
0000
0000
0000
,
1000
0000
0000
0000
,
0010
0000
0010
0000
,
0010
0000
0010
0000
,
0100
0000
0000
0000
,
0001
0000
0000
0000
,
1000
0000
0000
0000
,
0100
0000
0000
0000
,
0010
0100
0010
0100
,
0010
0100
0010
0100
,
0010
0000
0000
0000
,
0110
0000
0000
0000
,
0001
0000
0000
0000
,
1001
0000
0000
0000
,
1000
1000
1000
0000
,
0010
0000
0000
0000
,
0100
0000
0100
0000
,
0001
0000
0001
0000
,
0100
0000
0001
0000
,
0100
0000
0000
0000
,
0010
0000
0010
0000
,
1000
0000
1000
0000
,
0010
0000
1000
0000
,
0010
0000
0000
0000
0000
0000
0000
0200
,
0000
0000
0000
0000
,
0300
0000
0000
0000
;

//--------------- dance-single - ----------------
#NOTES:
     dance-single:
     Shortysnmn2010:
     Medium:
     6:
     0.307877,0.376297,0.170366,0.289623,0.017037,253,233,20,34,18,0,0.307877,0.376297,0.170366,0.289623,0.017037,253,233,20,34,18,0:
0000
0000
0000
0000
,
0000
0000
0000
0000
,
0000
0000
0000
0000
,
0000
0000
0000
0000
,
0000
0000
0000
0000
,
0000
1000
0000
0000
0010
0000
0000
0100
,
0000
0010
0000
0000
1000
0000
0000
0001
,
0010
0000
0110
1000
,
0010
0000
0000
0100
0001
0000
0000
0100
,
0000
0010
0000
0000
1000
0000
0000
0001
,
0000
0100
0000
0000
0001
0000
0000
0010
,
0100
0000
0000
1000
0100
0000
0000
0010
,
0001
0000
0000
0100
0010
0000
0000
1000
,
0001
0000
0000
2002
0000
3003
0010
0000
,
0100
0000
0000
0220
0000
0330
1000
0000
,
0001
0000
0000
2002
0000
3003
0010
0200
,
0000
0000
0300
0000
0000
0000
0000
0010
,
0000
0010
0001
0000
1100
0000
0000
1000
,
0000
0010
1000
0000
0001
0000
0100
0001
,
0000
0000
0000
0022
0000
0000
0000
0000
,
0000
0000
0033
0000
0000
0001
0000
1000
,
0000
0010
1000
0000
0101
0000
0000
0010
,
0000
0010
0100
0000
0001
0000
0010
0001
,
0000
1000
0000
2200
0000
0000
0000
0000
,
0000
0000
3300
0000
0010
0000
0000
0001
,
0000
1000
0000
1001
0000
0000
0010
0100
,
0000
0010
0000
0110
0000
0000
0001
2000
,
0000
0000
0000
0000
0100
0000
0001
3001
,
0000
0000
0000
0000
0010
0000
0100
1000
,
0000
0010
0000
0110
0000
0000
0001
0010
,
0000
0001
0000
0101
0000
0000
0010
0200
,
0000
0000
0000
0000
0010
0000
0000
0001
,
0000
0301
0000
0000
,
0010
0000
0010
0000
0010
1000
0000
1000
,
0000
1000
0100
0000
0100
0010
0000
0010
,
0002
0000
2003
0000
3010
0100
0000
0001
,
0000
0020
0000
0001
0000
0130
0000
1000
,
0000
0001
0010
0000
0010
0000
0010
0001
,
0000
0001
0100
0000
0100
0001
0000
0001
,
0000
1000
0100
0000
0100
1000
0000
2002
,
0000
0000
3003
0000
,
0000
0010
0000
0000
0001
0000
0000
0100
,
0000
0001
0000
0000
0010
0000
0000
0100
,
0000
1000
0000
0000
0010
0000
0000
0100
,
0001
0000
0000
0010
0001
0000
0000
0100
,
0000
0001
0000
0000
0010
0000
0000
0010
,
0000
0100
0000
0000
0100
0000
0000
1000
,
0010
0000
0110
0001
,
0010
0000
0000
0001
1000
0000
0000
0100
,
0000
0100
0000
0000
1000
0000
0000
1000
,
0000
0010
0000
0000
0010
0000
0000
0100
,
0001
0000
0000
0001
1000
0000
0000
1000
,
0100
0000
0000
0100
0010
0000
0000
0010
,
0000
0001
0000
0000
0100
0000
0000
0010
,
0000
1000
0000
0000
0001
0000
0000
0010
,
0000
0100
0000
0000
0010
0000
0000
0001
,
0000
1000
0000
0001
0000
0010
0000
0001
,
2000
0100
0001
3100
,
0002
0100
1000
0103
,
2000
0010
0001
3010
,
0002
0010
1000
0013
,
2000
0100
0010
3100
,
0002
0010
0100
0013
,
0100
0000
1001
0000
1001
0000
0000
0010
,
0000
1000
0000
1001
0000
0000
0010
0000
,
0002
0000
0000
0M00
0003
0000
00M0
0000
2000
0000
0000
0000
3M0M
0000
0000
0000
,
0020
0000
0000
000M
0030
0000
M000
0000
0101
0000
0000
0000
1001
0000
0000
0000
,
0020
0000
0000
M000
0030
0000
000M
0000
0200
0000
0000
M000
0300
0000
00M0
0000
,
2002
0000
0000
0MM0
3003
0000
0000
0000
,
1000
0000
010M
0000
1000
0000
0010
0100
,
0001
0000
M010
0000
0001
0000
0010
0100
,
2000
0M10
0001
3100
,
0002
0000
01M0
0000
1000
0000
0013
0200
,
0000
0000
M00M
0000
0000
0300
0000
0000
;

//--------------- dance-single - ----------------
#NOTES:
     dance-single:
     Shortysnmn2010:
     Hard:
     8:
     0.500147,0.602379,0.289623,0.247031,0.281105,411,377,34,29,47,0,0.500147,0.602379,0.289623,0.247031,0.281105,411,377,34,29,47,0:
0000
0000
0000
0000
,
0000
0000
0000
0000
,
0000
0000
0000
0000
,
0000
0000
0000
0000
,
0000
0000
0000
0000
,
0000
0000
1000
0000
0000
0010
0000
0000
0010
0000
0000
1000
0000
0000
1100
0000
,
0000
0000
0010
0000
0000
0100
0000
0000
0100
0000
0000
1000
0000
0000
0010
0000
,
0100
0000
0000
0001
0000
0000
0100
0000
2000
0000
0000
0000
3100
0000
0010
0000
,
1000
0000
0000
0100
0000
0000
0001
0000
0100
0000
0000
0010
0000
0000
1000
0000
,
0000
0000
0010
0000
0000
0001
0000
0000
0001
0000
0000
0100
0000
0000
0110
0000
,
0000
0000
0010
0000
0000
0001
0000
0000
0001
0000
0000
0010
0000
0000
1000
0000
,
0100
0000
0000
0010
0000
0000
0001
0000
0010
0000
0000
0100
0000
0000
1000
0000
,
0010
0000
0000
1000
0000
0000
0001
0000
0100
0000
0000
1000
0000
0000
0100
0000
,
0001
0000
1000
0100
0000
1000
0000
0100
0000
0000
0000
0000
0010
0000
0100
0000
,
1000
0000
0001
0100
0000
0001
0000
0100
0000
0000
0000
0000
0010
0000
0100
0000
,
0001
0000
0010
0001
0000
0010
0000
0001
0000
0000
0000
0000
2000
0000
0002
0000
,
0000
0000
3003
0000
M00M
0000
0000
1001
,
0000
0010
0001
0100
0001
0000
0010
0100
,
0000
0100
1000
0010
1000
0000
0100
0020
,
0000
0030
0000
0001
0010
0001
0100
0001
,
1000
0100
0001
0100
0000
1100
0000
1001
,
0000
0100
0001
0010
0001
0000
1000
0100
,
0000
0100
0010
0001
1000
0000
0010
0200
,
0000
0301
0010
0022
0000
0000
0000
0033
,
0000
00MM
0000
0000
1000
0001
0100
1000
,
0000
0100
0001
0020
0000
0030
0100
1000
,
0000
1000
0100
0002
0000
0003
0000
0200
,
0000
0000
0300
0000
0000
0000
0000
0100
1000
0000
0010
0000
0100
0000
0002
0000
,
1000
0000
0010
0000
1003
0100
0001
0100
,
0000
0010
0100
2000
0000
3000
0100
0001
,
0000
0001
0100
0020
0000
0030
0001
2000
,
0000
0000
3000
0000
0010
0100
0001
0100
,
0000
0000
0010
0100
0010
0000
0000
0000
0000
0000
1000
0000
0001
0000
1000
0000
,
0100
0000
0100
0000
1000
0000
0001
0100
0001
0000
0010
0000
0000
0000
0110
0000
,
0000
0000
0100
0000
1000
0000
0001
0100
0001
0000
1000
0000
0000
0000
0001
0000
,
0200
0000
1000
0300
0200
0000
0001
0300
0200
0000
1000
0300
0100
0000
0110
0000
,
0000
1000
0001
1000
0000
0110
0000
0101
,
0000
0000
1000
0100
1000
0000
0001
0000
0010
0000
0001
0000
0100
0000
0010
0000
,
0000
0100
0001
0000
0010
0001
0000
0101
,
0000
0010
1000
0000
0100
1000
0000
2020
,
0000
0000
0000
3030
0000
M0M0
0000
0000
,
0000
0000
0100
0000
0000
0001
0000
0000
0001
0000
0000
0010
0000
0000
0110
0000
,
0000
0000
0100
0000
0000
1000
0000
0000
1000
0000
0000
0001
0000
0000
0101
0000
,
0000
0000
0010
0000
0000
1000
0000
0000
1000
0000
0000
0100
0000
0000
0010
0000
,
0001
0000
0000
0100
0000
0000
0001
0000
0010
0000
0000
0100
0000
0000
1000
0000
,
0000
0000
0010
0000
0000
0100
0000
0000
0100
0000
0000
0001
0000
0000
0011
0000
,
0000
0000
0100
0000
0000
1000
0000
0000
1000
0000
0000
0001
0000
0000
0100
0000
,
0020
0000
0000
1000
0000
0000
0130
0000
0002
0000
0000
0000
0013
0000
0100
0000
,
1000
0000
0000
0001
0000
0000
0100
0000
0001
0000
0000
0010
0000
0000
1000
0000
,
0000
0000
0010
0000
0000
0001
0000
0000
0001
0000
0000
0100
0000
0000
1010
0000
,
0000
0000
0100
0000
0000
0001
0000
0000
0001
0000
0000
1000
0000
0000
0010
0000
,
0100
0000
0000
0001
0000
0000
0010
0000
0100
0000
0000
0010
0000
0000
0100
0000
,
1000
0000
0000
0010
0000
0000
1000
0000
0010
0000
0000
0100
0000
0000
0001
0000
,
0000
0000
0101
0000
0000
0001
0000
0000
0100
0000
0000
1000
0000
0000
1100
0000
,
0000
0000
0011
0000
0000
0001
0000
0000
0010
0000
0000
1000
0000
0000
1010
0000
,
0000
0000
1100
0000
0000
0100
0000
0000
0010
0000
0000
0001
0000
0000
0011
0000
,
0110
0110
0000
1001
0000
0110
0000
1001
,
2001
0001
0010
0001
,
0010
0000
0000
0000
0010
0000
0000
0000
0100
0000
0000
0000
3001
0000
0100
0010
,
0100
0002
1000
0000
1000
0000
0100
0000
,
1000
0000
0000
0000
0013
0000
0100
1000
0100
0000
0010
0000
0001
0000
0010
0000
,
0100
2000
0100
0000
0010
0000
0100
0000
,
0100
0000
0001
0000
3010
0000
0110
0100
,
0001
0000
1001
0000
1100
0000
0000
0011
,
0000
0001
0100
1000
0100
0001
0100
0000
,
001M
0000
0000
1000
00M0
0000
0200
0000
M020
0000
0000
0000
000M
0330
0000
0000
,
0M01
0000
0000
1000
00M0
0000
0100
0000
001M
0000
0000
0000
1M01
0000
0000
0000
,
M001
0000
0000
0100
000M
0000
0010
0000
M100
0000
0000
0000
0M01
0000
0010
0000
,
0M01
0000
1000
0000
01M0
0000
0000
0000
000M
0000
1000
0001
10M0
0000
0100
0000
,
M010
0001
01M0
0001
10M0
0100
100M
0100
,
M010
0001
1M00
0010
M100
0001
01M0
0001
,
0M10
1000
00M1
0100
10M0
0001
1M00
0001
,
M100
0010
1M00
0001
M100
0010
010M
0020
,
M000
0000
000M
0000
M00M
0030
0000
00M0
,
2002
0000
0000
0MM0
3003
0000
0000
M00M
0000
0000
0000
0000
0000
0000
0000
0000
;
