#TITLE:Wandering;
#SUBTITLE:;
#ARTIST:A-Rival;
#TITLETRANSLIT:;
#SUBTITLETRANSLIT:;
#ARTISTTRANSLIT:;
#GENRE:;
#CREDIT:;
#BANNER:A-Rival - Wandering banner.jpg;
#BACKGROUND:;
#LYRICSPATH:;
#CDTITLE:;
#MUSIC:A-Rival - Wandering.mp3;
#OFFSET:-0.083000;
#SAMPLESTART:68.084000;
#SAMPLELENGTH:15.117000;
#SELECTABLE:YES;
#BPMS:0.000000=127.010010
;
#STOPS:
;
#BGCHANGES:;
#KEYSOUNDS:;
#ATTACKS:;

//---------------dance-single - ----------------
#NOTES:
     dance-single:
     Shortysnmn2010:
     Beginner:
     1:
     0.100311,0.130032,0.043344,0.034675,0.000000,81.000000,76.000000,5.000000,4.000000,0.000000,0.000000,0.100311,0.130032,0.043344,0.034675,0.000000,81.000000,76.000000,5.000000,4.000000,0.000000,0.000000:
0000
0000
0000
0000
,
0000
0000
0000
0000
,
0000
0000
0000
0000
,
0000
0000
0000
0000
,
0001
0000
0000
0000
,
0010
0000
0000
0000
,
0100
0000
0000
0000
,
1000
0000
0000
0000
,
0001
0000
1000
0000
,
0000
0000
0001
0000
,
0010
0000
0001
0000
,
0000
0000
1000
0000
,
0100
0000
1000
0000
,
0000
0000
0010
0000
,
0100
0000
0020
0000
,
0000
0030
0000
0000
,
1000
0000
0002
0000
,
0003
0000
0010
0000
,
0010
0000
0100
0000
,
0000
0000
1000
0000
,
0001
0000
2000
0000
,
0000
3000
0010
0000
,
0010
0000
0100
0000
,
0000
0000
0001
0000
,
1000
0000
0100
0000
,
0000
0000
0010
0000
,
0100
0000
0010
0000
,
0000
0000
0001
0000
,
1000
0000
0001
0000
,
0000
0000
0010
0000
,
0001
0000
0010
0000
,
0000
0000
0100
0000
,
1000
1000
1000
0000
,
0001
0000
0000
0000
,
0010
0000
0000
0000
,
0001
0000
0000
0000
,
0100
0100
0100
0000
,
0001
0000
0000
0000
,
0010
0000
0000
0000
,
0100
0000
0000
0000
,
0010
0010
0010
0000
,
0001
0000
0000
0000
,
0100
0000
0000
0000
,
1000
0000
0000
0000
,
0001
0001
0001
0000
,
0010
0000
0000
0000
,
1000
0000
0000
0000
,
0100
0000
0000
0000
,
0010
0000
0000
0000
,
1001
0000
0000
0000
,
0100
0000
0000
0000
,
1010
0000
0000
0000
,
0001
0000
0000
0000
,
0110
0000
0000
0000
,
1000
0000
0000
0000
,
1001
0000
0000
0000
,
0001
0000
0000
0000
,
0110
0000
0000
0000
,
0100
0000
0000
0000
,
1000
0000
0002
0000
,
0003
0000
0000
0000
;

//---------------dance-single - ----------------
#NOTES:
     dance-single:
     Shortysnmn2010:
     Easy:
     4:
     0.251396,0.288455,0.086688,0.026006,0.000000,203.000000,193.000000,10.000000,3.000000,0.000000,0.000000,0.251396,0.288455,0.086688,0.026006,0.000000,203.000000,193.000000,10.000000,3.000000,0.000000,0.000000:
0000
0000
0000
0000
,
0000
0000
0000
0000
,
0000
0000
0000
0000
,
0000
0000
0000
0000
,
1000
0001
0000
0001
,
1000
0100
0010
0001
,
1000
1000
0000
0001
,
0200
0000
0300
0000
,
0010
0000
1000
0000
0010
0000
0100
0010
,
0000
1000
0100
0010
,
0110
0000
0001
0000
0001
0000
1000
0010
,
0000
0100
0001
0001
,
0010
0000
0001
0000
0001
0000
0100
0010
,
0000
0100
0001
1000
,
0110
0000
0001
0000
1000
0000
0100
0010
,
0000
0001
2000
3000
,
0010
0000
0100
0000
0001
0000
0001
0010
,
0000
0100
0010
0001
,
1001
0000
1001
0000
1000
0000
0010
1000
,
0000
0000
0001
0010
0000
0000
0100
0000
,
1000
0000
1000
0000
0010
0000
0100
0001
,
0000
0010
0100
1000
,
0110
0000
0110
0000
0001
0000
1000
0010
,
0000
0000
0100
0001
0000
0000
0010
0000
,
0100
0000
1000
0000
0001
0000
0100
0001
,
0000
1000
0100
0010
,
1100
0000
1100
0000
0010
0000
0001
0100
,
0000
0000
0001
0010
0000
0000
0001
0000
,
1000
0000
0100
0000
0100
0000
1000
0001
,
0000
0100
0010
1000
,
0101
0000
0101
0000
0010
0000
1000
0001
,
0000
0010
0000
0100
0000
0000
0000
0000
,
0010
1000
0001
0001
,
0010
0001
1000
1000
,
0100
0000
0100
0000
,
0010
0000
0010
0000
,
0001
0001
0100
0001
,
1000
1000
0100
1000
,
0001
0000
0010
0000
,
0100
0000
1000
0000
,
0010
0010
1000
0100
,
0010
0010
0100
1000
,
0010
0000
0100
0000
,
0001
0000
0010
0000
,
0001
0001
0100
0010
,
0100
0100
0001
0010
,
0001
0000
0100
0000
,
0010
0000
1000
0000
,
0001
0000
0000
1000
0000
1000
0000
0000
,
0010
0000
0000
0100
0000
0100
0000
0000
,
0001
0000
0000
0010
0000
0010
0000
0000
,
0100
0000
1000
0000
0000
0001
0000
0000
,
1000
0000
0000
0010
0000
0010
0000
0000
,
0100
0000
0000
0001
0000
0001
0000
0000
,
0010
0000
0000
0100
0000
0100
0000
0000
,
1000
0010
0100
0001
,
1000
0000
0000
0100
0000
0100
0000
0000
,
0010
0000
0000
0001
0000
0001
0000
0000
,
1000
0000
0001
0000
0010
0000
0000
0001
,
0000
0001
1000
0000
0100
0000
0010
0000
,
0002
0000
0003
0000
;

//---------------dance-single - ----------------
#NOTES:
     dance-single:
     Shortysnmn2010:
     Medium:
     5:
     0.303409,0.313378,0.078019,0.234058,0.004334,245.000000,236.000000,9.000000,27.000000,0.000000,0.000000,0.303409,0.313378,0.078019,0.234058,0.004334,245.000000,236.000000,9.000000,27.000000,0.000000,0.000000:
0000
0000
0000
0000
,
0000
0000
0000
0000
,
0000
0000
0000
0000
,
0000
0000
0000
0000
,
1000
0000
0100
1000
0000
0000
0001
0010
,
0001
0000
0000
1000
0000
0000
0100
0010
,
0100
0000
1000
0100
0000
0000
0010
0001
,
2000
0000
3000
0000
,
0001
0000
0110
0000
0110
0000
1000
0001
,
0000
1000
0100
0000
0010
0000
0001
0000
,
1000
0000
1000
0000
0010
0000
1000
0002
,
0000
0003
0010
0002
0000
0003
0100
0000
,
0010
0000
1001
0000
1001
0000
0010
0001
,
0000
1000
0010
0000
0100
0000
0001
0000
,
0010
0000
0010
0000
0100
0000
1000
0020
,
0000
0030
0100
0020
0000
0030
0000
1000
,
0001
0000
0010
0000
0001
1000
0001
2000
,
0000
0000
3100
0000
0010
0000
0001
0100
,
0001
0000
0001
0000
1000
0000
0010
2000
,
0000
3000
0100
2000
0000
3000
0001
0000
,
0010
0000
0100
0000
1000
0010
1000
0020
,
0000
0000
0130
0000
0001
0000
1000
0100
,
1000
0000
1000
0000
0010
0000
0100
0002
,
0000
0003
0010
0002
0000
0003
0100
0000
,
0010
0000
1000
0000
0001
0010
0001
0020
,
0000
0130
1000
0001
,
0100
0000
0100
0000
0010
0000
1000
0200
,
0000
0300
0010
0200
0000
0300
1000
0000
,
0001
0000
0100
0000
1000
0100
1000
0200
,
0000
0000
0301
0000
1000
0000
0010
0100
,
0001
0000
1000
0000
1000
0000
0100
0020
,
0000
0000
0000
0000
0030
0000
0000
0000
0001
0000
0000
0001
0000
0000
0001
0000
,
1000
0000
0010
0000
1000
0001
1000
0000
,
0100
0000
0010
0000
0100
1000
0100
0000
,
0020
0000
0000
0000
0030
0000
0000
0000
0020
0000
0000
0030
0000
0000
1001
0000
,
0000
0000
0010
1000
,
0100
0000
0010
0000
0100
1000
0100
0000
,
0010
0000
0001
0000
0100
0010
0100
0000
,
0002
0000
0000
0000
0003
0000
0000
0000
0002
0000
0000
0003
0000
0000
0110
0000
,
0000
0000
1000
0001
,
0100
0000
0010
0000
1000
0100
1000
0000
,
0010
0000
0001
0000
0010
1000
0001
0000
,
0200
0000
0300
0020
0000
0030
0000
0020
,
0000
0030
0000
0000
0100
0000
0001
0000
,
0010
0000
0100
0000
1000
0001
0100
0000
,
0001
0000
1000
0000
0010
1000
0001
0000
,
2000
0000
0100
0000
3100
0010
0000
0001
,
0000
0010
0000
0001
0000
0100
0000
0000
,
0110
0000
0000
1000
0000
1000
0000
0000
,
0110
0000
0000
0001
0000
0001
0000
0000
,
0110
0000
0000
1000
0000
1000
0000
0000
,
0100
0000
0100
0001
0000
0010
0100
0000
,
1000
0000
0001
0100
0000
0100
0001
0000
,
1000
0000
0001
0010
0000
0010
0001
0000
,
1000
0000
0100
0010
0000
0010
0100
0000
,
1000
0001
1000
0000
,
0001
0000
0100
0010
0000
0010
0100
0000
,
0001
0000
1000
0010
0000
0010
1000
0000
,
0002
0000
2003
0000
3001
0010
0001
0010
,
0000
0100
0010
0000
0001
0000
0100
0020
,
0000
0030
0000
0000
;

//---------------dance-single - ----------------
#NOTES:
     dance-single:
     Shortysnmn2010:
     Hard:
     7:
     0.442110,0.442110,0.346753,0.216720,0.099691,357.000000,317.000000,40.000000,25.000000,0.000000,0.000000,0.442110,0.442110,0.346753,0.216720,0.099691,357.000000,317.000000,40.000000,25.000000,0.000000,0.000000:
0000
0000
0000
0000
,
0000
0000
0000
0000
,
0000
0000
0000
0000
,
0000
0000
0000
0000
,
1000
0000
0000
0000
0001
0000
0010
0000
0000
0001
0000
0000
0100
0000
0010
0000
,
0100
0000
0000
0001
0000
0000
1000
0000
0000
0100
0000
0000
0010
0000
0100
0000
,
1000
0000
0000
0000
0010
0000
0100
0000
0000
0010
0000
0000
1000
0000
0100
0000
,
4000
0004
0000
0000
0000
0000
0000
0000
0000
0000
3003
0000
0000
0000
0000
0000
,
0101
0000
0101
0000
0010
1000
0100
1000
,
0000
0000
0001
0000
0100
0000
0001
0000
0010
0000
0100
0000
1000
0000
0000
0100
,
1000
0000
0010
0000
1000
0000
0001
0000
0010
0100
0010
0000
0001
0000
2000
0000
,
0000
3000
0100
0002
0000
0003
0100
1000
,
1010
0000
1010
0000
0100
0001
0010
0001
,
0000
0000
1000
0000
0100
0000
1000
0000
0010
0000
0100
0000
0001
0000
0000
1000
,
0100
0000
1000
0000
0010
0000
0100
0000
1000
0100
1000
0000
0100
0000
0002
0000
,
0000
0000
0003
0000
0010
0000
0002
0000
0100
0000
0003
0100
0000
0000
0010
0000
,
1000
0000
1100
0000
0010
0001
0100
1001
,
0000
0001
0010
0001
0100
1000
0100
0002
,
1000
0000
1003
0000
0210
0000
0301
2000
,
0000
3000
0001
1000
0001
0000
1001
0000
,
0010
0000
0110
0000
0001
1000
0100
0011
,
0000
0100
1000
0100
1000
0010
1000
0002
,
0100
0000
0103
0000
2010
0000
3001
0020
,
0000
0030
0100
1000
0100
0000
1001
0000
,
0100
0000
0101
0000
0010
1000
0001
2200
,
0000
3300
0000
0000
0010
0000
0000
0000
0001
0000
0100
0000
0001
0000
2000
0000
,
0100
0000
3100
0000
0012
0000
0103
0020
,
0000
0030
1000
0100
1000
0000
0101
0000
,
0010
0000
1010
0000
0100
0001
0010
1001
,
0000
1000
0010
0001
0010
1000
0001
0100
,
0001
0000
1000
0100
1000
0010
0000
0101
,
0000
0000
1001
0000
0000
0000
1100
0000
0010
0000
0000
0010
0000
0000
0001
0000
,
1000
0000
0110
0000
0001
0100
0001
0000
,
0010
0100
1000
0010
1000
0001
0100
0000
,
2010
0000
3100
0000
2010
0000
3100
0010
,
0001
0000
0100
0010
2000
0000
3001
0000
,
0100
0000
0110
0000
0100
0001
0010
0000
,
0100
1000
0001
1000
0100
0001
0100
0000
,
0012
0000
0100
0000
0010
0000
0103
0010
,
1000
0000
0100
0010
0002
0000
1003
0000
,
0010
0000
0101
0000
0010
1000
0100
0000
,
1000
0001
0100
1000
0100
0001
1000
0000
,
2100
0000
3001
0100
0001
0000
1000
0010
,
1000
0000
0001
0010
0001
0001
0100
0100
,
0001
0000
0110
0000
1000
0100
0001
0000
,
0100
1000
0010
1000
0100
1000
0010
0000
,
0110
0000
1001
0000
0100
0001
1000
0001
,
0010
0001
0100
0001
0010
0001
1000
0100
,
1000
0000
0000
0000
0000
0000
0010
0100
0000
0000
0101
0000
0000
0000
1000
0000
,
0100
0000
0000
0000
0000
0000
0010
0100
0000
0000
1100
0000
0000
0000
0001
0000
,
0100
0000
0000
0000
0000
0000
0010
0100
0000
0000
0101
0000
0000
0000
1000
0000
,
0100
0000
1000
0001
0000
0001
1000
0000
,
0110
0000
0000
0000
0000
0000
1000
0010
0000
0000
1010
0000
0000
0000
0100
0000
,
0001
0000
0000
0000
0000
0000
0001
0010
0000
0000
0011
0000
0000
0000
0100
0000
,
1000
0000
0000
0000
0000
0000
0001
0100
0000
0000
0101
0000
0000
0000
0010
0000
,
1000
0000
0000
0000
0000
0000
0001
0010
0000
0000
0010
0001
0000
0001
0010
0000
,
0100
0000
0000
0000
0000
0000
1000
0010
0000
0000
1001
0000
0000
0000
0100
0000
,
0001
0000
0000
0000
0000
0000
0010
0001
0000
0000
0110
0000
0000
0000
1000
0000
,
0002
0000
0000
0003
0002
0000
0000
0003
2000
0000
0100
3000
0020
0000
0001
0030
,
1000
0000
0004
0400
0000
0000
0000
0000
0000
0000
0000
0000
0000
0000
0000
0000
,
0303
0000
0000
0000
;

//---------------dance-single - ----------------
#NOTES:
     dance-single:
     Shortysnmn2010:
     Challenge:
     9:
     0.534990,0.572142,0.208052,0.251396,0.390097,432.000000,408.000000,24.000000,29.000000,0.000000,0.000000,0.534990,0.572142,0.208052,0.251396,0.390097,432.000000,408.000000,24.000000,29.000000,0.000000,0.000000:
// measure 0
0000
0000
0000
0000
,  // measure 1
0000
0000
0000
0000
,  // measure 2
0000
0000
0000
0000
,  // measure 3
0000
0000
0000
0000
,  // measure 4
0001
0000
0010
0000
0001
0000
0100
0000
0000
0001
0000
0000
0010
0000
0100
0000
,  // measure 5
0010
0000
0000
0011
0000
0000
1100
0000
0000
1001
0000
0000
1000
0000
0010
0000
,  // measure 6
1000
0000
0100
0000
1000
0000
0010
0000
0000
0100
0000
0000
1000
0000
0100
0000
,  // measure 7
0004
0040
0000
0000
0000
0000
0033
0000
0100
1000
0000
0001
0000
0000
0010
0000
,  // measure 8
0001
0000
0000
0000
0101
0000
0000
0000
0010
1000
0001
0000
0100
0000
1001
0000
,  // measure 9
0000
0000
1000
0000
0100
0010
0100
0010
0100
0000
1000
0000
0010
0000
0000
1000
,  // measure 10
0100
0000
0001
0000
0100
0000
1000
0000
0001
0100
0001
0000
2000
0000
0010
0000
,  // measure 11
0000
0000
3000
0000
0002
0000
0100
0000
0000
0000
0003
0000
0010
0100
0010
0100
,  // measure 12
1000
0000
0000
0000
1100
0000
0000
0000
0010
0001
1000
0000
0100
0000
1001
0000
,  // measure 13
0000
0000
0001
0000
0100
0010
0100
0010
0100
0000
0001
0000
0010
0000
0000
0001
,  // measure 14
0100
1000
0100
0001
0010
0100
2000
0100
,  // measure 15
0000
0000
3000
0000
0001
0000
0010
0000
0001
0000
0000
0001
0000
0000
1000
0000
,  // measure 16
0100
0000
0110
0000
0100
1000
0001
0201
,  // measure 17
0000
0000
0310
0000
1000
0001
1000
0001
2000
0000
0100
0000
3002
0000
0010
0003
,  // measure 18
0110
0000
0000
0000
0110
0000
0000
0000
1000
0001
1000
0001
0200
0000
0010
0000
,  // measure 19
0000
0300
0001
2000
0001
0000
3100
0000
,  // measure 20
0110
0000
0000
0000
0100
1000
0100
0010
0001
0000
1000
0100
0010
0001
0020
0000
,  // measure 21
0000
0000
0030
0000
0001
0000
0100
0000
0001
0010
0001
0000
0100
0000
0020
0000
,  // measure 22
0100
0000
0000
0000
0000
0000
0130
0000
0000
0000
0000
0000
0001
0100
0001
1000
0100
1000
0001
0000
0000
0020
0000
0000
,  // measure 23
0000
0030
0000
0000
0100
0000
1000
0000
0001
0000
0100
0000
0002
0000
0000
0000
,  // measure 24
1003
0000
0000
0000
0010
1000
0010
0100
0001
0000
1000
0010
0100
0000
0002
0000
,  // measure 25
0000
0003
0000
0000
0010
0100
0010
0100
1000
0000
0010
0000
0100
0000
0002
0000
,  // measure 26
1000
0000
0000
0000
0010
0000
0000
0000
1003
0100
1000
0001
1000
0000
0020
0000
,  // measure 27
0000
0030
0000
0000
0100
0000
0002
0000
0010
0000
0000
0000
1000
0000
0000
0000
,  // measure 28
0103
0000
0000
0000
0001
0100
0001
1000
0100
0000
1000
0010
1000
0000
0002
0000
,  // measure 29
0000
0000
0010
0000
0013
0000
0100
0000
1000
0000
0010
0000
1000
0000
0100
1000
,  // measure 30
0100
0000
0000
0000
0110
0000
0000
0000
0010
0001
0010
0100
1000
0000
2002
0000
,  // measure 31
0000
0000
3003
0000
0000
0000
0000
0000
0110
0000
0000
1001
0000
0000
0110
0000
,  // measure 32
1000
0000
0100
0000
1000
0010
0100
0010
1000
0000
0100
0010
0100
0000
1000
0000
,  // measure 33
0001
0100
0010
0100
0001
0010
0001
0000
,  // measure 34
1002
0000
0103
0000
2001
0000
3100
0010
,  // measure 35
0000
0000
0000
0000
0000
0000
0001
0000
1000
0100
1000
0001
0100
0001
1000
0000
,  // measure 36
0010
0000
0000
0000
0100
0001
0100
0001
1000
0000
0010
1000
0001
0000
0010
0000
,  // measure 37
1000
0010
0001
1000
0100
0010
0100
0000
,  // measure 38
2200
0000
0000
0000
3300
0000
0000
0000
0001
0010
0001
0010
0100
0000
2000
0000
,  // measure 39
0000
0000
3000
0000
0000
0000
0000
0000
0001
0100
0001
1000
0010
1000
0100
0000
,  // measure 40
0010
0000
0000
0000
0001
0010
0100
0010
0001
0000
1000
0100
0010
0000
0100
0000
,  // measure 41
1000
0000
0001
0000
0100
0000
1000
0000
0001
0000
0010
0000
0100
0010
0100
0001
,  // measure 42
1000
0000
0000
0000
1100
0000
0000
0000
1000
0100
0010
0001
1000
0000
0010
0000
,  // measure 43
0000
0000
0000
0000
0000
0000
0100
0000
0001
0100
0001
0010
0001
1000
0100
0000
,  // measure 44
1000
0000
0000
0000
0010
0100
0010
0100
0001
0000
0010
0100
1000
0000
0100
0000
,  // measure 45
0001
0100
0010
0001
1000
0010
0100
0000
,  // measure 46
0101
0000
1001
0000
0002
0010
0000
2003
,  // measure 47
0000
0100
0000
3002
0000
0103
0000
0000
,  // measure 48
1001
0000
0000
0000
0000
0000
1000
0100
0000
0000
1000
0100
0000
0000
0100
0000
,  // measure 49
1000
0000
0000
0000
0000
0000
0001
0100
0000
0000
0001
0100
0000
0000
0100
0000
,  // measure 50
0001
0000
0000
0000
0000
0000
1000
0010
0000
0000
1000
0010
0000
0000
0010
0000
,  // measure 51
0100
0000
0001
1000
0000
1000
0001
0000
,  // measure 52
1000
0000
0100
0000
1000
0000
0001
0100
0000
0000
0010
0000
0100
0000
0010
0000
,  // measure 53
1000
0000
0100
0000
1000
0000
0001
0100
0000
0000
0001
0000
0010
0000
0001
0000
,  // measure 54
1000
0000
0100
0000
0001
0000
0100
0010
0000
0000
0100
0000
1000
0000
0010
0000
,  // measure 55
0002
0000
0000
0000
0003
0000
0010
0100
0000
0000
0010
0100
0000
0100
0001
1000
,  // measure 56
0010
0000
1000
0000
0100
0000
1000
0001
0000
0000
0010
0000
0001
0000
1000
0000
,  // measure 57
0100
0000
0001
0000
0100
0000
1000
0010
0000
0000
0100
0000
1000
0000
0100
0000
,  // measure 58
0010
0000
0000
0000
0010
0000
0000
0000
0010
1000
0001
0000
2000
0000
0100
0000
,  // measure 59
3000
0000
0400
0040
0000
0000
0000
0000
0000
0000
0000
0000
0000
0000
0000
0000
,  // measure 60
0330
0000
0000
0000
;
