#TITLE:Time to Make History;
#SUBTITLE:;
#ARTIST:Shoji Meguro;
#TITLETRANSLIT:;
#SUBTITLETRANSLIT:;
#ARTISTTRANSLIT:;
#GENRE:;
#CREDIT:;
#MUSIC:Time to Make History - Shoji Meguro.mp3;
#BANNER:Time to Make History banner.jpg;
#BACKGROUND:;
#CDTITLE:;
#SAMPLESTART:90.505;
#SAMPLELENGTH:10.895;
#SELECTABLE:YES;
#OFFSET:-0.348;
#BPMS:0.000=190.000;
#STOPS:;
#BGCHANGES:;
#FGCHANGES:;

//--------------- dance-single - ----------------
#NOTES:
     dance-single:
     Shortysnmn2010:
     Beginner:
     2:
     0.132364,0.190061,0.007919,0.015838,0,117,116,1,2,0,0,0.132364,0.190061,0.007919,0.015838,0,117,116,1,2,0,0:
0000
0000
0000
0000
,
0000
0000
0000
0000
,
0000
0000
0000
0000
,
0000
0000
0000
0000
,
1000
0000
0000
0000
,
0001
0000
0000
0000
,
0010
0000
0000
0000
,
0001
0000
0000
0000
,
1000
0000
0000
0000
,
0010
0000
0000
0000
,
0100
0000
0000
0000
,
0001
0000
0001
0000
,
0001
0000
0000
0000
,
0010
0000
0000
0000
,
0100
0000
0000
0000
,
1000
0000
1000
0000
,
1000
0000
0000
0000
,
0010
0000
0000
0000
,
1000
0000
0000
0000
,
0100
0000
0000
0000
,
0010
0000
0000
0000
,
0001
0000
0000
0000
,
0010
0000
0010
0000
,
0010
0000
0000
0000
,
0200
0000
0000
0300
,
0000
0000
1000
0000
,
0001
0000
0000
0000
,
0010
0000
0000
0000
,
0002
0000
0000
0003
,
0000
0000
0100
0000
,
0010
0000
0000
0000
,
0000
0000
1000
0000
,
0001
0000
0010
0000
,
0001
0000
0010
0000
,
0001
0000
0000
0000
,
1000
0000
0000
0000
,
0100
0000
0000
0000
,
0100
0000
0000
0000
,
1000
0000
0001
0000
,
1000
0000
0000
0000
,
0010
0000
1000
0000
,
0010
0000
1000
0000
,
0010
0000
0000
0000
,
0100
0000
0000
0000
,
0001
0000
0000
0000
,
0010
0000
0000
1000
,
0100
0000
0010
0000
,
0100
0000
0100
0000
,
0100
0000
0000
0000
,
1000
0000
0000
0000
,
0010
0000
0000
0000
,
0100
0000
0000
0000
,
0001
0000
0000
0000
,
0010
0000
0000
0000
,
0001
0000
0000
0000
,
0100
0000
0000
0000
,
0010
0000
0010
0000
,
1000
0000
0000
0000
,
0100
0000
0000
0000
,
0010
0000
0000
0000
,
0100
0000
0000
0000
,
1000
0000
0000
0000
,
0001
0000
0000
0000
,
0010
0000
0000
0000
,
0001
0000
0001
0000
,
1000
0000
0000
0000
,
0010
0000
0000
0000
,
0100
0000
0000
0000
,
0010
0000
0000
0000
,
1000
0000
1000
0000
,
0001
0000
0000
0000
,
0010
0000
0000
0000
,
0100
0000
0100
0000
,
0000
0000
1000
0000
,
1000
0000
0000
0000
,
0010
0000
0000
0000
,
0100
0000
0000
0000
,
0000
0000
0001
0000
,
0001
0000
0000
0000
,
0000
0000
0010
0000
,
0010
0000
0100
0000
,
0010
0000
0100
0000
,
0010
0000
0000
0000
,
0001
0000
0000
0000
,
1000
0000
0100
0000
,
1000
0000
0000
0000
,
0001
0000
0010
0000
,
0001
0000
0000
0000
,
1000
0000
0001
0000
,
1000
0000
0001
0000
,
1000
0000
0000
0000
,
0000
0000
0010
0000
,
0100
0000
0001
0000
,
0000
0000
0000
0010
,
0100
0000
0001
0000
,
1000
0000
0000
0000
,
1001
0000
0000
0000
;

//--------------- dance-single - ----------------
#NOTES:
     dance-single:
     Shortysnmn2010:
     Easy:
     4:
     0.262466,0.347456,0.055435,0.142546,0,232,225,7,18,0,0,0.262466,0.347456,0.055435,0.142546,0,232,225,7,18,0,0:
0000
0000
0000
0000
,
0000
0000
0000
0000
,
0000
0000
0000
0000
,
0000
0000
0000
0000
,
1000
0000
0001
0000
,
0100
0000
0000
0001
0000
0000
0010
0000
,
0001
0000
1000
0000
,
0100
0000
0000
0000
,
1000
0000
0000
0010
0000
0000
0100
0000
,
0100
0000
0000
0001
,
0010
0000
0000
0001
0000
0000
1000
0000
,
0100
0010
0001
1000
,
0001
0100
0010
1000
,
0001
0000
1000
0000
0100
0000
0000
0100
,
0000
0000
0010
0000
0001
0000
0000
0010
,
0000
0100
1000
0100
,
0010
0000
0001
0000
,
0100
0000
0000
0100
0000
0000
0001
0000
,
0010
0000
0100
0000
,
1000
0000
0000
1000
0000
0000
0100
0000
,
0010
0000
0001
0000
,
0010
0000
0000
0010
0000
0000
0001
0000
,
0100
0000
0010
0000
,
1000
0000
0000
0000
,
0001
0000
1000
0000
,
0010
0000
0000
0100
0000
0100
0000
0000
,
0010
0000
0000
1000
0000
0001
0000
1000
,
0000
0000
0100
0000
,
0010
0000
0001
0000
,
1000
0000
0000
0010
0000
0010
0000
0000
,
0100
0000
0000
0001
0000
1000
0000
0001
,
0000
0000
0010
0000
,
0200
0300
0200
0300
,
0200
0300
1000
0000
,
0010
0100
0010
0000
,
0100
0010
0100
0000
,
0001
0000
0000
0000
0010
0000
0000
0001
,
0000
1000
0000
0001
0000
0000
0000
0000
,
1001
0000
1001
0000
,
0020
0000
0030
0000
,
2000
3000
2000
3000
,
2000
3000
0010
0000
,
0100
0001
0100
0000
,
0001
0100
0001
0000
,
1000
0010
2000
0000
,
0000
3000
0000
0010
,
0100
0001
0010
0000
,
0001
1000
0001
0010
,
0200
0000
0000
0000
,
0000
0000
0300
0000
,
1000
0000
0001
0000
,
1001
0000
0000
0000
,
0010
0000
0100
0000
,
0110
0000
0000
0000
,
0001
0000
0010
0000
,
0011
0000
0000
0000
,
1000
0000
0000
0010
0000
0000
0100
0000
,
0100
0000
0000
0001
,
0010
0000
0000
0001
0000
0000
1000
0000
,
0010
0100
0001
1000
,
0001
0100
0010
1000
,
0001
0000
0010
0000
0001
0000
0000
1000
,
0000
0000
0010
0000
0100
0000
0000
0001
,
0000
0000
1000
0000
,
0100
0000
0100
0000
,
1000
0000
0000
0001
0000
0000
0010
0000
,
0001
0000
0001
0000
,
1000
0000
0000
0010
0000
0000
0100
0000
,
0001
0000
0001
0000
,
1000
0000
0000
0100
0000
0000
0010
0000
,
0100
0000
1000
0000
,
0010
0000
0000
0000
,
0100
0000
0001
0000
,
1000
0000
0000
0010
0000
0010
0000
0000
,
0100
0000
0000
0010
0000
0100
0000
0010
,
0000
0000
1000
0000
,
0001
0000
0010
0000
,
0100
0000
0000
1000
0000
1000
0000
0000
,
0010
0000
0000
1000
0000
0001
0000
1000
,
0000
0000
0100
0000
,
0020
0030
0020
0030
,
0020
0030
1000
0000
,
0001
0100
0001
0000
,
1000
0100
1000
0000
,
0010
0000
0000
0000
0100
0000
0000
0001
,
0000
0100
0000
0001
0000
0000
0000
0000
,
1001
0000
1001
0000
,
0200
0000
0300
0000
,
0002
0003
0002
0003
,
0002
0003
0010
0000
,
0100
1000
0010
0000
,
0010
1000
0100
0000
,
0010
0001
0100
0000
,
0001
1000
0001
0000
,
0010
0100
1000
0000
,
0001
0100
0001
2000
,
0020
0000
0000
0000
,
0000
0000
3030
0000
;

//--------------- dance-single - ----------------
#NOTES:
     dance-single:
     Shortysnmn2010:
     Medium:
     6:
     0.400486,0.499307,0.079192,0.332607,0,354,344,10,42,0,0,0.400486,0.499307,0.079192,0.332607,0,354,344,10,42,0,0:
0000
0000
0000
0000
,
0000
0000
0000
0000
,
0000
0000
0000
0000
,
0000
0000
0000
0000
,
2000
3000
0002
0003
,
0010
0000
0000
0100
0000
0100
1000
0000
,
0020
0030
0200
0300
,
1001
0000
0000
0000
,
1000
0000
1000
0001
0000
0000
0010
0000
,
0110
0000
0001
1000
0000
1000
0001
0000
,
0010
0100
1000
0001
,
0010
0000
0100
0010
0100
0000
0010
0100
,
0010
0000
0100
1000
0100
0000
1000
0100
,
1000
0000
0001
0100
0001
0000
0000
0100
,
0000
0000
0010
0000
1000
0001
0000
0001
,
0000
0001
1000
0000
0010
0000
0100
0010
,
0100
0000
0001
0100
0000
0000
0020
0000
,
0000
0000
0030
1001
,
2000
3000
0002
0003
,
0100
0000
0000
0010
0000
0010
1000
0000
,
0200
0300
0020
0030
,
0001
0000
0000
0100
0000
0100
0001
0000
,
0020
0030
0200
0300
,
0010
0000
0000
0001
0000
0001
1000
0000
,
0001
0001
0000
0000
1000
1000
0000
0000
,
0010
0010
0000
0100
0000
0100
0000
0001
,
0100
0001
0000
1000
0000
1000
0000
0010
,
0000
0010
0000
1000
0001
1000
0000
0001
,
0010
0010
0000
0000
0001
0001
0000
0000
,
1000
1000
0000
0100
0000
0100
0000
0010
,
0001
0010
0000
0100
0000
0100
0000
1000
,
0000
1000
0000
0001
0100
0000
0000
0000
,
1000
0010
0001
0010
,
1000
0000
0001
0000
0010
0001
0000
1000
,
0100
0010
0001
1000
,
0010
0000
1000
0000
0001
0100
0000
0002
,
0000
0003
0000
0000
1000
0100
0000
1000
,
0000
0010
0000
0010
1000
0000
0100
0000
,
0020
0030
0002
0003
,
2002
0000
3003
0000
,
0001
0100
1000
0100
,
0001
0000
1000
0000
0010
0100
0000
0001
,
0100
0010
1000
0100
,
0010
0001
2000
0010
,
0100
3010
2002
0000
,
3003
0000
0000
0100
,
0001
0010
0200
0300
,
1000
0001
1000
0010
,
0200
0300
0002
0003
,
0010
0000
0000
0100
0000
1000
0010
0000
,
2000
3000
0002
0003
,
0100
0000
0000
1000
0000
0100
0010
0000
,
2000
3000
0002
0003
,
0010
0000
0000
1000
0000
0010
0001
0000
,
2000
3000
0200
0300
,
0001
0000
0000
0100
0000
0100
1000
0000
,
0010
0000
0000
0110
0000
0000
0100
0001
,
0100
0000
0000
0000
0000
0010
1000
0000
,
0001
0000
0010
0001
0000
0001
1000
0000
,
0100
0000
1000
0100
1000
0000
0100
0010
,
0100
0000
0010
0001
0010
0000
0001
1000
,
0001
0000
0100
0001
0100
0000
0000
0010
,
0000
0000
1000
0000
0001
0100
0000
0100
,
0000
0100
0001
0000
0010
0000
0100
0000
,
1000
0000
0001
0100
0000
0000
0002
0000
,
0000
0000
0003
1001
,
2000
3000
0200
0300
,
0010
0000
0000
0001
0000
0001
0100
0000
,
0020
0030
0200
0300
,
0001
0000
0000
0001
0000
0001
0010
0000
,
0200
0300
2000
3000
,
0010
0000
0000
0010
0000
1000
0100
0000
,
1000
1000
0000
0000
0001
0001
0000
0000
,
0010
0010
0000
0001
0000
0100
0000
0100
,
0001
0100
0000
0010
0000
0010
0000
1000
,
0000
0001
0000
0010
0100
1000
0000
0100
,
0010
0010
0000
0000
0100
0100
0000
0000
,
1000
1000
0000
0001
0000
0100
0000
0001
,
0010
0001
0000
1000
0000
1000
0000
0010
,
0000
0100
0000
0001
1000
0000
0000
0000
,
0001
0010
1000
0010
,
0001
0000
1000
0000
0100
0010
0000
0001
,
0100
0001
1000
0100
,
0010
0000
0100
0000
1000
0010
0000
1010
,
0000
0000
0000
0000
0100
0001
0000
0101
,
0000
0001
0000
0010
0001
0000
0100
0000
,
0010
0000
1000
0100
1000
0000
0001
0100
,
0002
0000
0000
0003
,
1000
0100
0001
0100
,
1000
0000
0010
0000
1000
0001
0000
0001
,
1000
0010
0100
0001
,
0010
0001
0200
1000
,
0001
1300
0220
0000
,
0000
0330
0000
0001
,
0010
0100
2000
3000
,
0001
0100
0001
2000
,
0020
0000
0000
0000
,
3030
0000
0000
0000
;

//--------------- dance-single - ----------------
#NOTES:
     dance-single:
     Shortysnmn2010:
     Hard:
     8:
     0.537376,0.614532,0.348446,0.221738,0,475,431,44,28,0,0,0.537376,0.614532,0.348446,0.221738,0,475,431,44,28,0,0:
0000
0000
0000
0000
,
0000
0000
0000
0000
,
0000
0000
0000
0000
,
0000
0000
0000
0000
,
1000
0100
0010
0000
0100
1000
0010
0000
,
0100
0001
0100
0001
0000
0010
0001
0000
,
0100
0001
0010
0000
0100
0010
0001
0000
,
0100
0000
0000
0200
0000
0000
0300
0000
,
0110
0000
1000
0001
0000
0000
0010
0100
,
1000
0000
0010
0100
0000
0100
0010
1000
,
0001
0000
1000
0100
0000
0010
0100
1000
,
0100
0000
0100
0001
0100
0000
0100
0010
,
0100
0000
0100
1000
0100
0000
0100
0010
,
0100
0000
0100
0001
0100
1000
0000
1001
,
0000
0000
0001
0100
0010
1000
0000
1001
,
0000
0002
0100
0000
0103
0000
0010
1000
,
0100
0000
1000
0010
0000
0000
2002
0000
,
0000
0000
0000
3003
0000
0010
0100
0000
,
1000
0100
1000
0000
0101
0000
1000
0010
,
0100
0010
0000
0110
0000
0100
0001
0000
,
1000
0000
0100
1000
0100
0010
0001
0000
,
1001
0000
1000
0100
0000
0001
0100
0000
,
1000
0010
0000
0110
0000
0100
0001
0000
,
1000
0000
0000
1001
0000
0001
0100
0000
,
0010
0010
0000
0000
0100
0100
0000
0000
,
0001
1000
0000
1100
0000
1001
0000
0100
,
0001
0010
0000
0110
0000
1100
0000
0110
,
0000
0100
1000
0100
0010
0000
0001
1000
,
0100
0100
0000
0000
0010
0010
0000
0000
,
0001
1000
0000
1010
0000
1100
0000
0010
,
0001
0100
0000
0100
0000
0001
0000
0001
,
0000
0010
0000
0010
0200
0000
0300
0000
,
1000
0001
0100
0001
1000
0010
0100
0001
,
1000
0010
1000
0100
0010
0001
0000
2002
,
0000
0000
0000
0000
0000
0000
0000
3003
,
0000
0000
0000
0000
1000
0001
0000
0110
,
0000
0000
0000
0000
0001
1000
0000
0110
,
0000
0110
0000
1000
0001
0000
0010
0000
,
0001
0000
1000
0100
1000
0000
0001
0100
,
0002
0000
0003
0000
,
0100
0010
1000
0100
0010
0100
0010
0001
,
0100
0010
0100
0010
1000
0100
0000
2200
,
0000
0000
0000
0000
0000
0000
0000
3300
,
0000
0000
0010
0001
,
0100
1000
0200
0001
,
0301
1000
0010
0100
,
0001
0001
0022
0033
,
0100
1000
0010
0110
,
0100
0001
0010
0000
0100
0010
0001
0000
,
0100
0010
0100
0010
0000
1000
0010
0000
,
1000
0100
0010
0000
0100
1000
0010
0000
,
0100
0010
0100
0010
0000
0100
0001
0000
,
0010
0100
0010
0000
0100
0010
0100
0000
,
1000
0001
1000
0001
0000
0100
0010
0000
,
1000
0001
1000
0000
0001
1000
0001
0000
,
0010
0000
0000
0020
0000
0000
0030
0000
,
0001
0000
1000
0100
0000
0000
1000
0010
,
0100
0000
0001
1000
0000
1000
0001
0010
,
0100
0000
1000
0100
0000
0010
0001
1000
,
0010
0000
0010
0001
0010
0000
0010
1000
,
0010
0000
0010
0001
0010
0000
0010
0100
,
0010
0000
0010
0001
0010
1000
0000
1001
,
0000
0000
1000
0100
1000
0001
0000
0101
,
0000
0002
0010
0000
0013
0000
0001
1000
,
0100
0000
0010
0100
0000
0000
0220
0000
,
0000
0000
0000
0330
0000
1000
0001
0000
,
0100
0010
0100
0000
1001
0000
0010
0001
,
0010
0100
0000
1100
0000
1000
0010
0000
,
0100
0000
0001
0100
0010
0100
0001
0000
,
1000
0000
0100
0001
0000
0100
0001
0000
,
0100
1000
0000
1001
0000
0001
0100
0000
,
0010
0000
0000
0110
0000
0100
0010
0000
,
1000
1000
0000
0000
0001
0001
0000
0000
,
0010
0100
0000
1100
0000
1001
0000
0100
,
0001
0010
0000
0011
0000
1001
0000
0101
,
0000
0010
1000
0010
1000
0000
0100
0010
,
0001
0001
0000
0000
1000
1000
0000
0000
,
0010
1000
0000
1100
0000
1001
0000
0001
,
0010
0001
0000
0100
0000
0100
0000
0001
,
0000
0001
0000
0010
0200
0000
0300
0000
,
1000
0001
0100
0001
0010
0100
1000
0001
,
0010
0001
1000
0100
0010
0001
0000
2002
,
0000
0000
0000
0000
0000
0000
0000
3003
,
0000
0000
0000
0000
0010
1000
0000
1001
,
0000
0000
0000
0000
0100
0001
0000
1001
,
0000
1001
0000
0010
0001
0000
1000
0000
,
0100
0000
0010
0001
0100
0000
0010
1000
,
0200
0000
0300
0000
,
1000
0001
0100
0001
0100
0010
0001
1000
,
0100
0001
0100
0001
1000
0100
0000
2200
,
0000
0000
0000
0000
0000
0000
0000
3300
,
0000
0000
0010
0001
,
0100
0010
0200
0001
,
0301
1000
0100
0010
,
0001
0001
2002
3003
,
1000
0010
0001
0100
,
2002
0000
0000
0000
,
3003
0000
0000
0000
;
