#TITLE:Something's Going On;
#SUBTITLE:;
#ARTIST:September;
#TITLETRANSLIT:;
#SUBTITLETRANSLIT:;
#ARTISTTRANSLIT:;
#GENRE:;
#CREDIT:;
#MUSIC:Something's Going On - September.mp3;
#BANNER:;
#BACKGROUND:;
#CDTITLE:;
#SAMPLESTART:93.800;
#SAMPLELENGTH:14.993;
#SELECTABLE:YES;
#OFFSET:-0.050;
#BPMS:0.000=128.000
,229.000=129.000
,231.000=128.001
;
#STOPS:;
#DISPLAYBPM:128.000;
#BGCHANGES:;
#FGCHANGES:;

//--------------- dance-single - ----------------
#NOTES:
     dance-single:
     Shortysnmn2010:
     Beginner:
     1:
     0.096488,0.15721,0.031054,0.031054,0,87,83,4,4,0,0,0.096488,0.15721,0.031054,0.031054,0,87,83,4,4,0,0:
0000
0000
0000
0000
,
0000
0000
0000
0000
,
0000
0000
0000
0000
,
0000
0000
0000
0000
,
1000
0000
0000
0000
,
0010
0000
0000
0000
,
0100
0000
0001
0000
,
0000
0000
0001
0000
,
0010
0000
0000
0000
,
0100
0000
0000
0000
,
1000
0000
0000
0000
,
0010
0000
0000
0000
,
0100
0000
0100
0000
,
0100
0000
0000
0000
,
0001
0000
0000
0000
,
1001
0000
0000
0000
,
1000
0000
0000
0000
,
0100
0000
0000
0000
,
0010
0000
0000
0000
,
0001
0000
1000
0000
,
0001
0000
0000
0000
,
0100
0000
0000
0000
,
0010
0000
0000
0000
,
1000
0000
0001
0000
,
1000
0000
0000
0000
,
0100
0000
0000
0000
,
0001
0000
0000
0000
,
0100
0000
0010
0000
,
0100
0000
0000
0000
,
1000
0000
0000
0000
,
0010
0000
0000
0000
,
0001
0000
0010
0000
,
2000
3000
0002
0003
,
2000
3000
0002
0003
,
0010
0000
0000
0000
,
0100
0000
0000
0000
,
1000
0000
0010
0000
,
0000
0000
0010
0000
,
1000
0000
0000
0000
,
0001
0000
0000
0000
,
0010
0000
0100
0000
,
0000
0000
0100
0000
,
0010
0000
0000
0000
,
0001
0000
0000
0000
,
0100
0000
1000
0000
,
0100
0000
0000
0000
,
0010
0000
1000
0000
,
0001
0000
0000
0000
,
0010
0000
0000
0000
,
0110
0000
0000
0000
,
0001
0000
0000
0000
,
1000
0000
0000
0000
,
0010
0000
0000
0000
,
0100
0000
0001
0000
,
0010
0000
0000
0000
,
0100
0000
0000
0000
,
1000
0000
1000
0000
,
0001
0000
0001
0000
,
1000
0000
0000
0000
,
0010
0000
0000
0000
,
0100
0000
0000
0000
,
0001
0000
0010
0000
,
0010
0000
0000
0000
,
0001
0000
0000
0000
,
0100
0000
0010
0000
,
0100
0000
0010
0000
,
0100
0000
0000
0000
,
1001
0000
1001
0000
;

//--------------- dance-single - ----------------
#NOTES:
     dance-single:
     Shortysnmn2010:
     Easy:
     3:
     0.155269,0.209613,0,0.093161,0,140,140,0,12,0,0,0.155269,0.209613,0,0.093161,0,140,140,0,12,0,0:
0000
0000
0000
0000
,
0000
0000
0000
0000
,
0000
0000
0000
0000
,
0000
0000
0000
0000
,
1000
0100
0100
1000
,
0001
0000
0010
0000
,
0001
0000
0000
0000
,
1000
0000
0000
0000
,
0010
1000
0001
0100
,
0100
0000
0100
0000
,
0100
0001
1000
0010
,
0010
0000
0010
0000
,
0100
0001
0100
0001
,
0001
0000
1000
0000
,
0100
0000
0000
0000
,
0010
0000
0000
0000
,
0001
1000
0001
0000
,
1000
0000
0100
0000
,
1000
0000
0000
0000
,
0001
0000
0000
0000
,
0010
0100
0010
0000
,
0100
0000
1000
0000
,
1000
0000
0001
0000
,
1000
0000
0001
0001
,
0001
0010
0001
0000
,
1000
0000
0100
0000
,
0010
0000
0000
0000
,
0100
0000
0000
0000
,
1000
0010
1000
0000
,
0001
0000
0100
0000
,
0001
0000
0001
0000
,
1000
0000
1000
0001
,
2000
3000
0002
0003
,
2000
3000
0002
0003
,
1000
0010
0010
0100
,
0001
0000
1000
0000
,
0100
0000
0000
0000
,
1000
0000
0000
0000
,
0010
0100
0100
0001
,
0010
0000
0100
0000
,
1000
0000
0000
0000
,
0001
0000
0000
0000
,
1000
0010
0010
0000
,
1000
0000
0001
0000
,
0100
0001
0001
0000
,
0010
0000
0100
0000
,
1000
0001
1000
0000
,
0010
0000
0010
0000
,
0100
0000
0000
0000
,
0100
0000
0000
0000
,
0010
1000
0100
0000
,
1000
0000
0001
0000
,
0010
0000
0001
0000
,
0100
0000
0000
0000
,
0001
1000
0010
0000
,
0100
0000
0001
0000
,
0020
0030
0200
0300
,
0020
0030
0200
0300
,
1000
0010
0001
0000
,
0010
0000
0100
0000
,
0001
0000
0010
0000
,
0100
0000
0000
0000
,
1000
0001
0100
0000
,
0010
0000
1000
0000
,
0002
0003
0020
0030
,
0200
0300
2000
3000
,
0010
0010
0010
0100
,
0001
0001
0001
0000
;

//--------------- dance-single - ----------------
#NOTES:
     dance-single:
     Shortysnmn2010:
     Medium:
     5:
     0.301665,0.341882,0.194086,0.178559,0,272,247,25,23,0,0,0.301665,0.341882,0.194086,0.178559,0,272,247,25,23,0,0:
0000
0000
0000
0000
,
0000
0000
0000
0000
,
0000
0000
0000
0000
,
0000
0000
0000
0000
,
1000
0000
0001
0000
1000
0000
0010
0001
,
0010
0100
0200
0300
,
0000
0001
0010
0000
0001
0100
0000
0001
,
0000
0001
0010
0000
0001
0100
0000
0001
,
1000
0000
0001
0000
1000
0000
0100
0001
,
0100
0000
0000
2000
0000
3000
0000
0000
,
1000
0000
0001
0000
1000
0000
0010
0001
,
0010
0000
0000
2000
0000
3000
0000
0000
,
0000
1000
0100
0000
0010
0000
0001
0000
,
0100
0000
0010
1000
0200
0000
0300
0000
,
2000
3000
0020
0030
,
0200
0000
0000
0300
0001
0000
0010
0000
,
0001
0000
1100
0000
0101
0000
0000
0010
,
0000
0010
1000
0000
0100
0000
0010
0000
,
0002
0000
0010
0010
,
1000
0100
2000
3003
,
0010
0000
1010
0000
0011
0000
0000
0100
,
0000
0100
1000
0000
0010
0000
0100
0001
,
0000
0000
0001
1000
0000
0000
1000
0010
,
0000
0000
0010
0100
0000
0001
0000
0100
,
0010
0000
1010
0000
1100
0000
0000
0010
,
0000
0010
0001
0000
0100
0000
0010
0000
,
2000
0000
0100
0100
,
0010
0001
0200
3300
,
0010
0000
0011
0000
0101
0000
0000
0010
,
0000
0010
1000
0000
0100
0000
1000
0010
,
0000
0000
0010
0100
0000
0000
0100
0001
,
0000
0000
0001
0010
0000
0100
0000
1000
,
0001
1001
1000
1001
,
0001
1001
1000
1001
,
0001
0000
0010
0001
0100
0000
0100
0001
,
0010
0100
2000
3000
,
0000
0010
1000
0000
0100
1000
0000
0010
,
0000
0010
1000
0000
0100
1000
0000
0010
,
0100
0001
0010
0100
,
1000
0001
0010
0000
0002
0000
0003
0000
,
0000
0100
0001
0000
0010
0001
0000
0100
,
0000
0100
0001
0000
0010
0001
0000
0100
,
0010
0000
1000
0000
0001
0000
0100
0010
,
0001
0000
0000
2000
0000
3000
0000
0100
,
0001
0010
1000
0010
,
0001
0000
0000
0200
0000
0300
0000
0000
,
0000
1000
0001
0000
0010
0000
0010
0000
,
1000
0000
0010
0001
1000
0000
0000
0000
,
0020
0030
0200
0300
,
0020
0030
1001
0110
,
1000
0000
1100
0000
1001
0000
0000
0001
,
0000
0001
0100
0000
0010
0000
1000
0000
,
0200
0000
0001
0001
,
1000
0010
2000
3300
,
0010
0000
1010
0000
0101
0000
0000
1000
,
0000
1000
0100
0000
0010
0000
0001
0010
,
0000
0000
0010
1000
0000
0000
1000
0010
,
0000
0000
0010
0001
0000
1000
0000
0001
,
0100
0000
0101
0000
1010
0000
0000
0001
,
0000
0001
0100
0000
1000
0000
0100
0000
,
0002
0000
1000
1000
,
0100
0010
0200
0303
,
1000
0000
1100
0000
1001
0000
0000
0001
,
0000
0001
0100
0000
0010
0000
1000
0010
,
0000
0000
0010
0100
0000
0000
0100
1000
,
0000
0000
1000
0100
0000
0001
0000
0000
,
1000
1100
0100
1100
,
1000
1100
0200
0300
;

//--------------- dance-single - ----------------
#NOTES:
     dance-single:
     Shortysnmn2010:
     Hard:
     7:
     0.458043,0.525973,0.240666,0.139742,0,413,382,31,18,0,0,0.458043,0.525973,0.240666,0.139742,0,413,382,31,18,0,0:
0000
0000
0000
0000
,
0000
0000
0000
0000
,
0000
0000
0000
0000
,
0000
0000
0000
0000
,
1000
0001
0100
0010
0001
0010
0100
0001
,
0010
0100
1000
0100
0020
0000
0030
0000
,
0100
2000
0010
0000
0001
0001
0000
0100
,
0000
0001
0001
0000
0010
0010
0000
3001
,
0010
0100
0010
0100
1000
0010
0100
1000
,
0100
0010
1000
0200
0000
0300
0000
0010
,
0001
1000
0001
1000
0100
0001
0100
1000
,
0001
0010
0001
0200
0000
0300
0000
0000
,
0010
1000
0100
1000
0100
0010
1000
0010
,
0001
0100
1000
0100
0002
0000
0003
0000
,
2000
3000
0200
0300
,
0002
0003
0110
0110
,
1000
0000
1100
0000
1001
0000
0010
0001
,
0000
0001
0100
0010
0100
0000
0001
1000
,
0100
0010
0100
1000
0010
0100
0001
0010
,
0100
1000
0010
1000
0000
0100
0000
0010
,
0001
0000
0101
0000
1001
0000
0010
1000
,
0000
1000
0100
1000
0001
0100
0010
0100
,
0001
0000
0010
0100
1000
0000
0010
0100
,
0001
0000
0010
0100
1000
0100
0001
0100
,
1000
0000
1010
0000
1100
0000
0001
1000
,
0000
0001
0100
0001
0010
0000
0001
0100
,
1000
0100
0001
1000
0010
0100
0001
1000
,
0100
1000
0100
0010
0001
0000
1000
0100
,
1000
0000
0101
0000
0011
0001
1000
0100
,
0000
0100
1000
0010
0100
1000
0100
0001
,
1000
0000
0010
1000
0001
0000
0100
0001
,
1000
0000
0100
1000
0001
0000
0010
0000
,
0110
0100
0010
0100
0110
0010
0100
0010
,
0110
0100
0010
0100
0110
0000
0110
0000
,
0001
0100
0001
0010
0001
1000
0100
0010
,
0100
1000
0010
0100
0002
0000
0003
0000
,
1000
0100
0010
0000
0100
1000
0000
1010
,
0000
1000
0100
0000
0010
0100
0000
1000
,
0001
0100
1000
0100
0001
1000
0010
0001
,
0010
1000
0001
0100
0020
0000
0030
0000
,
0100
0001
0010
0000
0100
0010
0000
0011
,
0000
0001
0100
0000
0010
0100
0000
0001
,
0010
0100
1000
0010
1000
0100
0010
0001
,
0100
0001
1000
0200
0000
0300
0000
1000
,
0010
0100
0001
1000
0001
0010
0100
1000
,
0010
1000
0001
0200
0000
0300
0000
0000
,
0001
1000
0010
0001
1000
0100
0001
1000
,
0100
0001
1000
0010
0002
0000
0003
0000
,
2000
3000
0020
0030
,
0002
0003
0110
0110
,
1000
0000
0101
0000
1001
0000
0001
0010
,
0000
0010
0001
0100
0001
0000
1000
0100
,
1000
0010
0100
0001
1000
0001
0100
0010
,
0100
0001
0000
1000
0000
0010
0000
0100
,
0001
0000
1010
0000
0110
0000
0100
0001
,
0000
0001
1000
0010
1000
0100
0010
0001
,
0100
0000
0010
1000
0100
0000
0100
1000
,
0010
0000
0100
0001
0010
0000
0100
0000
,
0010
0000
1100
0000
0101
0000
0010
1000
,
0000
0100
1000
0010
1000
0000
0001
0010
,
1000
0010
0001
1000
0100
0010
0100
1000
,
0010
0100
0001
0010
0001
0000
0100
0010
,
1000
0000
0101
0000
0011
0001
1000
0010
,
0000
0100
0001
0100
0010
1000
0001
1000
,
0100
0000
1000
0001
0010
0000
0001
1000
,
0010
0000
0100
0001
1000
0000
0100
0000
,
1001
0001
1000
0001
1001
1000
0001
1000
,
1001
0001
1000
0001
2002
0000
3003
0000
;
