#TITLE:Sleep-walking;
#SUBTITLE:;
#ARTIST:Dreamcatcher;
#TITLETRANSLIT:;
#SUBTITLETRANSLIT:;
#ARTISTTRANSLIT:;
#GENRE:;
#CREDIT:;
#MUSIC:Sleep-walking - Dreamcatcher.mp3;
#BANNER:;
#BACKGROUND:;
#CDTITLE:;
#SAMPLESTART:93.824;
#SAMPLELENGTH:11.034;
#SELECTABLE:YES;
#OFFSET:-0.027;
#BPMS:0.000=174.000
,271.000=172.300
,272.000=174.001
;
#STOPS:;
#DISPLAYBPM:174.000;
#BGCHANGES:;
#FGCHANGES:;

//--------------- dance-single - ----------------
#NOTES:
     dance-single:
     Shortysnmn2010:
     Beginner:
     1:
     0.097553,0.141452,0,0.016259,0,84,84,0,2,0,0,0.097553,0.141452,0,0.016259,0,84,84,0,2,0,0:
0000
0000
0000
0000
,
0000
0000
0000
0000
,
0000
0000
0000
0000
,
0000
0000
0000
0000
,
1000
0000
0001
0000
,
0000
0000
0000
0000
,
0010
0000
0000
0000
,
0100
0000
0000
0000
,
0010
0000
0100
0000
,
0000
0000
0000
0000
,
1000
0000
0000
0000
,
0010
0000
0000
0000
,
0100
0000
0100
0000
,
0000
0000
0000
0000
,
0001
0000
0001
0000
,
0000
0000
0000
0000
,
1000
0000
1000
0000
,
0000
0000
0000
0000
,
0010
0000
0010
0000
,
0000
0000
0000
0000
,
0100
0000
0000
0000
,
0001
0000
0000
0000
,
0010
0000
0000
0000
,
0001
0000
0000
0000
,
1000
0000
0000
0000
,
0100
0000
0000
0000
,
0010
0000
0000
0000
,
0001
0000
0000
0000
,
1000
0000
0000
0000
,
0010
0000
0000
0000
,
1000
0000
0000
0000
,
0001
0000
0000
0000
,
0100
0000
0000
0000
,
0010
0000
0000
0000
,
0100
0000
0000
0000
,
0001
0000
0000
0000
,
1000
0000
0000
0000
,
0000
0000
0000
0000
,
0010
0000
0000
0000
,
0000
0000
0000
0000
,
0100
0000
0000
0000
,
0000
0000
0000
0000
,
0010
0000
0000
0000
,
0000
0000
0000
0000
,
1000
0000
1000
0000
,
1000
0000
0000
0000
,
0001
0000
0001
0000
,
0001
0000
0000
0000
,
1000
0000
1000
0000
,
1000
0000
0000
0000
,
0001
0000
0001
0000
,
0001
0000
0000
0000
,
0010
0000
0000
0000
,
0100
0000
0000
0000
,
0010
0000
0000
0000
,
0001
0000
0000
0000
,
0100
0000
0000
0000
,
0010
0000
0000
0000
,
1000
0000
0000
0000
,
0001
0000
0000
0000
,
1000
0000
1000
0000
,
1000
0000
0000
0000
,
0100
0000
0000
0000
,
0010
0000
0000
0000
,
0001
0000
0001
0000
,
0001
0000
0000
0000
,
0010
0000
0000
0000
,
0100
0000
0000
0000
,
1000
0000
1000
0000
,
0000
0000
0000
0000
,
0010
0000
0010
0000
,
0000
0000
0000
0000
,
0100
0000
0100
0000
,
0000
0000
0000
0000
,
0001
0000
0001
0000
,
0000
0000
0000
0000
,
0010
0000
0100
0000
,
0000
0000
0000
0000
,
1000
0000
0100
0000
,
0000
0000
0000
0000
,
0010
0000
0001
0000
,
0000
0000
0000
0000
,
0100
0000
0010
0000
,
0000
0000
0000
0000
,
2000
0000
0000
0000
,
3000
0000
0000
0000
,
0002
0000
0000
0000
,
0003
0000
0000
0000
;

//--------------- dance-single - ----------------
#NOTES:
     dance-single:
     Shortysnmn2010:
     Easy:
     4:
     0.290336,0.49935,0.105682,0.105682,0,250,237,13,13,0,0,0.290336,0.49935,0.105682,0.105682,0,250,237,13,13,0,0:
0000
0000
0000
0000
,
0000
0000
0000
0000
,
0000
0000
0000
0000
,
0000
0000
0000
0000
,
1000
0010
0000
1000
,
0000
1000
0000
0010
,
0000
0010
0000
1000
,
0000
1000
0000
0001
,
0000
0001
0000
0100
,
0000
0100
0000
0001
,
0000
0001
0000
0100
,
0000
0100
0000
0001
,
2000
0000
0000
0000
3000
0000
0000
0010
,
0000
0100
0000
0010
0000
0100
0000
0000
,
0002
0000
0000
0000
0003
0000
0000
0010
,
0000
0100
0000
0010
0000
0100
0000
0000
,
2000
0000
0000
0000
3000
0000
0000
0001
,
0000
0010
0000
0001
0000
0010
0000
0000
,
0002
0000
0000
0000
0003
0000
0000
1000
,
0000
0010
0000
1000
0000
0010
0000
0000
,
0100
0000
0001
0000
0000
0010
0000
0100
,
0000
0000
1000
0000
,
0001
0000
0100
0000
0000
0010
0000
1000
,
0000
0000
0000
0100
0000
0000
0100
0000
,
0010
0000
0001
0000
0000
1000
0000
0010
,
0000
0000
0100
0000
,
0001
0000
1000
0000
0000
0001
0000
0010
,
0000
0000
0000
0100
0000
0000
1000
0000
,
0010
0000
0000
0000
0000
0100
0000
0001
,
0000
0010
0000
0010
0000
0000
0000
0000
,
0100
0000
0000
0000
1000
0000
0000
0001
,
0000
0010
0000
0001
0000
0010
0000
0000
,
0001
0000
0000
1000
0000
0000
0100
0000
,
0000
0000
0000
0000
0020
0000
0000
0001
,
0000
0130
0000
0000
0000
1000
0000
0001
,
0000
0100
0000
0100
0000
0000
0000
0000
,
0010
0000
1000
0000
0000
0100
0000
0100
,
0000
0000
1000
0000
,
0001
0000
0100
0000
0000
0001
0000
0001
,
0000
0000
0000
0010
0000
0000
0100
0000
,
0010
0000
0001
0000
0000
0100
0000
0100
,
0000
0000
0010
0000
,
1000
0000
0001
0000
0000
1000
0000
1000
,
0000
0000
0000
0001
0000
0000
0010
0000
,
0100
1000
0100
1000
,
1010
1010
1001
1001
,
0010
0001
0010
0001
,
0101
0101
1001
1001
,
0100
0010
0100
0010
,
1001
1001
0110
0110
,
1000
0001
1000
0001
,
0020
0000
0000
0030
,
0100
0000
0000
0000
0000
0100
0000
1000
,
0000
0001
0000
0010
0000
0100
0000
1000
,
0000
0002
0000
0003
0000
0100
0000
0010
,
0000
1000
0000
0001
0000
0100
0000
0000
,
0010
0000
0000
0000
0000
0010
0000
1000
,
0000
0100
0000
0100
0000
0010
0000
0001
,
0000
0200
0000
0300
0000
0010
0000
0010
,
0000
1000
0000
0001
0000
0010
0000
0000
,
0001
0000
0000
0000
0000
0100
0000
0001
,
0000
1000
0000
0100
0000
0010
0000
0001
,
0000
2000
0000
3000
0000
0010
0000
0100
,
0000
0001
0000
0010
0000
0001
0000
0000
,
1000
0000
0000
0000
0000
0010
0000
1000
,
0000
0100
0000
0001
0000
0100
0000
1000
,
0000
0020
0000
0030
0000
0100
0000
0001
,
2000
0000
0000
0010
,
3001
0100
0000
0010
,
1000
0100
0000
0100
,
1000
0010
0000
1000
,
0010
0001
0000
0001
,
0010
1000
0000
0001
,
0100
1000
0000
1000
,
0100
0001
0000
1000
,
0100
0010
0000
0001
,
1000
0010
0000
1000
,
0001
0100
0000
0001
,
0010
0100
0000
0010
,
0001
1000
0000
0100
,
0001
0100
0000
0010
,
0001
0100
0000
1000
,
0100
0001
0000
1000
,
0001
1000
0000
0010
,
2000
0000
0000
0000
0000
0000
0000
0100
,
0000
0000
0000
0000
0000
3010
0000
0000
,
0002
0000
0000
0000
0000
0000
0000
0100
,
0000
0000
0000
0013
0000
0000
0110
0000
;

//--------------- dance-single - ----------------
#NOTES:
     dance-single:
     Shortysnmn2010:
     Medium:
     6:
     0.401826,0.49935,0.308918,0.113812,0,346,308,38,14,29,0,0.401826,0.49935,0.308918,0.113812,0,346,308,38,14,29,0:
0000
0000
0000
0000
,
0000
0000
0000
0000
,
0000
0000
0000
0000
,
0000
0000
0000
0000
,
1000
0000
0001
0000
0000
0010
0001
0000
,
0100
0000
0010
0000
0000
0100
0001
0000
,
1000
0000
0010
0000
0000
1000
0100
0000
,
0000
0001
0100
0001
0000
0000
0100
0000
,
1000
0000
0010
0000
0000
0100
0010
0000
,
0001
0000
0010
0000
0000
0100
0001
0000
,
0010
0000
0001
0000
0000
1000
0100
0000
,
0000
0010
0100
0010
0000
0000
0100
0000
,
1000
0000
0000
1010
0000
0000
0000
1000
,
0000
0001
0000
0010
0000
0001
0000
0000
,
0101
0000
0001
1000
0000
0000
0000
0100
,
0000
1000
0000
0001
0000
1000
0000
0000
,
0010
0000
0000
0110
0000
0000
0000
0100
,
0000
0001
0000
0010
0000
0100
0000
0000
,
1001
0000
1000
0001
0000
0000
0000
0010
,
0000
1000
0000
0010
0000
0001
0000
0000
,
1000
0000
1000
0100
1000
0000
0001
0010
,
0000
0100
0000
2000
0000
0000
3000
0000
,
0001
0000
0100
0000
0000
0001
0010
0001
,
0000
0100
0000
0100
0000
1001
0000
0010
,
1000
0000
0100
0000
0000
0010
0000
0001
,
0000
0000
1000
0000
0010
0000
0001
0010
,
0000
0110
0000
0000
0000
1000
0000
0001
,
0010
0000
0000
0011
0000
1100
0000
0000
,
1000
0000
0100
0000
1000
0100
0000
0010
,
0000
1000
0000
0010
0000
0100
0000
1000
,
0010
0000
0100
0000
0010
0100
0000
0001
,
0000
0010
0000
0100
0000
0010
0000
0001
,
0100
0000
0010
0000
0100
1000
0000
0100
,
0000
0001
0000
1000
0000
0100
0000
0010
,
0100
0000
0010
0000
0100
0010
0000
0001
,
0000
0010
0000
0100
0000
1000
0000
0000
,
1010
0000
0011
0000
0000
0100
0000
1000
,
0000
0000
1010
0000
,
0101
0000
1100
0000
0000
0010
0000
0001
,
0000
0000
0000
0110
0000
0000
1000
0000
,
0110
0000
0101
0000
0000
0001
0000
1000
,
0000
1000
0000
1000
0000
1000
0000
0001
,
0010
0000
0100
0000
0000
1000
0000
0010
,
0000
0000
0000
0110
0000
0000
0100
0000
,
1001
1001
0010
0010
,
0001
1000
0001
1000
0001
0000
1000
0001
,
1000
0110
0110
0001
,
1000
0002
1000
0003
1000
0002
1000
0003
,
0010
0100
0011
0101
,
0010
0100
1010
1100
,
2000
3002
2003
3002
,
2000
0000
3003
0000
,
0000
1000
0010
0000
0001
0010
0000
0100
,
0000
0010
0000
0100
0000
0010
0000
1000
,
0000
0001
0010
0000
0001
0010
0000
0100
,
0000
1000
0000
0100
0000
0002
0000
0003
,
0000
0100
0010
0000
0100
0010
0000
0001
,
0000
0100
0000
1000
0000
0100
0000
0010
,
0000
0100
0010
0000
1000
0010
0000
0100
,
0000
0001
0000
1000
0000
0200
0000
0300
,
000M
0010
M000
0000
0M01
0000
00M0
0000
,
100M
0000
M000
0010
000M
0000
01M0
0000
,
M000
0001
0M00
0000
001M
0000
0M00
0000
,
10M0
0000
M000
0010
000M
0220
M000
0330
,
000M
0100
00M0
0000
1M00
0000
M000
0000
,
001M
0000
00M0
0100
M000
0000
0M01
0000
,
M000
0010
000M
0000
01M0
0000
0M00
1000
,
00M2
0010
2003
3100
,
0010
0000
0001
0000
0000
0010
0001
0000
,
0010
0000
0100
0000
0000
1000
0100
0000
,
1000
0000
0010
0000
0000
1000
0001
0000
,
0000
0100
0001
0100
0000
0000
0110
0000
,
0001
0000
0100
0000
0000
0010
1000
0000
,
0010
0000
0001
0000
0000
0010
1000
0000
,
0010
0000
0100
0000
0000
0001
0010
0000
,
0000
0001
0010
0001
0000
0000
1100
0000
,
0010
0000
0000
0011
0000
0000
0000
0001
,
0000
0100
0000
0010
0000
1000
0000
0000
,
1001
0000
1000
0010
0000
0000
0000
0100
,
0000
0001
0000
0010
0000
0001
0000
0000
,
0100
0000
0000
0110
0000
0000
0000
1000
,
0000
0001
0000
0100
0000
1000
0000
0000
,
0110
0000
0100
0010
0000
0000
0000
1000
,
0000
0001
0000
0010
0000
0001
0000
0000
,
1000
0000
0100
0000
0000
0010
0000
0001
,
0000
0000
0000
0000
0000
1001
0000
0000
,
0010
0000
1001
0000
0000
0110
0000
0101
,
0000
0000
0000
1001
0000
0000
1100
0000
;

//--------------- dance-single - ----------------
#NOTES:
     dance-single:
     Shortysnmn2010:
     Hard:
     8:
     0.562091,0.642021,0.495895,0.252012,0.052841,484,423,61,31,31,0,0.562091,0.642021,0.495895,0.252012,0.052841,484,423,61,31,31,0:
0000
0000
0000
0000
,
0000
0000
0000
0000
,
0000
0000
0000
0000
,
0000
0000
0000
0000
,
1000
0100
0010
0001
0010
0100
0000
1000
,
0000
0001
0000
0100
0000
0001
0000
1000
,
0000
0001
0100
0010
0100
0001
0000
1000
,
0000
0100
0000
0001
0000
0100
0000
1000
,
0010
1000
0001
0100
1000
0100
0000
0001
,
0000
1000
0000
0010
0000
0001
0000
0010
,
0000
0100
0001
0010
0001
0100
0000
0010
,
0000
1000
0000
0100
0000
0100
0000
0000
,
1000
0100
0010
0001
1000
0010
0000
0200
,
0000
0001
0000
1000
0000
0301
0000
1000
,
0000
0001
0010
0001
1000
0100
0000
0020
,
0000
0001
0000
1000
0000
0031
0000
1000
,
0100
0010
0100
1000
0010
0100
0000
0002
,
0000
0010
0000
0100
0000
0013
0000
0100
,
0000
1000
0010
1000
0001
0100
0000
1000
,
0000
0100
0000
0101
0000
1001
0000
0001
,
0010
0000
0001
0100
0001
1000
0100
0010
,
0000
0011
0000
0022
0000
0000
0033
0000
,
0100
0000
1000
0000
0000
0010
0100
0001
,
0000
1001
0000
0100
0000
1001
0000
0010
,
1000
0000
0100
0000
0000
0010
0000
0001
,
0000
0000
1000
0000
0001
0000
0100
0001
,
0000
2002
0000
0000
3003
0000
0000
0000
,
0110
0000
0000
0000
0000
0000
1000
0000
0100
0000
1000
0001
1000
0000
0000
0000
,
0001
0100
1000
0100
0010
0100
0002
0010
,
0000
0010
0000
0020
0000
0033
0000
0000
,
0001
1000
0100
1000
0010
0100
0002
1000
,
0000
1000
0000
0100
0000
1003
0000
0000
,
1001
0000
0000
0110
0000
0000
2002
0000
,
0000
3003
0000
0000
0110
0000
0100
0010
,
0000
0100
0001
0010
0100
1000
0000
0100
,
0010
0000
0100
0000
0000
0000
1000
0000
0001
0000
1000
0001
1000
0000
0000
0000
,
0001
0000
0101
0000
0000
0010
0000
1000
,
0000
0000
1100
0000
,
0110
0000
1100
0000
0000
1010
0000
1001
,
0000
0000
0000
0101
0000
0000
0010
0000
,
1000
0000
0100
0000
0000
0010
0000
0010
,
0000
0001
0000
0100
0000
0100
0000
0020
,
0000
0000
0030
0000
1000
0000
0000
0001
,
0000
0000
0010
0010
,
1100
0000
1001
0000
1100
0100
0010
0001
,
0010
0100
1000
0010
2000
0000
3001
0100
,
0101
0000
1001
0000
0101
0100
0010
1000
,
0010
0200
0010
0300
0010
0200
0010
0300
,
1000
0000
0002
0000
0010
0003
0200
0000
1000
0300
0200
0000
0010
0300
0002
0000
,
1000
0003
0020
0000
0100
0030
0002
0000
0100
0003
0020
0000
1000
0030
0001
0000
,
0100
0010
0000
0000
1000
0100
0000
0000
0010
0001
0000
0000
0100
0010
0000
0000
,
2002
3003
0220
0330
,
1000
0001
0010
1000
0010
0001
1000
0100
,
0000
1100
0000
1001
0000
0101
0000
1001
,
0000
0010
0100
0001
0010
0001
0000
0101
,
0000
0110
0000
1010
0000
1000
0200
0000
,
0300
0010
0001
1000
0100
1000
0001
0100
,
0000
0101
0000
1010
0000
1100
0000
0110
,
0000
0001
1000
0001
0010
0100
0000
1100
,
0000
1001
0000
0101
0000
1001
0000
0000
,
000M
1000
00M0
0000
1M01
0000
M000
0000
,
001M
0000
M000
0110
000M
0000
0M01
0000
,
00M0
1000
0M00
0000
M011
0000
00M0
0000
,
010M
0000
0M00
1001
0000
0220
M00M
0330
,
M000
0001
0M00
0000
101M
0000
00M0
0000
,
M100
0000
0M00
0001
00M0
0000
M011
0000
,
000M
0100
00M0
0000
1M00
0000
00M0
0000
,
0M01
1000
0001
1000
0M01
0000
0010
0000
0M01
0000
0000
1000
0200
0000
0000
0000
,
1300
0001
1000
0001
0010
0001
0100
0001
,
1000
0001
0010
0001
0100
0001
0000
1001
,
0000
1000
0100
1000
0010
1000
0001
1000
,
0010
0000
1000
0000
0100
0000
1000
0000
0010
0000
0000
0100
0010
0000
0000
0000
,
0100
0010
1000
0010
0001
0010
0100
0010
,
1000
0010
0001
0010
0100
0010
0000
0110
,
0000
0100
1000
0100
0001
0100
1000
0100
,
0010
0000
0100
0000
0001
0000
0100
0000
0010
0000
0000
0100
0010
0000
0000
0000
,
1000
0100
0010
0001
0100
0001
0010
0100
,
1000
0100
0000
1000
0010
1000
0000
1001
,
0000
0001
0100
1000
0100
0010
1000
0001
,
0100
0000
0001
0000
0010
0000
0100
0000
1000
0000
0000
0100
0010
0000
0000
0000
,
0001
1000
0100
0010
1000
0010
0001
1000
,
0100
1000
0000
0010
0100
0001
0000
1001
,
0000
1000
0010
0001
0010
1000
0001
0100
,
0001
0000
1000
0000
0100
0000
0010
0000
0100
0000
0000
1000
0100
0000
0000
0000
,
1000
0000
1000
0000
0000
0101
0000
0011
,
0000
0000
0000
0000
0000
0110
0000
0000
,
0100
0000
1001
0000
0000
1010
0000
1100
,
0000
0000
0000
1001
0000
0000
0101
0000
;
