#TITLE:Roll The Dice;
#SUBTITLE:;
#ARTIST:Marlene Strand;
#TITLETRANSLIT:;
#SUBTITLETRANSLIT:;
#ARTISTTRANSLIT:;
#GENRE:;
#CREDIT:;
#MUSIC:Roll The Dice - Marlene Strand.mp3;
#BANNER:Roll The Dice banner.jpg;
#BACKGROUND:;
#CDTITLE:;
#SAMPLESTART:36.891;
#SAMPLELENGTH:15.048;
#SELECTABLE:YES;
#OFFSET:-0.247;
#BPMS:0.000=130.000;
#STOPS:;
#BGCHANGES:;
#FGCHANGES:;

//--------------- dance-single - ----------------
#NOTES:
     dance-single:
     Shortysnmn2010:
     Beginner:
     1:
     0.120969,0.133096,0,0.067072,0,101,101,0,8,0,0,0.120969,0.133096,0,0.067072,0,101,101,0,8,0,0:
0000
0000
0000
0000
,
0000
0000
0000
0000
,
0000
0000
0000
0000
,
0000
0000
0000
0000
,
0010
0000
0000
0010
,
0010
0000
0000
0001
,
0001
0000
0000
0000
,
1000
0000
0001
0000
,
1000
0000
0000
0010
,
0010
0000
0000
0100
,
0100
0000
0000
0000
,
0001
0000
1000
0000
,
0001
0000
0000
0010
,
0010
0000
0000
0001
,
0001
0000
0000
0000
,
1000
0000
0100
0000
,
1000
0000
0000
0001
,
0001
0000
0000
1000
,
1000
0000
0000
0000
,
0010
0000
0100
0000
,
0002
0000
0000
0000
,
0010
0000
0010
0000
,
0013
0000
0000
0000
,
0001
1000
0001
0000
,
2000
0000
0000
0000
,
0100
0000
0100
0000
,
3100
0000
1000
0000
,
0100
0000
0000
0000
,
0020
0000
0000
0000
,
0100
0000
0100
0000
,
0130
0000
0000
0000
,
0010
0100
0010
0000
,
0002
0000
0000
0000
,
0010
0000
0010
0000
,
0013
0000
0000
0000
,
0001
0000
1000
0000
,
0100
0000
0000
1000
,
1000
0000
0000
0010
,
0010
0000
0000
0000
,
0001
0000
0010
0000
,
1000
0000
0000
0001
,
0001
0000
0000
0010
,
0010
0000
0000
0000
,
1000
0000
0010
0000
,
0001
0000
0000
0100
,
0100
0000
0000
0010
,
0010
0000
0000
0000
,
1000
0000
0001
0000
,
0010
0000
0000
0001
,
0001
0000
0000
0100
,
0100
0000
0000
0000
,
0001
0000
0010
0000
,
0002
0000
0000
0000
,
0100
0000
0100
0000
,
1003
0000
0000
0000
,
0001
1000
0001
0000
,
2000
0000
0000
0000
,
0010
0000
0010
0000
,
3001
0000
0000
0000
,
0010
0000
0000
0000
,
0200
0000
0300
0000
,
2000
0000
3000
0000
,
0001
0000
1000
0000
,
0001
1000
0001
0000
;

//--------------- dance-single - ----------------
#NOTES:
     dance-single:
     Shortysnmn2010:
     Easy:
     3:
     0.174866,0.212953,0.008384,0.050304,0,146,145,1,6,0,0,0.174866,0.212953,0.008384,0.050304,0,146,145,1,6,0,0:
0000
0000
0000
0000
,
0000
0000
0000
0000
,
0000
0000
0000
0000
,
0000
0000
0000
0000
,
1000
0000
0000
0010
,
0100
0000
0000
0001
,
0010
0000
0000
0001
,
1000
0001
1000
0000
,
0010
0000
0000
0100
,
0010
0000
0000
0100
,
0001
0000
0000
1000
,
0010
1000
0010
0000
,
1000
0000
0000
0100
,
0010
0000
0000
0100
,
1000
0000
0000
0000
0000
0000
0000
0001
,
0000
0010
0001
0000
,
1000
0000
0000
0010
,
0001
0000
0000
0010
,
0100
0000
0000
0001
,
0010
0100
1000
0000
,
0001
0010
0001
0000
,
1000
0100
0010
0001
,
1000
0000
0001
0000
,
0100
0001
0100
0000
,
0010
1000
0100
0000
,
1000
0001
1000
0001
,
0010
0000
0100
0000
,
1000
0000
0100
0000
,
0010
0001
0100
0000
,
0001
0100
0001
0100
,
0010
0000
1000
0000
,
0100
1000
0100
0000
,
0010
0100
1000
0000
,
0001
0000
0010
0000
,
0001
0000
0001
0000
,
1000
0000
1000
0000
,
0020
0030
0000
0100
,
0002
0003
0000
1000
,
0200
0300
0000
0010
,
0001
0100
1000
0000
,
0200
0300
0000
0001
,
0020
0030
0000
0100
,
2000
3000
0000
0001
,
0010
1000
0010
0000
,
0100
0000
0000
1000
,
0100
0000
0000
0010
,
0001
0000
0000
0000
0000
0000
0000
0100
,
0000
0010
1000
0000
,
0001
0000
0000
0010
,
0100
0000
0000
1000
,
0010
0000
0000
0100
,
0001
0000
0001
0000
,
1000
0100
1000
0000
,
0010
0100
0010
0100
,
0001
0000
0010
0000
,
0100
0010
0100
0000
,
1000
0100
0010
0000
,
0001
0000
0100
0000
,
1000
0000
1000
0000
,
0100
0000
0100
0000
,
0001
0000
0010
0010
,
0010
0000
0100
0100
,
0100
0000
1000
0000
,
0010
1000
1001
0000
;

//--------------- dance-single - ----------------
#NOTES:
     dance-single:
     Shortysnmn2010:
     Medium:
     5:
     0.299428,0.374135,0.29344,0.201216,0,250,215,35,24,0,0,0.299428,0.374135,0.29344,0.201216,0,250,215,35,24,0,0:
0000
0000
0000
0000
,
0000
0000
0000
0000
,
0000
0000
0000
0000
,
0000
0000
0000
0000
,
1000
0000
0000
0010
0000
0000
1000
0000
,
0001
0000
0000
0100
0000
0000
0001
0000
,
1000
0000
0000
0100
0000
0000
1000
0000
,
0020
1000
0130
0001
,
0010
0000
0000
0001
0000
0000
1000
0000
,
0100
0000
0000
1000
0000
0000
0010
0000
,
1000
0000
0000
0010
0000
0000
0100
0000
,
0002
0010
1003
0100
,
0010
0000
0001
0100
0000
0000
0010
0000
,
1000
0000
0001
0010
0000
0100
0100
0000
,
0010
0000
0001
0100
0000
0000
0000
0010
,
0000
0010
1000
0000
0001
0000
1000
1000
,
0100
0000
0000
1000
0000
0000
0010
0000
,
0100
0000
0001
0100
0000
0000
0010
0000
,
1000
0000
0001
0010
0000
0000
0001
0000
,
2000
0100
3001
0000
,
1010
1100
2020
3030
,
1001
0000
0000
0010
0000
0010
0000
0001
,
0000
0010
0001
0000
0020
0000
0030
0000
,
0110
1001
0110
0000
,
0101
0011
0202
0303
,
0010
0000
0000
1000
0000
1000
0000
0100
,
2000
0000
0000
0010
0000
0000
0000
0010
,
0000
0000
0001
0001
0000
3001
0000
0000
,
0011
0110
2200
3300
,
1001
0000
0000
0010
0000
0010
0000
1000
,
0000
0001
0100
0000
0020
0000
0030
0000
,
0110
1001
0110
0000
,
1010
0110
0202
0303
,
1000
0000
0000
0001
0000
0010
0000
0010
,
0002
0000
0000
0100
0000
0000
0000
0100
,
0000
0000
1000
1000
0000
1003
0000
0000
,
0001
0000
0000
0010
0000
0000
0001
0000
,
0100
0000
0000
0001
0000
0001
0010
0000
,
0001
0000
0000
0100
0000
0000
0010
1000
,
0200
0001
0310
0001
,
1000
0000
0000
0010
0000
0000
1000
0000
,
0100
0000
1000
0100
0000
0000
1000
0000
,
0010
0000
0100
0010
0000
0000
0100
0001
,
0020
1000
0130
0001
,
1000
0000
0010
1000
0000
0000
0100
0000
,
0010
0000
0100
1000
0000
0100
0100
0000
,
0010
0000
0100
0010
0000
0000
0000
0001
,
0000
0001
0010
0000
1100
0000
0010
0010
,
0001
0000
0000
0100
0000
0000
0010
0000
,
1000
0000
0100
1000
0000
0000
0001
0000
,
0100
0000
1000
0100
0000
0000
0001
0000
,
2000
0100
3001
0000
,
0101
1100
0202
0303
,
0010
0000
0000
1000
0000
1000
0000
0001
,
0000
0010
0001
0000
2000
0000
3000
0000
,
0110
1001
0110
0000
,
1010
0011
1010
0000
,
0100
0000
0000
0010
0000
0001
0000
0001
,
0200
0000
0000
0010
0000
0000
0000
0010
,
0000
0000
1000
1000
0000
0301
0000
0000
,
1001
0000
0000
0100
0001
0000
0010
0000
,
0100
0000
0000
1000
0100
0000
0010
0000
,
0001
0000
0101
0000
1010
0000
0100
0001
,
0010
1100
0022
0033
;

//--------------- dance-single - ----------------
#NOTES:
     dance-single:
     Shortysnmn2010:
     Hard:
     8:
     0.458724,0.507755,0.326975,0.419199,0,383,344,39,50,0,0,0.458724,0.507755,0.326975,0.419199,0,383,344,39,50,0,0:
0000
0000
0000
0000
,
0000
0000
0000
0000
,
0000
0000
0000
0000
,
0000
0000
0000
0000
0000
0010
0010
0010
,
0002
0000
0103
0010
0000
0100
0001
0010
,
0200
0000
1300
0001
0000
0100
0010
1000
,
0002
0000
0013
0100
0000
0100
1000
0100
,
0002
0000
0203
0000
2300
0000
0010
3010
,
0100
0000
0001
0010
0000
0001
0100
1000
,
0100
0000
0001
0010
0000
0001
1000
0100
,
0001
0000
0100
1000
0000
0010
1000
0100
,
0002
0203
2300
3010
,
0100
0000
1010
1000
0001
0000
0101
0001
,
1000
0000
1100
0100
0010
0001
0001
0010
,
0100
0000
1100
1000
0010
0000
0200
0001
,
0000
0010
0010
0000
0301
0000
1000
1000
,
0100
0000
0110
0010
0100
0000
1100
0100
,
1000
0000
1010
0010
0100
0001
0010
0001
,
0100
0000
0101
0001
1000
0000
1100
1000
,
0001
0001
0002
0003
,
0010
0000
1000
0000
0100
0000
0000
0000
2002
0000
0000
3003
0000
0000
0010
0000
,
0000
0001
1000
0100
1000
0000
0010
0100
,
0001
0010
0100
0000
2001
0000
3010
0100
,
0102
0000
0010
0000
0103
0000
0010
1000
,
0100
0000
0010
0000
0100
0000
0000
0000
2002
0000
0000
3003
0000
0000
0010
0000
,
0000
0001
0010
0100
0010
0000
0100
2000
,
0100
3000
0100
2000
0010
3000
0010
0200
,
0001
0300
0001
1000
0010
0110
0101
0000
,
1000
0000
0100
0000
0001
0000
0000
0000
0220
0000
0000
0330
0000
0000
0001
0000
,
0000
1000
0010
0100
0010
0000
1000
0001
,
0100
0001
1000
0000
0120
0000
0031
1000
,
2100
0000
0010
0000
3100
0000
0010
0001
,
1000
0000
0010
0000
0001
0000
0000
0000
0220
0000
0000
0330
0000
0000
0001
0000
,
0000
1000
0010
0100
0010
0000
1000
0002
,
0100
0003
0100
0002
0010
0003
0010
0200
,
1000
0300
1000
0001
0000
1001
0000
0000
,
0001
0100
0001
0100
0010
1000
0100
1000
,
0010
0100
0010
0100
0001
1000
0100
1000
,
0010
0100
0101
0001
0010
0001
0101
0100
,
0020
2030
3200
0010
,
0310
0001
0010
0001
1000
0100
0001
0100
,
1000
0010
1000
0010
0100
0001
0010
0001
,
0100
0010
0110
0100
0001
0010
0110
0100
,
0020
0032
0203
0310
,
1000
0000
0101
0001
1000
0000
1100
1000
,
0001
0000
0011
0001
0100
0010
0010
0100
,
0001
0000
1100
1000
0010
0000
0200
0001
,
0000
0010
0010
0000
0301
0000
1000
1000
,
0100
0000
0011
0001
1000
0000
1100
1000
,
0001
0000
0101
0001
1000
0010
0100
0001
,
0010
0000
0011
0001
1000
0000
1100
1000
,
0001
0001
0002
0003
,
0100
0000
0001
0000
0010
0000
0000
0000
2002
0000
0000
3003
0000
0000
0010
0000
,
0000
0100
1000
0100
1000
0000
0001
0100
,
0000
0100
0010
0000
1002
0000
0013
0100
,
2100
0000
0010
0000
3100
0000
0010
0001
,
0100
0000
0010
0000
0100
0000
0000
0000
2002
0000
0000
3003
0000
0000
0010
0000
,
0000
0100
0001
0100
0001
0000
0010
0200
,
1000
0300
1000
0002
0010
0003
0010
0200
,
0010
0300
0010
0001
0000
1001
0000
0000
,
2000
0000
3000
0000
0010
0100
0001
0010
,
0002
0000
0003
0000
0100
0010
1000
0001
,
0010
0000
0010
0000
0010
0000
0100
1000
,
0010
0100
2002
3003
;
