#TITLE:Right Round;
#SUBTITLE:;
#ARTIST:Flo Rida;
#TITLETRANSLIT:;
#SUBTITLETRANSLIT:;
#ARTISTTRANSLIT:;
#GENRE:;
#CREDIT:;
#MUSIC:Right Round - Flo Rida.mp3;
#BANNER:Right Round banner.jpg;
#BACKGROUND:;
#CDTITLE:;
#SAMPLESTART:46.783;
#SAMPLELENGTH:15.360;
#SELECTABLE:YES;
#OFFSET:-0.703;
#BPMS:0.000=125.000;
#STOPS:;
#BGCHANGES:;
#FGCHANGES:;

//--------------- dance-single - ----------------
#NOTES:
     dance-single:
     Shortysnmn2010:
     Beginner:
     1:
     0.111996,0.150123,0,0.116762,0,94,94,0,14,0,0,0.111996,0.150123,0,0.116762,0,94,94,0,14,0,0:
0000
0000
0000
0000
,
0000
0000
0000
0000
,
0000
0000
0000
0000
,
0000
0000
0000
0000
,
2000
3000
0000
0000
,
0002
0003
0000
0000
,
0200
0300
0000
0000
,
0010
0000
0010
0000
,
1000
0000
0000
0000
,
0100
0000
0100
0000
,
0010
0000
0000
0000
,
0001
0000
0001
0000
,
1000
0000
0000
0000
,
0010
0000
0010
0000
,
0100
0000
0000
0000
,
0001
0000
0000
0000
,
1000
0000
0100
0000
,
1000
0000
0000
0000
,
0001
0000
0010
0000
,
0001
0000
0000
0000
,
0100
0000
0010
0000
,
0100
0000
0000
0000
,
1000
0000
0100
0000
,
1000
0000
0000
0000
,
0200
0300
0000
0000
,
0020
0030
0020
0030
,
2000
3000
0000
0000
,
0002
0003
0000
0000
,
0100
0000
0100
0000
,
0100
0000
0001
0000
,
1000
0000
0001
0000
,
0001
0000
0000
0000
,
1000
0000
0100
0000
,
0010
0000
0000
0000
,
0001
0000
0100
0000
,
0010
0000
0000
0000
,
1000
0000
0001
0000
,
1000
0000
0000
0000
,
0010
0000
1000
0000
,
0100
0000
0000
0000
,
2000
3000
0000
0001
,
0002
0003
0000
1000
,
2000
3000
0000
0100
,
0200
0300
0000
0010
,
0020
0030
0000
0001
,
0002
0003
0000
0100
,
0100
0000
0100
0000
,
0001
0000
0001
0000
,
1000
0000
0000
0000
,
0010
0000
0100
0000
,
0010
0000
0000
0000
,
1000
0000
0000
0000
,
0001
0001
0001
0000
,
0001
0000
0001
0000
,
1000
1000
1000
0000
,
1000
0000
1000
0000
,
0010
0010
0010
0000
,
0010
0000
0010
0000
,
0100
0100
0100
0000
,
0100
0000
0100
0000
,
0001
0000
0000
0000
;

//--------------- dance-single - ----------------
#NOTES:
     dance-single:
     Shortysnmn2010:
     Easy:
     4:
     0.212078,0.276372,0.058381,0.125102,0,178,171,7,15,0,0,0.212078,0.276372,0.058381,0.125102,0,178,171,7,15,0,0:
0000
0000
0000
0000
,
0000
0000
0000
0000
,
0000
0000
0000
0000
,
0000
0000
0000
0000
,
2000
0000
3000
0000
,
0100
0000
0010
0000
,
0002
0000
0003
0000
,
2000
0000
3000
0000
,
0001
0000
0010
0001
,
1000
0100
1000
0000
,
0010
0000
0100
0001
,
1000
0010
0100
0000
,
1000
0000
0100
0001
,
0010
0001
0100
0000
,
0001
0000
1000
0000
,
0001
0010
0001
0000
,
1000
0000
0100
0010
,
0001
1000
0100
0000
,
1000
0000
0010
1000
,
0001
0100
0001
0000
,
0010
0000
0100
0010
,
0001
0100
0010
0000
,
1000
0000
0001
0000
,
0010
0000
0100
0000
,
1000
1000
0100
0100
,
0010
0010
0001
0001
,
1000
0100
0010
0001
,
1000
0100
1001
1001
,
0001
0001
0100
0100
,
0010
0010
1000
1000
,
0001
0100
0010
1000
,
0001
0100
1001
1001
,
0010
0000
1000
0000
,
0100
0010
0001
1000
,
0100
0000
1000
0000
,
0010
1000
0100
0100
,
1000
0000
0010
0000
,
0100
0001
0010
0100
,
1000
0000
0010
0000
,
0100
0001
0010
0010
,
0002
0003
1000
0100
,
2000
3000
0010
0100
,
0020
0030
1000
0100
,
0002
0003
0100
0010
,
0200
0300
1000
0010
,
0002
0003
0010
0100
,
0001
0001
1000
1000
,
0001
0001
1000
1000
,
0220
0000
0330
0000
,
1000
0000
0001
0000
,
0220
0000
0330
0000
,
1000
0000
0001
0000
,
1000
1000
0010
0010
,
0001
0001
0010
0010
,
0100
0100
0001
0001
,
0010
0010
0100
0100
,
1000
1000
0010
0010
,
0100
0100
0001
0001
,
1000
1000
0100
0100
,
0001
0001
0100
0100
,
2002
3003
0000
0000
;

//--------------- dance-single - ----------------
#NOTES:
     dance-single:
     Shortysnmn2010:
     Medium:
     5:
     0.32884,0.450368,0.350286,0.191823,0.137612,276,234,42,23,0,0,0.32884,0.450368,0.350286,0.191823,0.137612,276,234,42,23,0,0:
0000
0000
0000
0000
,
0000
0000
0000
0000
,
0000
0000
0000
0000
,
0000
0000
0000
0000
,
1000
0000
0100
0000
,
0001
0000
0010
1000
,
0100
0000
0001
0010
,
1000
0000
0100
0100
,
1001
0100
0001
0001
,
1000
0000
0000
0100
0000
0000
0010
0000
0100
2000
0000
0000
,
3010
0100
0010
0010
,
0100
0000
0000
0001
0000
0000
0010
0000
1000
0020
0000
0000
,
0031
1000
0100
0100
,
1000
0000
0000
0001
0000
0000
0100
0000
1000
0200
0000
0000
,
0301
1000
0001
0001
,
1000
0001
1000
0001
0000
0000
1000
0000
0000
0001
0000
0000
,
0200
0000
0000
0300
0000
0000
0001
0000
0001
0010
0000
0000
,
0001
0000
0001
1000
0000
0000
0100
0000
0100
1000
0000
0000
,
0020
0000
0000
0030
0000
0000
1000
0000
1000
0001
0000
0000
,
0100
0000
0100
0001
0000
0000
0010
0000
0010
0001
0000
0000
,
2000
0000
0000
3000
0000
0000
0010
0000
0010
0100
0000
0000
,
0001
0000
0001
0010
0000
0000
0100
0000
0100
1000
0000
0000
,
0002
0000
0000
0003
0000
0000
0010
0000
0010
0100
0000
0000
,
1000
0001
1000
0001
,
1000
1000
0010
0010
,
0001
0001
0100
0100
,
1000
0010
0001
0100
,
1000
0000
0001
2000
0000
0000
0001
0000
0000
3001
0000
0000
,
0011
0101
1100
1010
,
1100
0101
0011
1010
,
0011
0101
1100
0101
,
0022
0033
0000
0000
,
1000
0001
1000
0001
0000
0000
1000
0000
0000
0100
0000
0000
,
0010
0001
0100
0010
,
0100
0001
0100
0001
0000
0000
1000
0000
0000
0001
0000
0000
,
0010
0000
0010
0100
0000
0000
0110
0000
0000
1001
0000
0000
,
0001
0100
0010
1000
0000
0000
0001
0000
0000
1000
0000
0000
,
0001
0020
0100
0031
,
1000
0100
0010
0001
0000
0000
1000
0000
0000
0001
0000
0000
,
1000
0000
1000
0100
0000
0000
1100
0000
0000
1001
0000
0000
,
0022
0033
1000
0100
,
2002
3003
0001
0100
,
2020
0000
0000
3030
0000
0000
0001
0000
0000
0010
0000
0100
,
0000
0000
0100
1000
0000
0000
0001
0000
0001
0010
0000
0000
,
0200
0000
0000
0300
0000
0000
1000
0001
1000
0001
0000
0000
,
0020
0000
0000
0030
0000
0000
0001
1000
0001
1000
0000
0000
,
0001
0101
1000
1010
,
0001
0011
1000
1100
,
0010
0000
0001
0000
,
0100
0000
1000
0000
,
0010
0001
0100
0000
,
1000
0010
0001
0000
,
1010
1100
0101
0011
,
0101
1100
1010
0011
,
1010
1100
0101
0011
,
1010
0011
0101
1100
,
0002
0010
1000
0103
,
0002
0100
1000
0013
,
2000
0010
0001
3100
,
2000
0100
0001
3010
,
1001
0000
0000
0000
;

//--------------- dance-single - ----------------
#NOTES:
     dance-single:
     Shortysnmn2010:
     Hard:
     7:
     0.424156,0.452244,0.442028,0.108422,0.350286,356,303,53,13,0,0,0.424156,0.452244,0.442028,0.108422,0.350286,356,303,53,13,0,0:
0000
0000
0000
0000
,
0000
0000
0000
0000
,
0000
0000
0000
0000
,
0000
0000
0000
0000
,
1000
0100
0100
1000
,
0010
0100
0100
0001
,
0010
0000
0000
0001
0000
0001
0100
0000
0000
0100
0000
0000
,
0010
0000
0010
1000
0000
0000
0100
0000
0000
0100
0000
0000
,
1000
0000
0000
0001
0100
0001
0100
0000
0000
0001
0000
0000
,
0010
0001
0010
0001
0000
0000
1000
0000
0000
1100
0000
0000
,
0010
0000
0000
0100
1000
0100
1000
0000
0000
0010
0000
0000
,
0100
0001
0100
0001
0000
0000
0010
0000
0000
0110
0000
0000
,
0001
0000
0000
1000
0010
0100
0001
0000
0000
1000
0000
0000
,
0001
0010
0100
1000
0000
0000
0001
0000
0000
0110
0000
0000
,
1000
0000
0000
0001
0100
0010
1000
0000
0000
0100
0000
0000
,
1000
0100
0010
0001
0000
0000
1000
0000
0000
0110
0000
0000
,
1000
0000
0000
0001
0100
0001
0100
0000
0000
0010
0000
0000
,
0100
0000
0000
0001
0010
0001
0010
0000
0000
0100
0000
1000
,
0100
0000
0000
1000
0001
1000
0001
0000
0000
0100
0000
0000
,
0010
0000
0000
1000
0100
1000
0100
0000
0000
1000
0000
0010
,
0100
0000
0000
0001
0100
0010
1000
0000
0000
0001
0000
0000
,
0010
0000
0000
0001
0010
0100
1000
0000
0000
0001
0000
0100
,
0001
0000
0000
1000
0000
0010
0100
0000
0000
0001
0000
0000
,
0010
0000
0000
0100
1000
0100
0010
0000
0000
0100
0000
1000
,
0001
0002
0103
0200
,
1300
2000
3010
0020
,
0031
0000
0000
0010
0000
0010
0001
0000
0000
0100
0000
0000
,
0010
0000
0010
1000
0000
0000
0100
0000
0000
0100
0000
0000
,
1100
1010
0011
1010
,
0101
0011
1010
0011
,
0110
0000
0000
1001
0000
0100
0010
0000
0000
1001
0000
0000
,
0110
0000
1000
0001
0000
0000
0110
0000
0000
0110
0000
0000
,
0001
0010
0001
0010
0000
0000
0001
0100
0001
0100
0000
0000
,
0010
1000
0001
0110
,
1000
0100
1000
0100
0000
0000
1000
0010
1000
0010
0000
0000
,
0100
0000
0100
0001
0000
0001
1000
0000
0000
0001
0000
0000
,
0010
0100
0010
0100
0000
0000
0010
0100
0010
0100
0000
0000
,
1000
0010
0001
0110
,
0001
1000
0001
1000
0000
0000
0001
1000
0001
1000
0000
0000
,
0001
0000
0001
0010
0000
0010
0100
0000
0000
1000
0000
0000
,
2002
0000
0000
3003
0000
0100
0001
0000
0001
0010
0000
0100
,
2000
0000
0000
3000
0000
0001
0100
0000
0100
0001
0000
0000
,
0220
0000
0000
0330
0000
1000
0001
0000
0001
1000
0000
0100
,
0010
0000
0010
0100
0000
0100
1000
0000
1000
0001
0000
0000
,
2000
0000
0000
3000
0001
0010
0001
0010
0001
0020
0000
0000
,
0030
0000
0000
0000
0100
1000
0100
1000
0100
1000
0000
0000
,
0001
0101
1000
1100
,
0001
0001
1000
1000
,
0010
0100
0001
0010
,
1000
0010
0001
1000
,
0100
0001
0100
0010
,
0001
0100
1000
0100
,
1010
1100
0110
1010
,
0011
0101
0110
0011
,
1010
0000
0000
1100
0000
0100
0010
0000
0000
0011
0000
0000
,
1001
0000
1000
0010
0000
0000
0110
0000
0000
1001
0000
0000
,
0101
0011
1010
0110
,
1100
1010
0011
0110
,
0101
0000
0000
0011
0000
0100
1000
0000
0000
1010
0000
0000
,
0011
0000
0010
1000
0000
0000
1100
0000
0000
0011
0000
0000
,
2002
3003
0000
0000
;

//--------------- dance-single - ----------------
#NOTES:
     dance-single:
     Shortysnmn2010:
     Challenge:
     9:
     0.514706,0.602992,0.450368,0.150123,0.679722,432,378,54,18,0,0,0.514706,0.602992,0.450368,0.150123,0.679722,432,378,54,18,0,0:
0000
0000
0000
0000
,
0000
0000
0000
0000
,
0000
0000
0000
0000
,
0000
0000
0000
0000
,
0001
2000
0100
3001
,
0011
0002
0100
1003
,
1010
0000
0000
1000
0000
0001
0100
0000
0000
0001
0000
0000
,
0010
0000
0100
1000
0000
0000
1001
0000
0000
1001
0000
0000
,
0010
0000
0000
0001
0100
0001
1000
0100
1000
0001
0010
0001
,
1000
0010
1000
0001
0100
0001
1000
0100
1000
0020
0000
0000
,
0130
0000
0000
0001
0010
0001
1000
0100
1000
0001
0100
0001
,
1000
0100
1000
0001
0010
0001
1000
0010
1000
0002
0000
0000
,
1003
0000
0000
0010
0100
0010
1000
0001
1000
0100
0010
0100
,
1000
0001
1000
0010
0100
0010
1000
0001
1000
0200
0000
0000
,
0310
0001
0010
0100
1000
0100
0010
0001
1000
0200
0000
0000
,
1300
0001
0100
0001
1000
0010
0100
0001
1000
0002
0000
0000
,
1003
0000
0000
0001
1000
0001
1000
0000
0001
0010
0001
0010
,
0100
1000
0001
1000
0100
0010
0001
1000
0001
1000
0000
0010
,
0000
0000
0000
0100
0001
1000
0001
0100
1000
0100
0000
0010
,
0100
0001
1000
0001
0010
0100
1000
0100
0010
0001
0000
1000
,
0000
0000
0000
0100
0010
0100
0010
0001
0010
0001
1000
0001
,
1000
0100
1000
0100
0010
0100
0010
0001
0010
0001
0000
0100
,
0010
0100
0001
1000
0000
0100
1000
0001
0010
0001
0000
0100
,
0001
1000
0100
0010
0100
1000
0001
0100
0010
0100
0000
0001
,
1000
0100
0001
0010
,
0001
0100
1000
0010
,
0001
0000
0000
0100
0000
0001
0010
0000
0000
1000
0000
0000
,
0100
0000
0001
0010
0000
0000
0001
0000
0000
0100
0000
0000
,
1100
1010
0011
0101
,
0011
1010
1100
0101
,
0011
0000
0000
0101
0000
0100
1000
0000
0000
1010
0000
0000
,
0011
0000
0100
0001
0000
0000
0011
0000
0000
1010
0000
0000
,
1000
0100
1000
0100
0000
1000
0010
0100
0010
0100
0000
0000
,
0001
0100
0010
0100
0001
0100
0010
0100
0001
0010
0000
0000
,
0100
1000
0001
1000
0100
1000
0001
1000
0100
0001
0000
0000
,
0100
0000
1000
0001
0000
0000
1001
0000
0000
1001
0000
0000
,
0001
0100
0010
1000
0000
1000
0010
0100
0001
0010
0000
0000
,
0001
0010
0100
1000
0001
0100
0010
1000
0100
0010
0000
0000
,
0100
1000
0100
0001
0100
0010
0001
0100
0001
0010
0000
0000
,
0100
0000
1000
0100
0000
0100
1000
0000
0000
1001
0000
0000
,
0220
0330
1000
0001
,
2200
3300
0010
0001
,
0220
0000
0000
0330
0000
0000
1000
0000
0000
0001
0000
0100
,
0000
0000
0001
0010
0000
0000
0100
0000
0000
2002
0000
0000
,
3003
0000
0000
0000
1000
0010
1000
0010
1000
0020
0000
0000
,
0030
0000
0000
0000
0100
0001
0100
0001
0100
0001
0000
0000
,
1000
0100
1000
0100
0000
0000
1000
0010
1000
0010
0000
0000
,
0100
0001
0100
0001
0010
0001
0010
0000
0000
0100
0000
0000
,
1000
0010
0001
0100
,
0001
0010
1000
0100
,
0001
0010
0001
0100
,
1000
0010
0001
0100
,
0101
0011
1010
1100
,
0101
0011
1010
0011
,
0101
0000
0000
1100
0000
1000
0010
0000
0000
0011
0000
0000
,
0101
0000
0100
1000
0000
0000
1100
0000
0000
0101
0000
0000
,
1001
0110
1001
1001
,
0110
1100
0101
0110
,
1010
0000
0000
0011
0000
1000
0010
0000
0000
0110
0000
0000
,
1001
0000
0100
0001
0000
0000
0011
0000
0000
1100
0000
0000
,
2002
3003
0000
0000
;
