#TITLE:Popular;
#SUBTITLE:;
#ARTIST:The Veronicas;
#TITLETRANSLIT:;
#SUBTITLETRANSLIT:;
#ARTISTTRANSLIT:;
#GENRE:;
#CREDIT:;
#MUSIC:Popular - The Veronicas.mp3;
#BANNER:Popular banner.jpg;
#BACKGROUND:;
#CDTITLE:;
#SAMPLESTART:78.143;
#SAMPLELENGTH:15.610;
#SELECTABLE:YES;
#OFFSET:-0.094;
#BPMS:0.000=123.000
,234.000=131.000
,235.000=123.001
;
#STOPS:;
#DISPLAYBPM:123.000;
#BGCHANGES:;
#FGCHANGES:;

//--------------- dance-single - ----------------
#NOTES:
     dance-single:
     Shortysnmn2010:
     Beginner:
     1:
     0.089375,0.152813,0.016909,0.042272,0,74,72,2,5,0,0,0.089375,0.152813,0.016909,0.042272,0,74,72,2,5,0,0:
0000
0000
0000
0000
,
0000
0000
0000
0000
,
0000
0000
0000
0000
,
0000
0000
0000
0000
,
1000
0000
0000
0000
,
0001
0000
0000
0000
,
0010
0000
0000
0000
,
0100
0000
0000
0000
,
1000
0000
0001
0000
,
0001
0000
1000
0000
,
1000
0000
0000
0000
,
0010
0000
0000
0000
,
0100
0000
0100
0100
,
0000
0000
0001
0001
,
1000
0000
0000
0000
,
0100
0000
0000
0000
,
0010
0000
0000
0000
,
0001
0000
0000
0000
,
1000
0000
0000
0000
,
0010
0000
0000
0000
,
0100
0000
0000
0000
,
0001
0000
0000
0000
,
0010
0000
0000
0000
,
0100
0000
0000
0000
,
1000
0000
0001
0000
,
1000
0000
1000
0000
,
0001
0000
0000
0000
,
0010
0000
0000
0000
,
0100
0000
0010
0000
,
0100
0000
0100
0000
,
0010
0000
0000
0000
,
0001
0000
0000
0000
,
1000
0000
0001
0000
,
1000
0000
0000
0000
,
0010
0000
1000
0000
,
0010
0000
0000
0000
,
0100
0000
0000
0000
,
0001
0000
0000
0000
,
1000
0000
0010
0000
,
1000
0000
0000
0000
,
0200
0000
0000
0000
,
0010
0000
1000
0000
,
0310
0000
0000
0000
,
0001
0000
0000
0000
,
0002
0000
0000
0000
,
0100
0000
1000
0000
,
0103
0000
0000
0000
,
0010
0000
0000
0000
,
1000
0000
0000
0000
,
0100
0000
0000
0000
,
0001
0000
0000
0000
,
0020
0000
0000
0000
,
0000
0000
0030
0000
,
2002
0000
0000
0000
,
0000
0000
3003
0000
,
0100
0000
0001
0000
,
0100
0000
0000
0000
,
0010
0000
1000
0000
,
0010
0000
0000
0001
,
0000
0000
1000
0000
,
0000
0110
0000
0000
;

//--------------- dance-single - ----------------
#NOTES:
     dance-single:
     Shortysnmn2010:
     Easy:
     3:
     0.176334,0.20375,0.059181,0.059181,0,146,139,7,7,0,0,0.176334,0.20375,0.059181,0.059181,0,146,139,7,7,0,0:
0000
0000
0000
0000
,
0000
0000
0000
0000
,
0000
0000
0000
0000
,
0000
0000
0000
0000
,
0000
1000
0000
0001
,
0000
0010
0000
0100
,
0000
0010
0000
0001
,
0000
0100
0000
0010
,
0000
1000
1000
1000
,
0000
0001
0001
0001
,
0000
0010
0000
0100
,
0000
0010
0000
0001
,
0000
1000
1000
1000
,
0000
0001
0001
0001
,
1000
0100
1000
0000
,
0001
0010
0001
0000
,
0100
0100
0001
0000
,
0010
0010
0001
0000
,
1000
0010
1000
0000
,
0001
0100
0001
0000
,
0000
0000
1000
0000
0000
1000
0000
0000
,
1000
0000
0000
1000
0000
0000
1000
0000
,
0000
0000
0001
0000
0000
0001
0000
0000
,
0001
0000
0000
0001
0000
0000
0001
0000
,
0010
0100
0010
0000
,
0100
0010
0100
0000
,
1000
0000
0001
0000
,
1000
0000
0001
0000
,
0010
0001
0100
0000
,
0010
1000
0100
0000
,
0100
1000
0010
0000
,
0100
0001
0010
0000
,
0001
0000
0010
0000
,
0100
1000
0100
0000
,
1000
0000
0010
0000
,
0100
0010
0100
0000
,
0001
0000
0010
0000
,
0001
1000
0001
0000
,
0000
0000
0100
0000
0000
0100
0000
0000
,
0100
0000
0000
0100
0000
0000
0100
0000
,
0010
0000
1000
0001
,
0010
0000
0100
0010
,
0001
0000
1000
0010
,
1000
0000
0001
0100
,
0001
0000
0010
0000
,
0100
0000
1000
0000
,
0001
0000
1000
0001
,
0010
0000
0100
1000
,
0020
0000
0030
0000
,
0200
0000
0300
0000
,
0002
0000
0003
0000
,
2002
0000
0000
3003
,
1001
0000
0000
0110
,
2002
0000
0000
3003
,
1001
0000
0000
0110
,
1001
1000
0000
0001
,
0000
1000
0000
0001
,
0010
0010
0000
0100
,
0000
0010
0000
0100
,
0000
0100
0000
0000
0100
0000
0000
0100
,
0000
0100
0000
0000
;

//--------------- dance-single - ----------------
#NOTES:
     dance-single:
     Shortysnmn2010:
     Medium:
     5:
     0.306773,0.331094,0.32972,0.160633,0,254,215,39,19,0,0,0.306773,0.331094,0.32972,0.160633,0,254,215,39,19,0,0:
0000
0000
0000
0000
,
0000
0000
0000
0000
,
0000
0000
0000
0000
,
0000
0000
0000
0000
,
0000
1000
0000
0001
,
0000
0010
0100
0100
,
1000
0010
1000
0000
0100
0000
0100
0000
,
0010
0000
0001
0000
0100
0000
0001
1000
,
0000
1000
0001
0000
0010
0000
0001
0000
,
0000
1000
0001
0000
0100
0000
0001
0000
,
0010
0000
0001
0000
1000
0100
1000
0000
,
0010
0000
0001
0000
0010
1000
0100
0000
,
0010
0000
0001
0000
0001
1000
0002
0000
,
0003
0000
1000
0000
0100
1000
0100
0000
,
0010
0010
1100
1001
,
0010
0000
0001
0100
0000
0001
0000
0010
,
0100
0100
0011
1001
,
0010
0000
1000
0100
0000
0010
0000
0100
,
1000
1000
0110
0101
,
0010
0000
0100
1000
0000
0001
0000
0010
,
0000
0000
0011
0000
0000
0001
0000
0000
,
1001
0000
0000
1000
0000
0000
1100
0000
,
0000
0000
0110
0000
0000
0010
0000
0000
,
0011
0000
0000
0001
0000
0000
1001
0000
,
1000
0100
1000
0000
0001
0000
0010
0000
,
0010
0001
0100
0000
0001
0000
1000
0000
,
0000
0010
1000
0000
0001
0000
0010
0001
,
0000
0001
0010
0000
0001
0000
1000
0000
,
0100
0000
1000
0000
0010
0100
0010
0000
,
0100
0010
0100
0000
0001
0000
0010
0001
,
0000
0001
0010
0000
0001
0000
0100
0001
,
0000
0001
0100
0000
0010
0000
1000
0000
,
0001
0001
0110
1100
,
0001
0000
0010
0001
0000
0100
0000
0001
,
1000
1000
0110
1010
,
0001
0000
0010
0001
0000
1000
0000
0100
,
0010
0010
1100
1001
,
0010
0000
0001
0100
0000
0001
0000
1000
,
0000
0000
1100
0000
0000
1000
0000
0000
,
1010
0000
0000
0010
0000
0000
0110
0000
,
0001
0010
0001
1000
,
0100
1000
0010
0010
,
0110
0001
0010
0100
,
1000
0001
0100
0100
,
0110
1000
0001
0010
,
1000
0010
0001
0001
,
0101
0010
1000
0100
,
0010
0100
1000
1000
,
2020
3030
2002
3003
,
0202
0303
0022
0033
,
2002
3003
0220
0330
,
2002
0000
0000
0000
,
3003
0000
0000
0010
0000
0010
0100
0000
,
0220
0000
0000
0000
,
0330
0000
0000
1000
0000
1000
0001
0000
,
1001
0000
2000
0001
0000
0001
0000
0001
,
0000
3000
0000
0010
0000
0010
0100
0000
,
0110
0000
0002
1000
0000
1000
0000
1000
,
0000
0003
0000
0010
0000
0000
1100
0000
,
0000
1001
0000
0000
0101
0000
0000
1001
,
0000
0110
0000
0000
;

//--------------- dance-single - ----------------
#NOTES:
     dance-single:
     Shortysnmn2010:
     Hard:
     7:
     0.431173,0.43297,0.245177,0.262086,0.012682,357,328,29,31,0,0,0.431173,0.43297,0.245177,0.262086,0.012682,357,328,29,31,0,0:
0000
0000
0000
0000
,
0000
0000
0000
0000
,
0000
0000
0000
0000
,
0000
0000
0000
0000
,
1000
1000
0001
0010
0001
0001
1000
0010
,
1000
1000
0001
0100
0001
0000
1001
0000
,
1000
1000
0100
1000
0001
0001
0100
0001
,
1000
1000
0001
0010
0001
0000
1001
0000
,
0000
1000
0100
0001
0100
1000
0001
0000
,
0000
0001
0100
1000
0100
0001
1000
0000
,
1010
0000
1010
0000
0100
0000
0001
0010
,
0001
0000
0000
0001
1000
0000
0100
0000
0010
0000
0100
0000
1000
0000
0000
0000
,
0101
0000
0101
0000
0010
1000
0100
0000
,
0000
1000
0001
0100
0001
0000
1001
0000
,
1000
0010
0100
0001
1000
0001
0100
1000
,
0100
0001
2000
0100
0000
0001
0000
3100
,
0000
0010
0001
1000
0001
0100
1000
0100
,
0001
0010
0200
1000
0000
0001
0000
1300
,
0000
0001
0100
0010
1000
0010
0001
0010
,
0100
0001
0020
0100
0000
0001
0000
0130
,
0000
0000
1100
0000
0000
1001
0000
0000
,
0101
0000
0000
0000
0000
0000
2002
0000
0000
3003
0000
0000
1100
0000
0000
0000
,
0000
0000
0110
0000
0000
0011
0000
0000
,
0110
0000
0000
0000
0000
0000
2200
0000
0000
3300
0000
0000
0110
0000
0000
0000
,
0002
0103
0020
1030
,
0002
0000
0013
0000
0100
1000
0010
1000
,
0200
0310
0002
1003
,
0020
0000
0130
0000
0001
1000
0100
1000
,
0001
0010
0100
1000
0001
1000
0001
0000
,
0001
1000
0001
0000
0001
1000
0001
0100
,
0000
0000
0010
0000
1000
0000
0100
0010
0000
0000
0100
0000
0010
0000
0100
0000
,
0000
0000
1000
0000
0001
0000
0100
0001
0000
0000
0010
0000
0100
0000
0010
0000
,
0100
1000
0100
1000
0010
0100
0010
0100
,
0001
0010
0002
1000
0000
0100
0000
1003
,
0100
0010
0100
0010
0001
1000
0001
1000
,
0010
0100
0020
1000
0000
0100
0000
1030
,
0001
0100
0001
0100
0010
0001
0010
0001
,
1000
0100
2000
0001
0000
0100
0000
3001
,
0010
0000
0110
0000
0000
1010
0000
0000
,
1100
0000
0000
0000
0000
0000
0220
0000
0000
0330
0000
0000
0011
0000
0000
0000
,
1000
0001
0100
0001
0010
0001
1000
0100
,
0010
0000
0100
1000
0010
0100
0001
0000
,
1100
0000
0010
0001
0100
0001
0010
0100
,
0010
0000
0001
0100
0001
0010
0100
1000
,
0010
0100
0010
1000
0100
0010
0001
1000
,
0001
0000
1000
0100
0001
0100
2000
0000
,
0002
0000
0000
3003
0000
0000
0010
0000
1000
0000
0001
0000
1000
0000
0100
0000
,
0010
0001
0100
1000
0100
0001
0010
0000
,
2200
0300
0020
3000
,
0002
0030
0200
0003
,
2000
0300
0020
3030
,
0100
0001
0100
0001
0010
0001
0010
0001
,
1000
0100
1000
0100
0000
1000
1000
1000
,
0010
0100
0010
0100
0001
0010
0001
0010
,
0100
1000
0100
1000
0000
0010
0010
0010
,
0100
0001
2000
0001
0000
0001
0000
3100
,
0010
0001
0010
0100
0000
1000
0001
0100
,
0010
1000
0002
1000
0000
1000
0000
0103
,
0010
1000
0001
0100
0001
0000
0101
0000
,
0000
1001
0000
0000
1010
0000
0000
2002
,
0000
3003
0000
0000
0110
0000
0000
0000
0000
0000
0000
0000
0000
0000
0000
0000
;

//--------------- dance-single - ----------------
#NOTES:
     dance-single:
     Shortysnmn2010:
     Challenge:
     9:
     0.51934,0.560314,0.46499,0.092998,0.139497,430,375,55,11,0,0,0.51934,0.560314,0.46499,0.092998,0.139497,430,375,55,11,0,0:
0000
0000
0000
0000
,
0000
0000
0000
0000
,
0000
0000
0000
0000
,
0000
0000
0000
0000
,
1000
0101
0001
1100
,
1000
0011
0002
0003
,
1000
0010
0100
0010
1000
0100
0010
0100
,
1000
0001
0100
0001
0010
0100
1000
0100
,
0000
0000
1000
0001
1000
0000
0010
0000
0100
0000
0010
0000
1000
0000
0000
0000
,
0000
0000
0001
1000
0001
0000
0010
0000
0100
0000
0010
0100
0010
0000
0000
0000
,
0000
0100
1000
0100
1000
0001
0100
0001
0100
0000
0010
0100
0010
0000
1000
0000
,
0001
0000
0000
0001
1000
0000
0100
0000
0100
0000
1000
0000
0010
0000
0100
0000
,
0010
0000
1000
0000
1000
0000
0001
1000
0100
1000
0001
0000
1000
0000
0000
0000
,
0000
0000
0100
0000
0100
0000
1000
0001
0010
0001
1000
0000
0001
0000
0000
0000
,
1000
0100
1000
0100
0010
0001
0100
0001
,
0010
0100
0010
0011
0100
1100
0010
0011
,
0000
0001
0100
0010
0100
0010
1000
0001
,
0100
1000
0100
0101
0010
1010
0100
0101
,
0000
0010
1000
0010
1000
0100
0001
0100
,
1000
0010
1000
1100
0010
0011
0100
1100
,
0000
0000
1001
0000
0000
0101
0000
0000
,
0110
0000
0000
2002
0000
3003
0110
0000
,
0000
0000
1010
0000
0000
1100
0000
0000
,
0011
0000
0000
0220
0000
0330
1001
1000
,
0001
0010
1000
0010
0001
1000
0100
0001
,
0100
1000
0010
0100
0001
0010
0001
0000
,
0000
0000
1000
0010
0100
0010
1000
0100
0000
0100
1000
0000
0010
0000
0100
0000
,
0000
0000
0001
0100
0010
0100
0001
0010
0000
0010
0001
0000
0100
0000
0001
0000
,
0000
1000
0100
1000
0100
0010
0001
0000
1000
0000
0010
0000
1000
0000
0000
0000
,
0100
1000
0100
0000
1000
0100
1000
0010
,
0000
0000
0100
0001
1000
0001
0100
0010
0000
0000
0100
0000
0001
0000
0010
0000
,
0000
0000
0001
1000
0010
1000
0001
0010
0000
0000
0100
0000
0010
0000
0100
0000
,
1000
0010
0100
0010
1000
0100
0010
0100
,
1000
0010
0100
0101
0010
1010
0100
0101
,
0000
0001
0010
0001
0010
0100
1000
0001
,
1000
0100
0010
0011
0100
1100
0010
0011
,
0000
1000
0010
1000
0001
0100
1000
0100
,
0001
1000
0010
1010
0100
0101
0010
1010
,
0000
0000
1001
0000
0000
1100
0000
0000
,
0110
0000
0000
0022
0000
0033
1100
0000
,
0001
0000
0100
0000
0010
0000
0100
0000
0010
0000
0100
0000
0001
0000
0010
0001
,
0010
0000
0100
1000
0001
0100
0001
0000
,
1001
0000
1000
0010
1000
0001
0010
0100
,
0010
0000
0001
0100
1000
0100
0001
1000
,
0001
0000
0010
0000
1000
0000
0001
0000
1000
0000
0010
0000
0001
0000
1000
0001
,
1000
0000
0010
0100
0001
0100
0010
0000
,
0110
0000
0000
1000
1000
0100
0001
0001
,
0001
0100
1000
0000
0010
1000
0100
0000
,
1000
0000
0010
0000
1000
0000
0010
0000
0001
0000
0010
0000
0001
0000
0010
1000
,
0001
0100
0001
0100
1000
0100
1000
0100
,
1000
0010
1000
0010
0001
0010
0001
0010
,
0001
1000
0000
0001
0000
0100
0000
0010
,
0000
1000
0000
1100
0000
0110
0110
0110
,
0000
0001
0000
1000
0000
0010
0000
0001
,
0000
0010
0000
0110
0000
1001
1001
1001
,
0000
1000
0200
1000
0000
1000
0000
0310
,
0000
0001
0000
1001
0000
0101
0101
0101
,
0000
0010
2000
0010
0000
0001
0000
3001
,
0000
0100
0000
0010
0100
0000
1001
0000
,
0000
1100
0000
0000
0011
0000
0000
0220
,
0000
0330
1001
0000
0000
0000
0000
0000
;
