#TITLE:Party Rock Anthem;
#SUBTITLE:feat. Lauren Bennett & GoonRock;
#ARTIST:LMFAO;
#TITLETRANSLIT:;
#SUBTITLETRANSLIT:;
#ARTISTTRANSLIT:;
#GENRE:;
#CREDIT:;
#MUSIC:Party Rock Anthem (feat. Lauren Bennett & GoonRock).mp3;
#BANNER:;
#BACKGROUND:;
#CDTITLE:;
#SAMPLESTART:88.630;
#SAMPLELENGTH:14.768;
#SELECTABLE:YES;
#OFFSET:-0.023;
#BPMS:0.000=130.012
,153.000=65.006
,155.000=130.012
,183.000=32.503
,184.000=130.012
;
#STOPS:92.000=1.384;
#BGCHANGES:;
#FGCHANGES:;

//--------------- dance-single - ----------------
#NOTES:
     dance-single:
     Shortysnmn2010:
     Beginner:
     1:
     0.090472,0.128639,0.024999,0.108328,0,76,73,3,13,0,0,0.090472,0.128639,0.024999,0.108328,0,76,73,3,13,0,0:
0000
0000
0000
0000
,
0000
0000
0000
0000
,
0000
0000
0000
0000
,
0000
0000
0000
0000
,
0010
0000
0000
0000
,
0010
0000
0000
0000
,
0100
0000
0000
0000
,
0100
0000
0000
0000
,
1000
0000
0000
0000
,
0002
0000
0003
0000
,
1000
0000
0000
0000
,
0020
0000
0030
0000
,
1000
0000
0000
0000
,
0200
0000
0300
0000
,
0010
0000
0000
0000
,
0200
0000
0300
0000
,
1000
0000
0001
0000
,
1000
0000
0000
0000
,
0001
0000
1000
0000
,
0001
0000
0000
0000
,
1000
0000
0001
0000
,
1000
0000
0000
0000
,
0001
0000
1000
0000
,
0000
0010
0000
0000
,
0000
0100
0000
0000
,
0000
0010
0000
0100
,
0000
0010
0000
0000
,
0000
1000
0000
0000
,
0000
0100
0000
0000
,
0000
1000
0000
0100
,
0000
1000
0000
0000
,
0000
1001
0000
0000
,
0000
0001
0000
1000
,
0000
0001
0000
0000
,
0000
0010
0000
0000
,
0000
0100
0000
0000
,
0000
0010
0000
0100
,
0000
0010
0000
0000
,
0000
0001
0000
2002
,
3003
0000
0000
0010
,
0000
0100
0000
0010
,
0000
0000
0000
1000
,
0000
0000
0000
0001
,
0000
0000
0000
0010
,
0000
0000
0000
0100
,
0000
0000
0000
1000
,
0001
0000
1000
0000
,
0002
0000
0003
0000
,
1000
0000
0001
0000
,
2000
0000
3000
0000
,
0010
0000
0100
0000
,
0020
0000
0030
0000
,
0100
0000
0010
0000
,
0200
0000
0300
0000
,
0001
0000
0000
0000
,
2000
0000
3000
0000
,
0010
0000
0000
0000
,
0002
0000
0003
0000
,
1000
0000
0000
0000
,
0200
0000
0300
0000
,
0001
0000
0000
0000
,
0010
0000
0000
1001
;

//--------------- dance-single - ----------------
#NOTES:
     dance-single:
     Shortysnmn2010:
     Easy:
     2:
     0.135708,0.205823,0.024999,0.074996,0,114,111,3,9,0,0,0.135708,0.205823,0.024999,0.074996,0,114,111,3,9,0,0:
0000
0000
0000
0000
,
0000
0000
0000
0000
,
0000
0000
0000
0000
,
0000
0000
0000
0000
,
1000
0000
0000
0000
,
0001
0000
0000
0000
,
0010
0000
0000
0000
,
0100
0000
0000
0000
,
1000
0000
0001
0000
,
2000
0000
3000
0000
,
0100
0000
0010
0000
,
0200
0000
0300
0000
,
0010
0000
0001
0000
,
0020
0000
0030
0000
,
0100
0000
1000
0000
,
0200
0000
0300
0000
,
1000
0000
1000
0000
,
1000
0000
0010
0000
,
0001
0000
0001
0000
,
0001
0000
1000
0000
,
0010
0000
0010
0000
,
0010
0000
0001
0000
,
0100
0000
0100
0000
,
0100
1000
0000
0010
,
0000
0100
0000
0001
,
0000
1000
0000
0000
,
0000
0001
0000
0000
,
0000
0010
0000
0001
,
0000
1000
0000
0100
,
0000
1000
0000
0000
,
0000
0010
0000
0000
,
0000
0110
0000
0000
,
0000
1000
0000
0100
,
0000
0001
0000
0100
,
0000
0001
0000
0100
,
0000
1000
0000
0000
,
0000
0010
0000
1000
,
0000
0100
0000
0000
,
0000
1001
0000
0020
,
0000
0030
0000
0001
,
0001
0000
0000
1000
,
1000
1000
0000
0001
,
0000
1000
0001
1000
,
0000
0001
0000
0100
,
0000
0000
0000
0010
,
0000
1000
0000
0001
,
1000
0001
1000
0001
,
1000
0001
1000
0000
,
0010
0100
0010
0100
,
0010
0100
0010
0000
,
1000
0100
1000
0100
,
1000
0100
1000
0000
,
0001
0100
0001
0100
,
0001
0100
0001
0000
,
0010
0000
0001
0000
,
0200
0000
0300
0000
,
0010
0000
1000
0000
,
0200
0000
0300
0000
,
1000
0000
0010
0000
,
0002
0000
0003
0000
,
1000
0000
0100
0000
,
0002
0000
0003
1001
;

//--------------- dance-single - ----------------
#NOTES:
     dance-single:
     Shortysnmn2010:
     Medium:
     5:
     0.28689,0.334462,0.108328,0.133327,0.016666,241,228,13,16,0,0,0.28689,0.334462,0.108328,0.133327,0.016666,241,228,13,16,0,0:
0000
0000
0000
0000
,
0000
0000
0000
0000
,
0000
0000
0000
0000
,
0000
0000
0000
0000
,
1000
0000
0000
0010
0000
0100
0000
0000
,
0001
0000
0000
0010
0000
0001
0000
0000
,
1000
0000
0000
0010
0000
0100
0000
0000
,
0001
0000
0000
1000
0000
0100
0000
0000
,
0010
0000
0000
0001
0000
1000
0000
0000
,
0100
0000
0000
0010
0000
0001
0000
0000
,
1000
0000
0000
0010
0000
1000
0000
0000
,
0001
0000
0000
0100
0000
1000
0000
0000
,
0100
0000
0000
0001
0000
1000
0000
0000
,
0010
0000
0000
0001
0000
0010
0000
0000
,
1000
0000
0000
0001
0000
0010
0000
0000
,
1000
0000
0000
0010
0000
0100
0000
0000
,
2000
0100
0001
0100
,
0001
0000
0000
0100
0200
0000
3300
0000
,
0002
0100
1000
0100
,
1000
1000
1000
0000
0200
0000
0303
0000
,
2000
0010
0001
0010
,
0001
0000
0000
0010
0020
0000
3030
0000
,
0002
0000
0010
0000
1000
0000
0010
0020
,
0033
1000
0100
0010
,
0001
1100
0010
0001
,
0000
1000
0010
0100
,
0001
1010
0100
0001
,
0000
0010
0100
0010
,
0001
0110
1000
0100
,
0000
1000
0001
1000
,
0110
0000
0000
0000
0001
0000
0000
0001
0000
0000
0001
0000
0000
0000
0000
0000
,
0000
1000
1000
0100
,
0100
0000
0001
0000
0001
0000
0100
1000
,
0010
1000
1000
0010
,
0010
0000
0001
0000
0001
0000
0010
1000
,
0100
0010
0010
0001
,
0001
0000
0100
0000
0100
0000
0010
1000
,
0100
0000
0010
0001
0010
0000
0001
0010
,
0001
2000
3000
0001
,
0100
0000
0001
0100
0001
0000
2000
0000
,
3100
0000
0010
0100
1000
0000
0100
1000
,
0100
1001
0010
0001
,
0100
0000
0010
0000
0010
1000
0200
0000
,
0300
0000
1001
0000
0010
0001
0100
0000
,
0001
0000
1000
0000
0100
0000
1000
0001
,
0000
0100
0000
0000
0001
0000
0000
0000
1000
0000
0000
0020
0000
0000
0030
0000
,
0102
0010
0100
0010
,
0100
0010
0100
0013
,
2100
0010
0100
0010
,
0100
0010
0100
3010
,
0201
1000
0001
1000
,
0001
1000
0001
1300
,
0021
1000
0001
1000
,
0001
1000
0001
1030
,
0001
0000
1000
0100
1000
0000
0010
0100
,
0001
0000
0000
1000
0100
0000
0010
0000
,
0001
0000
1000
0010
1000
0000
1001
0000
,
0001
1000
0100
0000
1001
0000
0000
0000
,
0010
0000
1000
0000
0100
0000
0010
0001
,
0100
0000
0000
0001
0100
0000
0010
0000
,
1000
0000
0001
0000
0010
0000
0100
0010
,
0001
0000
0000
0001
0000
0000
0001
0000
0000
0000
0000
0000
1001
0000
0000
0000
;

//--------------- dance-single - ----------------
#NOTES:
     dance-single:
     Shortysnmn2010:
     Hard:
     8:
     0.438073,0.490809,0.241655,0.249988,0.283319,368,339,29,30,0,0,0.438073,0.490809,0.241655,0.249988,0.283319,368,339,29,30,0,0:
0000
0000
0000
0000
,
0000
0000
0000
0000
,
0000
0000
0000
0000
,
0000
0000
0000
0000
,
1000
0000
0000
0100
0000
0000
0100
0000
0000
0000
1000
0000
0000
0010
0000
0000
,
0001
0000
0000
0010
0000
0000
1000
0000
0000
0000
0001
0000
0000
0100
0000
0000
,
0001
0000
0000
0010
0000
0000
0010
0000
0000
0000
0001
0000
0000
0100
0000
0000
,
1000
0000
0000
0100
0000
0000
0001
0000
0000
0000
0010
0000
0000
0100
0000
0000
,
1000
0000
0000
0010
0000
0000
0010
0000
0000
0000
1000
0000
0000
0001
0000
0000
,
0100
0000
0000
0001
0000
0000
1100
0000
0000
0000
0010
0000
0000
0001
0000
0000
,
0100
0000
0000
0001
0000
0000
0001
0000
0000
0000
1000
0000
0000
0010
0000
0000
,
0001
0000
0000
0010
0000
0000
0101
0000
0000
0000
1000
0000
0000
0100
0000
0000
,
0010
0000
0000
0100
0000
0000
0100
0000
0000
0000
1000
0000
0000
0001
0000
0000
,
0100
0000
0000
0001
0000
0000
1010
0000
0000
0000
0100
0000
0000
0001
0000
0000
,
1000
0000
0000
0010
0000
0000
0010
0000
0000
0000
1000
0000
0000
0001
0000
0000
,
0100
0000
0000
0001
0000
0000
0110
0000
0000
0000
1000
0000
0000
0100
0000
0000
,
1100
0000
0000
1100
0000
0000
1001
0000
0000
0000
0010
0000
0000
0001
0000
0000
,
0100
0000
0000
0010
0000
0000
0100
0000
0000
0000
0001
0000
0000
0010
0000
0000
,
0110
0000
0000
0110
0000
0000
1100
0000
0000
0000
0001
0000
0000
0100
0000
0000
,
1000
0000
0000
0100
0000
0000
0001
0000
0000
0000
0010
0000
0000
0001
0000
0000
,
1001
0000
0000
1001
0000
0000
0101
0000
0000
0000
0010
0000
0000
1000
0000
0000
,
0100
0000
0000
0010
0000
0000
0100
0000
0000
0000
1000
0000
0000
0010
0000
0000
,
0110
0000
0000
0110
0000
0000
0101
0000
0000
0000
2000
0000
0000
0000
0000
0000
,
0000
0000
3000
0000
0000
0000
0000
0000
0000
0000
0000
0000
0001
0000
0000
0000
0000
0000
0010
0000
0000
0000
0000
0000
0001
0000
0000
0000
0000
0000
1000
0000
0000
0000
0000
0000
0100
0000
0000
0000
0000
0000
1000
0000
0000
0100
0000
0000
,
0000
0000
0000
0010
0000
0010
0001
0000
0010
0000
0100
0000
1000
0000
0000
0002
,
0000
0000
0003
0000
0100
0000
0010
0000
0001
0000
0010
0000
0100
0000
0001
0100
,
0000
0000
0000
0010
0000
0010
1000
0000
0100
0000
0010
0000
0100
0000
0000
2000
,
0000
0000
3001
0000
0100
0000
0010
0000
0100
0000
0001
0000
1000
0000
0100
1000
,
0000
0000
0000
0010
0000
0010
1000
0000
0100
0000
0010
0000
0001
0000
0000
0200
,
0000
0000
0300
0000
0010
0000
1000
0000
0001
0000
1000
0000
0100
0000
0010
0001
,
0000
0000
0000
1000
0100
0000
0000
0100
0000
0000
0001
0000
0000
0000
0100
0000
,
0000
1000
0000
0000
0010
0000
0100
0010
0100
0000
0000
0000
0001
0000
0010
0001
,
0000
0000
1000
0100
1000
0010
0100
0001
,
0010
0000
0011
0000
0000
0000
0001
0000
1000
0000
0100
0010
0100
0000
1000
0100
,
0000
1100
0101
1100
,
0101
0000
0000
0000
0010
0000
1000
0001
1000
0000
0000
0001
0100
0000
0001
0100
,
0000
0000
0001
0000
0010
0000
0100
0000
0010
0000
0001
0100
0001
0000
1000
0100
,
0000
0000
0000
0000
1000
0000
1000
0000
0010
0000
0010
0000
0001
0000
0010
0100
,
0000
0000
0000
0001
2000
0000
3000
0000
0002
0000
0003
0000
2000
0000
0000
0000
,
3100
0000
0010
0000
0001
0000
0010
0000
0100
0000
1000
0000
0020
0000
0000
0130
,
0001
1000
0100
0010
0100
1000
0010
0200
,
0001
0000
0001
0000
0310
1000
0001
0000
,
1000
0100
0001
0100
1000
0010
1000
0001
,
0100
0000
0210
0000
0301
1000
0100
0010
,
0100
1000
0000
0010
0100
0010
1000
0100
,
0000
0010
0000
0000
1100
0000
0000
0000
0110
0000
0000
0002
2000
0000
3003
0000
,
2100
0010
0100
0010
,
0100
0000
0010
0100
0200
0000
3300
0000
,
0012
0100
0010
0100
,
0010
0010
0010
0000
0200
0000
0303
0000
,
1020
0001
1000
0001
,
1000
0000
0001
1000
2000
0000
3030
0000
,
0201
1000
0001
1000
,
0001
0001
0001
0000
2000
0000
3300
0000
,
0010
1000
0100
1000
0010
0100
0001
0010
,
0200
1000
1300
0100
0020
0001
0031
1000
,
0010
0100
0001
1000
0100
0010
0001
1000
,
0002
0100
2003
0000
0020
0000
3030
0000
,
0100
0001
0010
0100
0010
0001
0100
0010
,
2000
0100
3100
0010
0200
1000
1300
0010
,
0100
1000
0100
0001
1000
0010
0100
0002
,
1000
0000
0000
1000
0000
0000
0013
0000
0000
0000
0000
0000
0220
0000
0000
0000
,
0330
0000
0000
0000
;
