#TITLE:One For All, All For One;
#SUBTITLE:;
#ARTIST:Razihel & Virtual Riot;
#TITLETRANSLIT:;
#SUBTITLETRANSLIT:;
#ARTISTTRANSLIT:;
#GENRE:;
#CREDIT:;
#MUSIC:One For All, All For One - Razihel & Virtual Riot.mp3;
#BANNER:One For All, All For One banner.jpg;
#BACKGROUND:;
#CDTITLE:;
#SAMPLESTART:39.790;
#SAMPLELENGTH:13.241;
#SELECTABLE:YES;
#OFFSET:-0.066;
#BPMS:0.000=145.000;
#STOPS:;
#BGCHANGES:;
#FGCHANGES:;

//--------------- dance-single - ----------------
#NOTES:
     dance-single:
     Shortysnmn2010:
     Beginner:
     1:
     0.108267,0.148867,0.072178,0.045111,0,84,76,8,5,0,0,0.108267,0.148867,0.072178,0.045111,0,84,76,8,5,0,0:
0000
0000
0000
0000
,
0000
0000
0000
0000
,
0000
0000
0000
0000
,
0000
0000
0000
0000
,
0010
0000
0000
1000
,
1000
0000
0000
0000
,
0100
0000
0000
0010
,
0010
0000
0000
0000
,
0001
0000
0002
0000
,
0000
0000
0003
0000
,
1000
0000
2000
0000
,
0000
0000
3000
0000
,
0010
0000
0020
0000
,
0000
0000
0030
0000
,
0100
0000
0200
0000
,
0000
0000
0300
0000
,
0001
0000
0000
1000
,
1000
0000
0000
0000
,
0010
0000
0000
1000
,
1000
0000
0000
0000
,
0100
0000
0000
0010
,
0010
0000
0000
0000
,
0001
0000
0000
0000
,
1000
0000
0000
0000
,
1001
0000
0000
0000
,
0010
0000
0000
0000
,
1000
0000
0100
0000
,
0001
0000
0000
0000
,
0110
0000
0000
0000
,
0001
0000
0000
0000
,
1000
0000
0010
0000
,
0001
0000
0000
0000
,
1001
0000
0000
0000
,
1000
0000
0000
0000
,
0100
0000
0010
0000
,
0001
0000
0000
0000
,
1100
0000
0000
0000
,
0010
0000
0000
0000
,
0001
0000
0100
0000
,
0010
0000
0000
0000
,
1000
0000
0000
0000
,
0001
0000
0010
0000
,
0001
0000
0000
0000
,
1000
0000
0100
0000
,
1000
0000
0000
0000
,
0010
0000
0000
0000
,
0100
0000
0000
0000
,
0001
0000
0000
0000
,
0110
0000
0000
0000
,
0001
0000
0000
0000
,
1000
0000
0100
0000
,
1000
0000
0000
0000
,
1001
0000
0000
0000
,
0001
0000
0000
0000
,
0010
0000
0100
0000
,
0010
0000
0000
0000
,
0110
0000
0000
0000
,
0100
0000
0000
0000
,
1000
0000
0100
0000
,
1000
0000
0000
0000
,
1001
0000
0000
0000
,
0001
0000
0000
0000
,
1000
0000
0001
0000
,
1000
0000
0000
0000
,
0020
0000
0000
0000
,
0000
0000
0000
0000
,
0030
0000
0000
0000
;

//--------------- dance-single - ----------------
#NOTES:
     dance-single:
     Shortysnmn2010:
     Easy:
     4:
     0.252623,0.259841,0.090223,0.234579,0,196,186,10,26,0,0,0.252623,0.259841,0.090223,0.234579,0,196,186,10,26,0,0:
0000
0000
0000
0000
,
0000
0000
0000
0000
,
0000
0000
0000
0000
,
0000
0000
0000
0000
,
1000
2000
3000
0001
,
0010
0100
1000
0010
,
1000
2000
3000
0100
,
0010
0001
0010
0100
,
0010
0001
0200
0000
,
0300
0010
1000
0001
,
0010
0000
0100
0000
,
1000
1000
0010
0100
,
0001
0010
0002
0003
,
0000
1000
0100
0010
,
0001
0000
0100
0000
,
0020
0030
0100
0100
,
0001
0010
0001
0010
,
1000
0010
0001
1000
,
0100
1000
0100
1000
,
0001
0100
0010
0000
,
1000
0010
1000
0010
,
0001
0010
0001
0010
,
0100
0001
0100
0010
,
1000
0000
0001
0000
,
2002
0000
3003
0000
,
0010
0010
1000
0100
,
0022
0000
0033
0000
,
0100
1000
0010
0100
,
2002
0000
3003
0000
,
0010
0001
1000
0001
,
0220
0000
0330
0000
,
1000
0100
0001
0001
,
2020
0000
3030
0000
,
0100
1000
0001
0010
,
2002
0000
3003
0000
,
0100
0010
0001
0010
,
2200
0000
3300
0000
,
0010
1000
0001
0100
,
2020
0000
3030
0000
,
0100
0000
0100
0000
,
0002
0000
0000
0013
,
0100
1000
0010
0100
,
0020
0000
0000
1030
,
0001
0010
0100
1000
,
0002
0100
1000
0103
,
0002
0010
1000
0013
,
0002
1000
0100
1003
,
0010
0000
1001
0000
,
1000
0000
0100
0010
,
0001
0001
0100
0010
,
1000
0000
0001
0100
,
0001
0001
0010
0001
,
1000
0000
0100
0100
,
0001
0100
1000
0001
,
0010
0000
0100
0100
,
0010
0001
0100
0100
,
0001
0000
1000
0010
,
1000
1000
0001
0100
,
0001
0000
1000
0100
,
0010
1000
0010
0010
,
0001
0000
0100
0010
,
0100
0001
0010
0010
,
0100
0000
0001
0100
,
1000
0000
0000
0001
0000
0000
1000
0000
,
1001
0000
0000
0000
;

//--------------- dance-single - ----------------
#NOTES:
     dance-single:
     Shortysnmn2010:
     Medium:
     5:
     0.348001,0.433068,0.297735,0.333824,0,270,237,33,37,0,0,0.348001,0.433068,0.297735,0.333824,0,270,237,33,37,0,0:
0000
0000
0000
0000
,
0000
0000
0000
0000
,
0000
0000
0000
0000
,
0000
0000
0000
0000
,
1000
0000
1000
0001
0000
0000
0010
0000
,
0100
1000
1010
0101
,
0001
0000
0010
0001
0000
0000
0010
0000
,
0100
1000
1100
0011
,
0001
0000
1000
0010
2000
0000
3000
0000
,
0000
0000
0001
0000
0010
0001
0100
0000
,
0002
0003
2000
3000
,
0010
0000
1001
0000
0100
0001
0010
0000
,
0001
0000
0010
0001
0200
0000
0300
0000
,
0000
0000
0010
0000
1000
0100
1000
0000
,
0020
0030
0200
0300
,
0001
0000
0110
0000
1000
0001
1000
0000
,
0001
0010
0100
1000
,
0100
1000
0100
1000
0100
1000
0100
0000
,
0010
0001
0100
0010
,
1000
0010
1000
0010
1000
0010
1000
0000
,
0001
0010
0100
1000
,
0001
0100
0001
0100
0001
0100
0001
0000
,
1000
0010
0001
0010
,
1000
0000
0001
0000
,
0020
0000
0100
0130
,
1000
0000
0001
0000
1010
0000
0001
1000
,
0002
0000
0100
0103
,
0010
0000
1000
0000
0011
0000
1000
0100
,
2000
0000
0010
3010
,
0100
0000
0001
0000
1100
0000
0010
0001
,
0200
0000
0010
0310
,
2000
0100
3002
0100
,
2003
0000
0100
3001
,
0010
0000
0001
0000
0100
0000
0010
1000
,
0002
0000
0010
1003
,
1100
0000
0011
0000
0001
0000
1000
0010
,
0200
0000
0010
0301
,
1000
0000
0100
0000
0010
0000
0001
1000
,
0200
0000
0010
1300
,
1100
0011
0001
0100
,
0010
0000
0010
2000
0000
0000
0100
0000
,
0001
0001
0010
3100
,
0001
0000
0001
0200
0000
0000
1000
0000
,
0010
0010
0001
0310
,
1010
1010
0001
0110
,
0110
1001
0010
1001
,
0100
0100
0010
0001
,
0200
0000
0300
0000
,
0220
0330
0001
1000
,
0100
0000
0010
0100
1000
0000
0010
0000
,
2002
3003
0100
0001
,
1000
0011
0011
0100
,
2200
0000
3300
0000
0010
0000
0001
0100
,
0002
0003
1000
0100
,
0022
0033
0100
1000
,
0110
1001
1001
0110
,
2002
0000
3003
0000
0100
0010
0100
0000
,
0001
0010
0100
1000
,
0220
0330
0001
1000
,
0100
0010
0100
0000
1000
0000
0001
0000
,
0022
0000
0033
0000
0001
0000
0100
0100
,
0001
0020
0030
0100
,
2200
0000
3300
0000
0010
0001
1000
0000
,
0010
0000
0000
0010
0000
0000
0010
0100
,
0010
0000
0000
0000
;

//--------------- dance-single - ----------------
#NOTES:
     dance-single:
     Shortysnmn2010:
     Hard:
     8:
     0.522002,0.523742,0.216534,0.387957,0.103756,405,381,24,43,0,0,0.522002,0.523742,0.216534,0.387957,0.103756,405,381,24,43,0,0:
0000
0000
0000
0000
,
0000
0000
0000
0000
,
0000
0000
0000
0000
,
0000
0000
0000
0000
,
0001
0100
0001
0100
0000
0010
1000
0100
,
1000
1000
0100
0001
0100
0100
1000
0001
,
0100
0010
0100
0010
0000
1000
0001
0100
,
1000
0100
0010
0100
0001
0010
0001
0000
,
1000
0000
0100
2000
0020
0000
0030
0000
,
3001
0010
0001
1000
0100
0010
0100
1000
,
0020
0030
2002
3003
,
0100
0000
0001
0100
0001
0000
1000
0000
0200
0000
0010
0000
0310
0000
0001
0000
,
1000
0000
0010
2000
0200
0000
0300
0000
,
3001
0100
0001
1000
0010
0001
0010
1000
,
0002
0003
0220
0330
,
2000
0000
3000
0100
1001
0100
1001
0010
,
1000
0001
0100
0001
0000
0010
0100
1000
,
0010
0010
0100
0001
0010
0010
0100
1000
,
0001
0100
0001
0100
0000
0010
0001
0010
,
0100
0001
0010
0001
0100
0001
0010
0010
,
0100
1000
0100
1000
0000
0010
1000
0100
,
0010
0010
0001
0100
0010
0010
1000
0100
,
0001
0100
0001
0100
1000
0001
1000
0010
,
0200
0000
0300
0000
,
2002
0000
3003
0000
0010
0002
0100
0000
,
1003
0000
0001
0010
0001
1000
0200
0010
,
0310
0000
0000
0000
1001
0000
0000
0000
0001
0000
0100
0000
0010
1000
0000
0010
,
1000
0001
1000
0000
1100
0000
0010
0001
,
2002
0000
3003
0000
0010
2000
0100
0100
,
3001
0000
1000
0010
0001
0010
1000
0100
,
2002
0000
3003
0000
0010
0010
0010
0010
,
0001
1000
0100
1000
0001
0010
0100
1000
,
0010
0000
2001
0000
0100
0100
3100
0000
,
0110
0000
0010
0001
1000
0001
0200
0010
,
0310
0000
0000
0000
1001
0000
0000
0000
1000
0000
0010
0000
0100
0001
0000
0100
,
0001
0010
0001
0000
1100
0000
0010
0001
,
1000
0000
0210
0000
0001
0301
1000
1000
,
0100
0000
0010
0001
2000
0100
3100
0010
,
0001
0000
1010
0000
0100
0001
0001
0001
,
0010
0200
0020
0000
0330
0000
0000
0000
,
1000
0100
0010
0002
0000
0000
0103
0000
,
0010
1000
0100
0001
0100
1000
0010
0100
,
0001
0010
0001
0200
0000
0000
0310
0000
,
1000
0001
1000
0001
0010
1000
0010
0100
,
1000
0000
0001
0010
0000
0000
0001
0010
0000
0000
0001
0100
0000
0000
0100
0001
,
0000
0000
1000
0100
0000
0000
1000
0100
0000
0000
0010
0001
0000
0000
0001
0010
,
0100
1000
0010
0100
1000
0100
0001
0010
,
0200
0000
0300
0000
,
0110
0000
0000
0000
1000
0000
0001
0010
0000
0001
0010
0000
0100
0000
0010
0000
,
0002
0000
1000
1000
1003
0100
0010
0000
,
1100
0000
0000
0000
0001
0000
0100
0010
0000
0100
0010
0000
1000
0000
0100
0000
,
0010
0000
0011
0000
1010
0000
0011
0100
,
1000
0000
0000
0000
0001
0000
1000
0010
0000
0010
1000
0000
0200
0000
0010
0000
,
0310
0000
0002
0000
0100
0000
0013
0100
,
1000
0000
0000
0000
0001
0000
1000
0010
0000
0100
0001
0000
0010
0000
0001
0000
,
0100
1000
0100
1000
0100
0001
0100
0001
,
0010
0000
2100
0000
0001
0001
3001
0000
,
0100
0000
0010
1000
0100
1000
0010
0100
,
0001
0000
0011
0000
0001
0100
0020
1000
,
1030
0000
1001
0000
0002
0000
0103
0010
,
1000
0000
0002
0000
0010
0013
2000
0100
,
3100
0000
0000
0000
1000
0001
1000
0001
1000
0000
0001
0000
0100
0000
0001
0000
,
2000
0000
0010
0000
3002
0100
0100
0103
,
0010
0000
0100
0001
0000
0001
1000
0100
,
2002
0000
3003
0000
;

//--------------- dance-single - ----------------
#NOTES:
     dance-single:
     Shortysnmn2010:
     Challenge:
     10:
     0.670225,0.738697,0.369913,0.433068,0.424046,520,479,41,48,0,0,0.670225,0.738697,0.369913,0.433068,0.424046,520,479,41,48,0,0:
0000
0000
0000
0000
,
0000
0000
0000
0000
,
0000
0000
0000
0000
,
0000
0000
0000
0000
,
0100
0000
0001
0000
0010
0000
0001
0000
0000
0000
1000
0000
0100
0010
0100
0010
,
0200
1000
2300
0001
3002
0100
0203
0010
,
0310
0000
1000
0000
0100
0000
1000
0000
0000
0000
0001
0000
0010
0100
0010
0100
,
0010
0001
1000
0010
1000
0001
0010
0100
,
1000
0010
0001
0010
2000
0000
3000
0000
,
1100
0000
0010
0001
2000
0000
0010
0000
3010
0000
0100
0000
0001
0000
0011
0000
,
0220
0330
2200
3300
,
1000
0000
0001
0100
0001
0000
1000
0000
0100
0010
0100
0010
0001
0000
0100
0000
,
1000
0100
0001
0100
0020
0000
0030
0000
,
0101
0000
0010
1000
0001
0000
1000
0000
0100
0000
0010
0000
0001
0000
1001
0000
,
2200
3300
0220
0330
,
2002
0000
0000
0000
3003
0000
0000
0000
0040
0400
0000
0000
0000
0000
0330
0000
,
0001
0000
0010
0001
0100
0000
0001
0000
1000
0000
0100
1000
0010
0100
0010
0100
,
0002
0010
0023
0100
0230
1000
2300
0001
,
3001
0000
0100
0001
0010
0000
0001
0000
1000
0000
0100
1000
0010
0100
0010
0100
,
0001
1000
0100
1000
0010
0010
0100
0001
,
1000
0000
0100
1000
0100
0000
1000
0000
0010
0000
0100
0001
1000
0100
1000
0100
,
0020
0001
0032
1000
2003
0010
3020
0001
,
0031
0000
1000
0000
0100
0000
0001
0000
0010
0000
0100
0000
1000
0001
1000
0001
,
0100
0000
0220
0330
,
1001
0000
0100
0000
0010
0010
0010
0000
,
2100
0000
0000
0000
3001
0000
0010
0000
0100
0000
0010
0001
1000
0010
1000
0001
,
0010
0000
0000
0000
0100
0000
0000
0000
0110
0000
1000
0000
0001
0010
0000
0010
,
0001
0000
0200
0000
0001
0000
0000
0000
0310
1000
0001
1000
0100
0000
0000
0000
,
0110
0000
0001
0000
1001
1100
1001
0101
,
1001
0000
0000
0000
0010
0000
0010
0000
1000
0000
0100
0010
0001
0010
0001
1000
,
0200
0000
0001
0000
1000
1000
1000
1300
,
0001
0000
0010
0000
0001
0000
0100
0000
0001
0010
0100
0001
0100
0000
0010
0000
,
0001
0000
0100
0000
0010
0010
0010
0000
,
1002
0000
0000
0000
0103
0000
0010
0000
0100
0000
0001
1000
0001
0010
0100
0010
,
0001
0000
0000
0000
0100
0000
0000
0000
0110
0000
1000
0000
0001
1000
0000
1000
,
0001
0000
0020
0000
0001
0000
0000
0000
0130
1000
0001
1000
0100
0000
0010
0000
,
0100
0000
1000
0000
1010
0110
1010
1001
,
0101
0000
0000
0000
0010
0000
0010
0000
1000
0000
0001
0100
0010
0100
0001
1000
,
0002
0000
0010
0000
1000
1000
1000
1003
,
0100
0000
0000
0000
0010
0000
0000
0000
0001
1000
0100
1000
0100
0010
0100
0010
,
0001
0000
0100
0000
0001
0000
0010
0000
0000
0000
0001
0000
1000
0100
0010
0100
,
2000
0010
3002
0010
2003
0010
3002
0010
,
1003
0000
0100
0000
1000
0000
0010
0000
0000
0000
0100
0000
0001
1000
0010
1000
,
0002
0100
2003
0100
3002
0100
2003
0100
,
3001
0000
0010
0001
0010
0000
0100
1000
0100
0000
0010
0001
1000
0000
0100
1000
,
0001
0000
0100
0001
1000
0000
0010
1000
0001
0000
0100
0001
0100
0000
0010
1000
,
0010
0000
0100
0000
0001
0000
0100
0000
1000
0000
0100
0000
0001
1000
0001
1000
,
0001
0000
2002
3003
,
0010
0000
0000
0000
1100
0000
0100
1000
0000
0100
1000
0000
0010
0000
0100
0000
,
0020
0000
0000
0000
1000
0000
0100
0000
1030
0000
0001
0000
1000
0100
0010
0100
,
1000
0000
0000
0000
0001
0000
0010
0001
0000
0010
0001
0000
0100
0000
0010
0000
,
0100
0001
0011
0000
0110
0000
0011
0001
,
0100
0000
0000
0000
0101
0000
0001
0100
0000
0001
0100
0000
0010
1000
0010
1000
,
0002
0000
0000
0000
1003
0000
0100
1000
0000
0100
1000
0100
0010
0000
0001
0000
,
1000
0000
0000
0000
0001
0000
0010
0100
0000
0010
0100
0000
1000
0000
0001
0000
,
1000
0000
0100
0010
0100
0000
1000
0000
0001
0100
0010
0100
0001
0000
1000
0000
,
0100
0000
2100
0000
0001
0001
3001
0000
,
0010
0000
0000
0000
0001
0000
0100
0000
0001
0000
0010
0100
0010
0001
0100
0010
,
0100
0000
0000
0000
0001
0000
0000
0000
1000
0000
0100
0000
0010
0100
0010
0100
,
1000
0000
0001
0000
1000
0000
0000
0000
0001
1000
0001
1000
0100
0000
0001
0000
,
0100
0000
2100
0000
0010
0010
3010
0100
,
0001
0000
0000
0000
1000
0001
1000
0001
0100
0000
0010
0100
0001
0100
0001
1000
,
0100
0000
0010
0000
0011
1001
1100
0110
,
0011
0000
0100
1001
0000
0010
1001
1000
,
0200
0000
0000
0000
,
0000
0000
0300
0000
;
