#TITLE:Monody;
#SUBTITLE:;
#ARTIST:The Fat Rat;
#TITLETRANSLIT:;
#SUBTITLETRANSLIT:;
#ARTISTTRANSLIT:;
#GENRE:;
#CREDIT:;
#MUSIC:Monody - TheFatRat.mp3;
#BANNER:;
#BACKGROUND:;
#CDTITLE:;
#SAMPLESTART:71.001;
#SAMPLELENGTH:17.944;
#SELECTABLE:YES;
#OFFSET:-0.347;
#BPMS:0.000=107.000;
#STOPS:;
#BGCHANGES:;
#FGCHANGES:;

//--------------- dance-single - ----------------
#NOTES:
     dance-single:
     Shortysnmn2010:
     Beginner:
     1:
     0.085555,0.109336,0.00788,0.047281,0,76,75,1,6,0,0,0.085555,0.109336,0.00788,0.047281,0,76,75,1,6,0,0:
0000
0000
0000
0000
,
0000
0000
0000
0000
,
0000
0000
0000
0000
,
0000
0000
1000
0000
,
0000
0000
0001
0000
,
0000
0000
1000
0000
,
0000
0000
0001
0000
,
1000
0000
0001
0000
,
0100
0000
0010
0000
,
0000
0000
1000
0000
,
0100
0000
0010
0000
,
0000
0000
0001
0000
,
1000
0000
0010
0000
,
0000
0000
0100
0000
,
0001
0000
1000
0000
,
0000
0000
0010
0000
,
0010
0000
1000
0000
,
0000
0000
0001
0000
,
0001
0000
0100
0000
,
0000
0000
0001
0000
,
0010
0000
1000
0000
,
0000
0000
0001
0000
,
0100
0000
1000
0000
,
0000
0000
0020
0000
,
0030
0000
1000
0000
,
0001
0000
1000
0000
,
0000
0000
0100
0000
,
0000
0000
0020
0000
,
0030
0000
0001
0000
,
1000
0000
0001
0000
,
0000
0000
0100
0000
,
0000
0000
0110
0000
,
0000
0000
1000
0000
,
0001
0000
1000
0000
,
0000
0000
0100
0000
,
0010
0000
0100
0000
,
0000
0000
0010
0000
,
0001
0000
0100
0000
,
0000
0000
0010
0000
,
1000
0000
0100
0000
,
0000
0000
1000
0000
,
0010
0000
0001
0000
,
0000
0000
1000
0000
,
0100
0000
0001
0000
,
0000
0000
1000
0000
,
0001
0000
1000
0000
,
0000
0000
0010
0000
,
0100
0000
0020
0000
,
0030
0000
1000
0000
,
0100
0000
1000
0000
,
0100
0000
2000
0000
,
3000
0000
0002
0000
,
0003
0000
0100
0000
,
0010
0000
0100
0000
,
0010
0000
0200
0000
,
0000
0000
0300
0000
;

//--------------- dance-single - ----------------
#NOTES:
     dance-single:
     Shortysnmn2010:
     Easy:
     2:
     0.109196,0.152381,0,0.063041,0,97,97,0,8,0,0,0.109196,0.152381,0,0.063041,0,97,97,0,8,0,0:
0000
0000
0000
0000
,
0000
0000
0000
0000
,
0000
0000
0000
0000
,
0000
0000
1000
0000
,
0000
0000
0001
0000
,
0000
0000
0010
0000
,
0000
0000
0100
0000
,
0000
0000
1000
0000
,
0001
0000
1000
0000
,
0001
0000
0010
0000
,
0100
0000
0001
0000
,
0100
0000
0010
0000
,
0100
0000
1000
0000
,
0010
0000
0001
0000
,
0010
0000
0001
0000
,
1000
0000
0100
0000
,
0100
0000
0001
0000
,
0001
0000
1000
0000
,
1000
0000
0010
0000
,
0010
0000
1000
0000
,
1000
0000
0001
0000
,
0010
0000
0001
0000
,
0001
0000
1000
0000
,
0100
0000
2000
0000
,
0000
3000
0010
0000
,
0100
0000
0002
0000
,
0000
0003
0020
0000
,
0030
0001
0001
0000
,
0100
0000
0010
0000
,
1000
0000
0001
0000
,
1000
0000
0200
0000
,
0000
0300
0010
0000
,
0010
0000
0001
0000
,
0100
0000
1000
0000
,
1000
0000
0010
0000
,
1000
0000
0100
0000
,
0001
0000
0001
0000
,
1000
0000
0010
0000
,
0100
0000
0100
0000
,
0001
0000
1000
0000
,
0010
0000
1000
0000
,
1000
0000
0100
0000
,
1000
0000
1000
0000
,
0010
0000
0001
0000
,
0010
0000
0001
0000
,
0001
0000
0100
0000
,
0001
0000
0001
0000
,
1000
0000
0020
0000
,
0000
0030
0100
0000
,
1000
0000
0002
0000
,
0000
0003
0200
0000
,
0300
0010
0010
0000
,
1000
1000
0100
0000
,
0001
0001
0100
0000
,
1000
1000
0002
0000
,
0000
0003
0000
0000
;

//--------------- dance-single - ----------------
#NOTES:
     dance-single:
     Shortysnmn2010:
     Medium:
     5:
     0.278055,0.346724,0.047281,0.063041,0,247,241,6,8,0,0,0.278055,0.346724,0.047281,0.063041,0,247,241,6,8,0,0:
0000
0000
0000
0000
,
0000
0000
0000
0000
,
0000
0000
0000
0000
,
0000
0000
1000
0000
,
0001
0000
0010
0000
,
0001
0000
1000
0000
,
0010
0000
1000
0001
,
1000
0000
0000
0000
0100
0000
1000
0100
,
1000
0000
0100
1000
0100
0000
0010
0000
,
0001
0000
0100
0000
0001
0000
0100
0001
,
0100
0000
0001
0100
0001
0000
0010
0000
,
0100
0000
1000
0000
0010
0000
0100
0010
,
0100
0000
0010
0100
0010
0000
1000
0000
,
0001
0000
0010
0000
0100
0000
0010
0100
,
0010
0000
0100
0010
0200
0000
0000
0000
,
0000
0000
0300
0000
0010
0000
0001
1000
,
0100
0000
1000
0001
0100
0000
0010
0000
,
1000
0000
0000
0000
0001
0000
0010
0001
,
1000
0000
0010
1000
0001
0000
0010
0000
,
0001
0000
0000
0000
1000
0000
0100
0010
,
0001
0000
0100
0010
1000
0000
0001
0000
,
0100
0000
0000
0000
0001
0000
0010
0001
,
0100
0000
0100
0001
0010
0000
0010
0000
,
0110
0110
0200
0300
,
1000
0000
0001
0010
0002
0000
0003
0000
,
0100
0000
0010
0100
0020
0000
0030
0000
,
1000
0000
0001
0010
0002
0000
1000
0000
,
0100
0000
0013
0000
0110
0000
0100
1000
,
0100
0000
0010
0000
0001
0000
0100
0010
,
0100
0000
0001
0000
0010
0000
0100
1000
,
0100
0000
0010
0001
2000
0000
0000
0000
,
0000
3000
0001
0010
,
0100
0000
1000
0000
0001
1000
0001
1000
,
0001
0010
0100
1000
,
0010
0000
0100
0000
0010
0100
0010
0100
,
0010
1000
0100
0010
,
0001
0000
1000
0000
0100
0001
0100
0001
,
0100
1000
0001
0100
,
0010
0000
1000
0000
0001
0010
0001
0010
,
0001
0000
1001
1001
1001
0000
1000
0100
,
1000
0000
0001
0000
0010
0100
0010
0100
,
0010
0000
0001
0000
0100
0000
0010
0100
,
0010
0000
1000
0000
0001
0010
0001
0010
,
0001
0000
1000
0000
0010
0000
0100
0001
,
1000
0000
0100
0000
0010
0001
1000
0001
,
0010
0000
0001
0000
1000
0000
0100
1000
,
0100
0000
0010
0000
0001
1000
0100
1000
,
0001
0000
0100
0000
0010
0000
1000
0100
,
1000
0000
0010
0100
0010
0000
1000
0100
,
1000
0000
0010
0100
0010
0000
1000
0100
,
1000
0000
0010
0100
0002
0000
0000
0000
,
0003
0000
0010
0001
0100
0000
0010
0100
,
0010
0000
0100
0001
0010
0000
0100
0010
,
0100
0000
0010
0001
0100
0000
0010
0100
,
0010
0000
0100
0001
2000
0000
0000
0000
,
3000
0000
0000
0000
;

//--------------- dance-single - ----------------
#NOTES:
     dance-single:
     Shortysnmn2010:
     Hard:
     7:
     0.377119,0.368395,0.094561,0.189122,0.189122,335,323,12,24,0,0,0.377119,0.368395,0.094561,0.189122,0.189122,335,323,12,24,0,0:
0000
0000
0000
0000
,
0000
0000
0000
0000
,
0000
0000
0000
0000
,
0000
0000
0000
0000
1000
0000
0001
0100
,
0001
0000
1000
0010
1000
0000
0100
0010
,
0100
0000
1000
0001
1000
0000
0010
0100
,
0010
0000
1000
0100
1000
1000
0010
0010
,
0100
0000
0000
0100
0000
0000
0001
0000
0000
0000
0000
0000
1000
0000
0000
0000
0000
0100
1000
0000
0000
0100
0000
0000
,
1000
0000
0000
0000
0000
0001
0010
0000
0000
0001
0000
0000
0010
0000
0000
0100
0000
0000
1000
0000
0000
0100
0000
0000
,
0010
0000
0000
0000
0000
0000
1001
0000
0000
0000
0000
0000
0010
0000
0000
0000
0000
0100
0010
0000
0000
0100
0000
0000
,
0010
0000
0000
0000
0000
1000
0010
0000
0000
1000
0000
0000
0001
0000
0000
0100
0000
0000
0001
0000
0000
1000
0000
0000
,
0100
0000
0000
0000
0000
0000
1001
0000
0000
0000
0000
0000
0100
0000
0000
0000
0000
0001
0100
0000
0000
0001
0000
0000
,
0100
0000
0000
0000
0000
0001
0010
0000
0000
0001
0000
0000
0010
0000
0000
1000
0000
0000
0010
0000
0000
0100
0000
0000
,
1000
0000
0000
0000
0000
0000
0101
0000
0000
0000
0000
0000
0010
0000
0000
0000
0000
0100
0010
0000
0000
0100
0000
0000
,
0010
0000
0000
0000
0000
1000
0010
0000
0000
1000
0000
0000
0010
0000
0000
0000
0000
0000
0100
0000
0000
0000
0000
0000
,
0001
0000
0000
0000
0000
0000
1001
0000
0000
0000
0000
0000
1000
0000
0000
0000
0000
0100
1000
0000
0000
1000
0000
0000
,
0100
0000
0000
0000
0000
1000
0100
0000
0000
0100
0000
0000
1000
0000
0000
0010
0000
0000
0001
0000
0000
0010
0000
0000
,
1000
0000
0000
0000
0000
0000
1010
0000
0000
0000
0000
0000
0010
0000
0000
0000
0000
0100
0001
0000
0000
0001
0000
0000
,
0100
0000
0000
0000
0000
0001
0100
0000
0000
0100
0000
0000
0001
0000
0000
0010
0000
0000
1000
0000
0000
0010
0000
0000
,
0001
0000
0000
0000
0000
0000
0101
0000
0000
0000
0000
0000
0100
0000
0000
0000
0000
0001
1000
0000
0000
1000
0000
0000
,
0001
0000
0000
0000
0000
1000
0001
0000
0000
0001
0000
0000
1000
0000
0000
0100
0000
0000
1000
0000
0000
0001
0000
0000
,
0100
0000
0000
0000
0000
0000
1010
0000
0000
0000
0000
0000
0100
0000
0000
0000
0000
1000
0001
0000
0000
0001
0000
0000
,
1000
0000
0000
0000
0000
0001
1000
0000
0000
1000
0000
0000
0001
0000
0000
0000
0000
0000
0100
0000
0000
0000
0000
0000
,
0010
0000
0100
0001
2000
0000
3100
0010
,
0002
0000
0103
0010
2000
0000
3100
0001
,
0200
0000
0310
1000
0020
0000
0031
1000
,
0002
0000
0103
0010
2000
0000
0000
0000
,
3000
0000
0000
0000
0000
0000
0001
0000
0000
0100
0000
0000
1000
0000
0000
0000
0000
1000
0100
0000
0000
0001
0000
0000
,
0200
0000
0000
0000
0000
0000
0310
0000
0000
1000
0000
0000
0100
0000
0000
0000
0000
0100
1000
0000
0000
0010
0000
0000
,
2000
0000
3100
0010
2000
0000
3010
0001
,
2000
0000
3010
0100
0002
0000
0000
0000
,
0003
0000
0000
0000
0000
0000
0000
0000
0000
0000
0000
0000
1000
0000
0000
0000
0000
1000
0001
0000
0000
0001
0000
0010
,
0000
0000
0010
0000
0000
0010
0001
0000
0000
1000
0000
0000
0100
0000
0000
0000
0000
0000
0010
0000
0000
0000
0000
0000
,
0001
0000
0000
0000
0000
0000
0100
0000
0000
0000
0000
0000
0010
0000
0000
0000
0000
1000
0010
0000
0000
1000
0000
0001
,
0000
0000
0001
0000
0000
0001
0100
0000
0000
0010
0000
0000
1000
0000
0000
0000
0000
0000
0100
0000
0000
0000
0000
0000
,
0001
0000
0000
0000
0000
0000
0100
0000
0000
0000
0000
0000
0010
0000
0000
0000
0000
0001
0010
0000
0000
0001
0000
0000
,
0010
0000
0000
0000
0000
0100
1000
0000
0000
0010
0000
0000
0100
0000
0000
0000
0000
0000
0001
0000
0000
0000
0000
0000
,
0010
0000
0000
0000
0000
0000
0001
0000
0000
0000
0000
0000
0100
0000
0000
0000
0000
0100
0001
0000
0000
1000
0000
0100
,
0000
0000
0100
0000
0000
0100
1000
0000
0000
0010
0000
0000
0100
0000
0000
0000
0000
0000
0001
0000
0000
0000
0000
0000
,
1001
0000
0000
0000
0000
0000
0000
0000
0000
0000
0000
0000
0001
0000
0000
0000
0000
1000
0100
0000
0000
0010
0000
0001
,
0000
0000
0010
0000
0000
0001
0010
0000
0000
0001
0000
0000
1000
0000
0000
1000
0000
0000
0010
0000
0000
0000
0000
0000
,
0100
0000
0000
0000
0000
0000
1001
0000
0000
0000
0000
0000
0001
0000
0000
0000
0000
1000
0010
0000
0000
1000
0000
0100
,
0000
0000
1000
0000
0000
0100
1000
0000
0000
0010
0000
0000
0100
0000
0000
0100
0000
0000
0001
0000
0000
0000
0000
0000
,
0010
0000
0000
0000
0000
0000
0110
0000
0000
0000
0000
0000
0100
0000
0000
0000
0000
1000
0100
0000
0000
1000
0000
0000
,
0100
0000
0000
0000
0000
0010
0100
0000
0000
0010
0000
0000
0001
0000
0000
0001
0000
0000
1000
0000
0000
0000
0000
0000
,
0100
0000
0000
0000
0000
0000
0011
0000
0000
0000
0000
0000
0100
0000
0000
0000
0000
1000
0010
0000
0000
1000
0000
0001
,
0000
0000
1000
0000
0000
0001
0010
0000
0000
0001
0000
0000
1000
0000
0000
1000
0000
0000
0100
0000
0000
0000
0000
0000
,
0010
0000
1100
0000
2000
0000
3001
0100
,
0002
0000
0013
0100
2000
0000
3010
0001
,
0020
0000
0130
0001
0020
0000
0130
1000
,
0002
0000
0103
1000
0200
0000
0000
0000
,
0300
0000
0000
0000
0000
0000
0010
0000
0000
1000
0000
0000
0100
0000
0000
0000
0000
0100
1000
0000
0000
0010
0000
0000
,
2000
0000
0000
0000
0000
0000
3001
0000
0000
0100
0000
0000
0001
0000
0000
0000
0000
0001
0010
0000
0000
0001
0000
0000
,
0200
0000
0310
1000
0002
0000
0103
1000
,
0002
0000
0013
0100
0002
0000
0000
0000
,
0003
0000
0000
0000
;

//--------------- dance-single - ----------------
#NOTES:
     dance-single:
     Shortysnmn2010:
     Challenge:
     10:
     0.593259,0.595735,0.583127,0.220643,0.500386,527,453,74,28,0,0,0.593259,0.595735,0.583127,0.220643,0.500386,527,453,74,28,0,0:
0000
0000
0000
0000
,
0000
0000
0000
0000
,
0000
0000
0000
0000
,
0000
0000
0000
0000
0000
0000
0000
0000
0000
0000
0000
0000
1000
0000
0000
0000
0000
0100
1000
0000
0000
1000
0000
0000
,
1000
0000
0000
0000
0000
1000
0001
0000
0000
0001
0000
0000
0001
0000
0000
0000
0000
0001
0100
0000
0000
0100
0000
0000
,
0100
0000
0000
0000
0000
0100
0010
0000
0000
0010
0000
0000
0010
0000
0000
1000
0000
0100
1000
0000
0000
0010
0000
0000
,
0100
0000
0000
0001
0000
0010
0001
0000
0000
0100
0000
0000
0010
0000
0010
1000
0000
1000
0100
0000
0100
0001
0000
0001
,
0100
0000
0100
1000
0000
1000
0010
0000
0010
0100
0000
0000
1001
0000
0000
0000
0000
1000
0100
0000
0000
1000
0000
0000
,
1100
0000
0000
0000
0000
0001
0100
0000
0000
0001
0000
0000
0010
0000
0000
0010
0000
0000
0001
0000
0001
1000
0000
1000
,
0100
0000
0000
0010
0000
0100
0000
0000
2100
0000
0000
0000
3010
0000
0000
0000
0000
0100
0001
0000
0000
0100
0000
0000
,
0101
0000
0000
0000
0000
0001
0010
0000
0000
0001
0000
0000
0100
0000
0000
0010
0000
0000
1000
0000
0100
1000
0000
1000
,
0010
0000
0000
0100
0000
0001
0000
0000
0021
0000
0000
0000
0130
0000
0000
0000
0000
0010
0100
0000
0000
1000
0000
0000
,
1100
0000
0000
0000
0000
1000
0010
0000
0000
1000
0000
0000
0100
0000
0000
0100
0000
0000
0010
0000
0010
0001
0000
0001
,
0100
0000
0000
0010
0000
0100
0000
0000
0102
0000
0000
0000
0013
0000
0000
0000
0000
0100
1000
0000
0000
0100
0000
0000
,
1100
0000
0000
0000
0000
0010
0001
0000
0000
0100
0000
0000
1000
0000
0000
1000
0000
0000
0100
0000
0100
0001
0000
0001
,
0010
0000
0000
0100
0000
1000
0000
0000
1020
0000
0000
0000
0130
0000
0000
0001
0000
1000
0001
0000
0000
0010
0000
0000
,
0001
0000
0000
0100
0000
1000
0100
0000
0000
0001
0000
0000
1010
0000
0000
1010
0000
0000
0100
0000
0100
0001
0000
0001
,
0020
0000
0000
0130
0000
1000
0000
0000
1002
0000
0000
0000
0103
0000
0000
0010
0000
1000
0010
0000
0000
1000
0000
0000
,
0100
0000
0000
1000
0000
0010
1000
0000
0000
1001
0000
0000
0101
0000
0000
0101
0000
0000
0010
0000
0010
1000
0000
1000
,
0100
0000
0100
0010
0000
0001
0000
0000
2001
0000
0000
0000
3100
0000
0000
0010
0000
1000
0010
0000
0000
0100
0000
0000
,
1000
0000
0000
0010
0000
0100
1000
0000
0000
0100
0000
0000
1001
0000
0000
1001
0000
0000
0010
0000
0001
0010
0000
0100
,
1000
0000
1000
0100
0000
0010
0000
0000
0110
0000
0000
0000
1000
0000
0000
0001
0000
0100
1000
0000
0000
0100
0000
0000
,
0001
0000
0000
1000
0000
0100
0001
0000
0000
0110
0000
0000
1001
0000
0000
1001
0000
0000
0100
0000
0010
1000
0000
0010
,
0100
0000
0001
0100
0000
0010
0000
0000
0110
0000
0000
0000
2010
0000
0000
0001
0000
0000
3010
0000
0000
0100
0000
0000
,
0102
1000
0103
0010
2010
0100
3010
0100
,
0102
0010
0103
0010
2010
0001
3010
0100
,
0102
0000
0000
1000
0000
0000
0103
0000
0000
0010
0000
0000
1000
0000
0000
0000
0000
0001
0000
0000
0000
0010
0000
0000
,
0000
0000
0100
0000
0000
0000
1000
0000
0000
0010
0000
0000
0100
0000
0000
0000
0000
0001
0010
0000
0000
0002
0000
0000
,
0100
0000
0000
0000
0000
0000
1000
0000
0000
0100
0000
0000
1003
0000
0000
0000
0000
1000
0010
0000
0000
2000
0000
0000
,
0100
0000
0001
0100
3001
0000
0001
0010
,
0001
0000
0000
0000
0000
0000
1000
0000
0000
0100
0000
0000
2000
0000
0000
0000
0000
3020
0000
0000
0000
0032
0000
0000
,
0000
0000
2003
0000
0000
0000
3100
0000
0000
0001
0000
0000
1001
0000
0000
0000
0000
0010
1000
0000
0000
0100
0000
0010
,
0000
0000
0011
0000
0000
0001
0100
0000
0000
0010
0000
1000
0100
0000
0000
1100
0000
0000
0010
0000
0001
0010
0000
0100
,
1000
0000
1000
0100
0000
0010
0000
0000
0110
0000
0000
0000
1001
0000
0000
0000
0000
1000
0100
0000
0000
1000
0000
0010
,
0000
0000
0110
0000
0000
0100
0001
0000
0000
0010
0000
0001
0010
0000
0000
1100
0000
0000
1001
0000
0000
0101
0000
0000
,
0010
0000
0000
1010
0000
0000
1001
0000
0000
0101
0000
0000
0010
0000
0000
0000
0000
0100
0001
0000
0000
0010
0000
0001
,
0100
0000
0000
0000
0000
0001
0010
0000
0000
0100
0000
1000
0100
0000
0000
0011
0000
0000
0001
0000
1000
0010
0000
0100
,
0001
0000
0000
1000
0000
0100
0000
0000
1100
0000
0000
0000
1001
0000
0000
0000
0000
0001
0100
0000
0000
0001
0000
0010
,
0000
0000
0110
0000
0000
0100
1000
0000
0000
0010
0000
0000
0110
0000
0000
0101
0000
0000
1001
0000
0000
1100
0000
0000
,
0110
0000
0000
0000
0000
0010
0001
0000
0001
0010
0000
0010
0001
0000
0000
0000
0000
1000
0100
0000
0000
1000
0000
0010
,
0000
0000
1010
0000
0000
1000
0100
0000
0000
1000
0000
0000
1100
0000
0000
1001
0000
0000
0101
0000
0001
1000
0000
1000
,
0001
0000
0000
0010
0000
0001
0000
0000
1001
0000
0000
0000
1000
0000
0000
0000
0000
0010
0100
0000
0000
0001
0000
0010
,
0000
0000
0011
0000
0000
0010
0001
0000
0000
0100
0000
0000
0110
0000
0000
1010
0000
0000
1001
0000
0000
0010
0000
0000
,
1100
0000
0000
1001
0000
0000
0101
0000
0000
0010
0000
0000
1000
0000
0000
0000
0000
0001
0010
0000
0000
0100
0000
1000
,
0100
0000
0000
0000
0000
1000
0010
0000
0000
0100
0000
0000
0001
0000
0000
0001
0000
0000
0010
0000
0010
1000
0000
0001
,
0100
0000
0000
0100
0000
1000
0000
0000
0001
0000
0000
0000
1001
0000
0000
0000
0000
1000
0010
0000
0000
1000
0000
0100
,
0000
0000
0100
0000
0000
1000
0010
0000
0000
0100
0000
0000
0101
0000
0000
0011
0000
0000
1010
0000
0000
0011
0000
0000
,
0101
0001
0010
0100
2100
0001
3100
0010
,
0012
1000
0013
0100
2100
0010
3100
0010
,
0012
0100
0013
0100
2100
0001
3100
0010
,
0012
0000
0000
1000
0000
0000
0013
0000
0000
0100
0000
0000
1000
0000
0000
0000
0000
0010
0000
0000
0000
0100
0000
0000
,
0000
0000
0001
0000
0000
0000
0010
0000
0000
0100
0000
0000
0010
0000
0000
0000
0000
0100
1000
0000
0000
0200
0000
0000
,
0001
0000
0000
0000
0000
0000
0010
0000
0000
1000
0000
0000
0310
0000
0000
0000
0000
0001
1000
0000
0000
0020
0000
0000
,
0001
0000
0100
1000
0130
0000
0001
1000
,
0001
0000
0010
0100
2000
0000
0000
0000
,
0000
0000
0000
0000
,
3000
0000
0000
0000
;
