#TITLE:Lone Digger;
#SUBTITLE:;
#ARTIST:Caravan Place;
#TITLETRANSLIT:;
#SUBTITLETRANSLIT:;
#ARTISTTRANSLIT:;
#GENRE:;
#CREDIT:;
#MUSIC:Lone Digger - Caravan Place.mp3;
#BANNER:;
#BACKGROUND:;
#CDTITLE:;
#SAMPLESTART:30.875;
#SAMPLELENGTH:15.968;
#SELECTABLE:YES;
#OFFSET:-0.391;
#BPMS:0.000=124.000
,128.000=62.000
,142.000=31.000
,143.000=124.000
;
#STOPS:188.750=0.484;
#BGCHANGES:;
#FGCHANGES:;

//--------------- dance-single - ----------------
#NOTES:
     dance-single:
     Shortysnmn2010:
     Beginner:
     1:
     0.091225,0.118178,0.008293,0.049759,0,77,76,1,6,0,0,0.091225,0.118178,0.008293,0.049759,0,77,76,1,6,0,0:
0000
0000
0000
0000
,
0000
0000
0000
0000
,
0000
0000
0000
0000
,
0000
0000
0000
0000
,
1000
0000
0000
0000
,
0001
0000
0000
0000
,
1000
0000
0000
0000
,
0010
0000
0000
0000
,
1000
0000
0100
0000
,
1000
0000
0000
0000
,
0001
0000
0000
0000
,
0010
0000
0000
0000
,
0100
0000
0010
0000
,
0100
0000
0000
0000
,
1000
0000
0000
0000
,
0010
0000
0000
0000
,
0100
0000
0100
0000
,
0001
0000
0001
0000
,
0100
0000
0100
0000
,
0001
0000
0000
0000
,
1000
0000
1000
0000
,
0010
0000
0010
0000
,
1000
0000
1000
0000
,
0010
0000
0000
0000
,
1000
0000
0000
0000
,
0001
0000
0000
0000
,
0010
0000
0000
0000
,
0100
0000
0000
0000
,
0010
0000
0000
0000
,
0001
0000
0000
0000
,
1000
0000
0000
0000
,
0010
0000
0000
0000
,
0100
0000
0100
0000
,
0001
0000
0001
0000
,
1000
0000
1000
0000
,
0010
0000
0010
1000
,
0000
0100
0000
1000
,
0000
0000
0000
0010
,
0000
0100
0000
0010
,
0000
0000
0000
0100
,
0000
0001
0000
0001
,
0000
0000
0000
0010
,
0000
0001
0000
0001
,
0000
0000
0000
2000
,
0000
3000
0000
0002
,
0000
0003
0000
0020
,
0000
0030
0000
0200
,
0000
0300
1000
0000
,
1000
0000
0100
0000
,
0100
0000
1000
0000
,
1000
0000
0100
0000
,
0000
0000
0010
0000
,
0010
0000
0001
0000
,
0001
0000
0010
0000
,
0010
0000
0001
0000
,
0000
0000
0100
0000
,
0000
0000
0220
0000
,
0330
0000
0000
0000
;

//--------------- dance-single - ----------------
#NOTES:
     dance-single:
     Shortysnmn2010:
     Easy:
     4:
     0.217992,0.351424,0.20733,0.082932,0,184,159,25,10,0,0,0.217992,0.351424,0.20733,0.082932,0,184,159,25,10,0,0:
0000
0000
0000
0000
,
0000
0000
0000
0000
,
0000
0000
0000
0000
,
0000
0000
0000
0000
,
1000
0000
0100
0000
,
0010
0000
0001
0000
,
1000
0000
0001
0000
,
0100
0000
0000
0000
,
0010
0000
1000
0000
0001
0000
0100
0001
,
0000
0000
1000
0000
0100
0000
0010
0100
,
0000
0000
0010
0000
0001
0000
0100
0010
,
0000
0100
0100
0100
,
0001
0010
0100
1000
,
0001
0100
0001
0001
,
1000
0010
0100
0002
,
0000
0000
0000
0003
,
1000
1100
1001
0010
,
0001
0101
1001
0010
,
1000
1100
1001
0010
,
0002
0000
0003
0000
,
0100
0101
1001
0010
,
1000
1100
1001
0100
,
0001
0011
1001
1000
,
0020
0000
0030
0000
,
1000
0000
0001
0100
,
0100
0000
0001
0010
,
0010
0000
0001
1000
,
0100
0000
0000
0000
,
0010
0100
0100
0000
,
1000
0010
0010
0000
,
0100
0010
0010
0000
,
2000
0000
3000
0000
,
0000
0001
0000
0001
0000
1000
0000
1000
,
0010
0001
0000
0001
0000
0010
0000
0010
,
1000
0100
0000
0100
0000
0100
0000
0010
,
0001
0000
0100
0000
0000
0000
0100
0000
0220
0000
0000
0330
0001
0000
0000
0000
,
1000
0000
0100
0000
0010
0001
0000
0000
,
0100
0000
0001
0000
1000
0010
0000
0000
,
1000
0000
0100
0000
0010
0001
0000
0000
,
0000
0000
0000
1000
,
0010
0100
0001
0010
,
0001
0100
0010
1000
,
0100
0001
0100
2000
,
0000
3000
0000
0010
,
0000
0000
0000
0100
,
0000
0000
0000
0001
,
0000
0000
0000
1000
,
0000
0000
0010
1010
,
1100
0010
0001
0101
,
0011
0001
1000
1100
,
1010
1000
0002
0000
,
0003
0000
0010
0110
,
1100
1000
0010
0110
,
0101
0010
0110
1100
,
1000
0010
1000
0000
,
0001
0000
0010
0000
0002
2000
0000
0000
,
0000
0000
3003
0000
;

//--------------- dance-single - ----------------
#NOTES:
     dance-single:
     Shortysnmn2010:
     Medium:
     6:
     0.300924,0.461308,0.132691,0.124398,0.062199,254,238,16,15,0,0,0.300924,0.461308,0.132691,0.124398,0.062199,254,238,16,15,0,0:
0000
0000
0000
0000
,
0000
0000
0000
0000
,
0000
0000
0000
0000
,
0000
0000
0000
0000
,
1000
0000
0001
0000
0000
0000
0000
0000
0010
0000
0000
0010
0000
0000
0000
0000
,
0001
0000
1000
0000
0000
0000
0000
0000
0100
0000
0000
0100
0000
0000
0000
0000
,
1000
0000
0010
0000
0000
0000
0000
0000
0100
0000
0000
0100
0000
0000
0000
0000
,
0002
0000
0003
0000
,
1000
0000
0100
0000
1000
0100
0010
0000
,
0001
0000
0010
0000
0001
0010
0100
0000
,
1000
0000
0001
0000
0100
0001
0100
0000
,
0020
1000
0100
1030
,
0001
0000
1000
0000
0100
0001
0100
0000
,
1000
0000
0001
0000
0100
1000
0100
0000
,
0001
0000
1000
0000
0010
0000
0010
0200
,
0000
0000
0000
0300
,
1000
0000
0100
0000
1000
1000
0001
0000
,
0010
0000
0001
0000
1000
1000
0100
0000
,
1000
0000
0010
0000
1000
1000
0100
0000
,
0220
0000
0330
0000
1000
0001
1000
0000
,
0001
0000
0100
0000
0010
0010
0100
0000
,
0001
0000
0010
0000
0001
0001
0100
0000
,
0010
0000
1000
0000
0100
0100
0010
0000
,
0002
0003
2000
3000
,
0001
0100
0001
0000
1000
0000
1001
0000
,
0001
0010
0001
0000
1000
0000
1001
0000
,
1000
0100
1000
0000
0001
0000
1001
0000
,
0020
0030
0200
0300
,
0010
0001
0100
0000
0010
0000
0110
0000
,
1000
0001
0010
0000
0100
0000
0110
0000
,
0010
0001
1000
0000
0100
0000
0110
0000
,
0002
0000
0003
0000
,
1000
0000
0100
0000
0010
0000
0100
1000
0000
1000
0100
0000
0010
0000
0001
0000
,
0100
0000
0001
0000
0010
0000
0001
0100
0010
0000
1000
0001
1000
0000
0100
0000
,
0010
0000
0001
0000
0010
0000
1000
0010
0000
0001
0100
0000
0010
0000
0000
1001
,
0000
1000
0100
0010
0002
0000
1003
0100
,
1000
0000
0010
0000
0100
0001
0000
0001
,
0100
0000
0010
0000
1000
0001
0000
1000
,
0001
0000
0010
0000
0001
1000
0100
0010
,
0100
0010
0100
0010
0100
0010
0001
0000
,
1000
0000
0010
0000
1000
0100
0010
0100
,
1000
0000
0001
0000
0010
0001
0000
0001
,
0100
0000
0010
0000
1000
0001
2000
0000
,
0000
0000
0000
0000
3000
0000
0000
0000
0000
0000
0000
0110
0000
0000
0000
0000
,
0000
0000
0000
0011
0000
0000
0000
1100
,
0000
0000
0000
0000
0000
0110
0000
0000
0000
0000
0000
0000
0000
0000
0000
1001
,
0000
0000
0000
1001
0000
0000
0000
0000
0000
0000
0000
0110
0000
0000
0000
0000
,
0000
0000
0010
0100
,
0001
0001
0010
0000
0001
0000
0100
0000
,
0001
0001
1000
0000
0100
0000
0010
0000
,
0100
0100
1000
0000
0020
0000
0100
0000
,
1000
0130
1001
0010
,
1000
1000
0100
0000
0010
0000
0001
0000
,
0100
0100
0001
0000
0020
0000
0030
0000
,
0100
0100
0010
0000
0001
1000
0001
1000
,
0001
1000
0002
0000
1000
1003
0000
0000
;

//--------------- dance-single - ----------------
#NOTES:
     dance-single:
     Shortysnmn2010:
     Hard:
     7:
     0.402812,0.461308,0.15757,0.140984,0.199036,340,321,19,17,0,0,0.402812,0.461308,0.15757,0.140984,0.199036,340,321,19,17,0,0:
0000
0000
0000
0000
,
0000
0000
0000
0000
,
0000
0000
0000
0000
,
0000
0000
0000
0000
,
1000
0000
0100
0000
0010
0000
0000
0000
0100
1000
0000
1000
0000
0000
0001
0000
,
0010
0000
0001
0000
0100
0000
0000
0000
0001
0010
0000
0010
0000
0000
0001
0000
,
0100
0000
1000
0000
0100
0000
0000
0000
0010
0100
0000
0100
0000
0000
0001
0000
,
2000
0000
0000
3000
,
0001
0000
0100
0001
1000
0001
0100
1000
,
0000
0000
1000
0000
0100
0001
0000
0100
0000
0000
0001
0000
0100
0000
0001
0000
,
0010
0100
1000
0010
1000
0100
0010
0001
,
2000
0100
3001
1001
,
0001
1000
0100
0010
0100
1000
0001
0100
,
0010
0100
0001
1000
0010
0100
0010
1000
,
0001
0010
0100
0010
0001
1000
0100
0010
,
0000
0000
2002
3003
,
1000
0000
0010
0000
1000
0000
0000
0000
0001
0100
0000
0001
0000
0000
1000
0000
,
0100
0000
0010
0000
0100
0000
0000
0000
1000
0100
0000
1000
0000
0000
0001
0000
,
0010
0000
0001
0000
1000
0000
0000
0000
0001
0100
0000
0010
0000
0000
0100
0000
,
0001
0010
0100
1000
0100
0010
0001
0000
,
1000
0000
0010
0000
0100
0000
0000
0000
0010
0100
0000
0010
0000
0000
0100
0000
,
0001
0000
0010
0000
0100
0000
0000
0000
0010
0100
0000
0010
0000
0000
0100
0000
,
0010
0000
0001
0000
0100
0000
0000
0000
0010
0100
0000
0010
0000
0000
0100
0000
,
0002
0000
0000
0000
0000
0000
0003
0000
0000
0000
1100
0000
,
1000
0001
0010
0100
1000
0000
1001
0000
,
0001
0100
0010
0001
0010
0000
0110
0000
,
0100
0001
0010
0100
1000
0000
1010
0000
,
0100
0001
0010
0001
0100
0001
0010
0000
,
0100
1000
0001
0100
1000
0000
1100
0000
,
0100
0001
1000
0100
0001
0000
0101
0000
,
0100
1000
0010
0100
0010
0000
0110
0000
,
2000
0000
3000
0000
,
0001
0000
1000
0000
0001
0100
0001
0100
0000
0010
0200
0000
0000
0300
0001
1000
,
0001
1000
0100
0010
0100
1000
0001
1000
0020
0000
0000
0000
0030
0000
0000
0000
,
0100
0000
0002
0000
0000
0003
1000
0100
0000
0100
1000
0000
0010
0100
0000
1001
,
0000
0001
0010
0000
0001
0000
1000
0100
0020
0000
0000
0030
0100
0000
1000
0000
,
0010
1000
0100
1000
0010
0010
0100
0001
,
0010
0001
0100
0100
0010
0010
1000
0001
,
0100
0000
0000
0100
0001
0000
1000
0000
0100
0000
0010
0000
0002
0000
0000
0000
,
0100
0000
1003
0000
1001
0000
0001
1000
,
0001
0100
1000
0001
1000
0100
0001
1000
,
0001
0010
1000
0001
1000
0010
0001
1000
,
0001
0100
1000
0001
1000
0100
0002
0000
,
1000
0010
1003
1001
,
0000
0101
0000
1010
,
0000
1100
0000
0022
,
0000
0033
0000
2002
,
0000
0000
0000
3003
0000
0000
0000
0000
0001
0000
0100
0000
1000
0000
0000
0000
,
0100
0001
0000
0100
0000
0000
0010
0000
1000
0000
0100
0000
0001
0000
0000
0000
,
0100
1000
0000
0100
0000
0000
1000
0000
0010
0000
0001
0000
0010
0000
0000
0000
,
1000
0001
0000
1000
0000
0000
0001
0000
0010
0000
0100
0000
1000
0000
0100
0000
,
0010
1000
0010
0000
0001
1000
0100
0000
,
0001
0100
0000
1000
0000
0000
0001
0000
0100
0000
0010
0000
1000
0000
0000
0000
,
0010
1000
0000
0100
0000
0000
1000
0000
0001
0000
0020
0000
0000
0000
0030
0000
,
0100
1000
0000
0100
0000
0000
0010
0000
0001
0000
0100
0000
0001
0000
1000
0000
,
0100
1000
0001
0000
1001
1001
0000
0000
;

//--------------- dance-single - ----------------
#NOTES:
     dance-single:
     Shortysnmn2010:
     Challenge:
     9:
     0.484559,0.691962,0.107811,0.074639,0.52247,409,396,13,9,40,0,0.484559,0.691962,0.107811,0.074639,0.52247,409,396,13,9,40,0:
0000
0000
0000
0000
,
0000
0000
0000
0000
,
0000
0000
0000
0000
,
0000
0000
0000
0000
,
0001
0000
1000
0000
0100
0000
0000
0000
0010
0100
0000
0100
0000
0000
1000
0000
,
0010
0000
1000
0000
0100
0000
0000
0000
0010
0100
0000
0100
0000
0000
0010
0000
,
0001
0000
0100
0000
0001
0000
0000
0000
0010
0100
0000
0100
0000
0000
1000
0000
,
0002
0000
0000
0003
,
0001
0100
1000
0100
0001
1000
0001
0010
,
0100
0000
1000
0000
0001
1000
0000
0100
0000
0000
0010
0000
0100
0000
1000
0000
,
0001
0100
0010
0100
0001
0010
0001
0100
,
0000
0010
0100
0010
0100
0010
0110
0110
,
0000
1000
0001
1000
0000
0001
1000
0001
,
0010
0100
0010
0001
1000
0001
0100
0010
,
0000
0000
0100
0000
0010
0000
0100
0000
0000
0000
0001
1000
0001
0000
1001
0000
,
0000
0000
0000
0000
0000
0000
0000
0000
0000
0000
0000
0000
1000
0001
0010
0001
,
1000
0100
1000
0001
0010
0100
1000
0001
1000
0000
0010
0000
0100
0001
0100
0001
,
0100
0000
0010
0000
1000
0001
0000
0010
0001
1000
0100
0000
1000
0000
0010
0000
,
0110
0000
0110
0000
1000
0001
1000
0001
0100
0001
0100
0001
1000
0010
0100
0001
,
2000
0000
0000
3000
,
0001
1000
0100
0010
0100
1000
0100
0010
0001
0000
1000
0000
0100
1000
0100
0010
,
0100
0000
0010
0000
0100
0001
0000
0100
1000
0000
0001
0000
0001
0000
1000
0000
,
0010
0100
0010
1000
0001
0000
0100
0010
0100
0001
1000
0100
1000
0000
0000
0002
,
0000
0000
0000
0000
0000
0003
0000
0000
0000
0000
0000
0000
0000
1001
0000
0000
,
1000
0000
0100
0000
0001
0000
0100
0010
0000
0100
0000
0000
1000
0000
0000
0000
,
0001
0000
0100
0000
1000
0000
0100
0010
0000
0100
0000
0000
0001
0000
0000
0000
,
1000
0000
0010
0000
0001
0000
0010
0100
0000
0010
0000
0000
1000
0000
0000
0000
,
0220
0000
0330
0000
,
0100
0000
0001
0000
0010
0000
0001
0100
0000
0001
0000
0000
1000
0000
0000
0000
,
0100
0000
1000
0000
0010
0000
1000
0100
0000
1000
0000
0000
0001
0000
0000
0000
,
0010
0000
0001
0000
0100
0000
0001
0010
0000
0001
0000
0000
1000
0000
0000
0000
,
0200
0000
0000
0300
,
1000
0000
0000
0000
0001
0000
0100
0000
0001
0000
0100
0000
0001
0000
1000
0000
0000
0000
0100
0000
1000
0100
0000
1000
0000
0000
0001
0000
0100
0000
0001
0000
,
0000
1000
0100
0010
0001
0010
0100
1000
0000
0001
1000
0001
1000
0001
1001
1001
,
0000
0000
0000
0000
0001
0010
0000
0001
0000
0000
0010
0000
0100
0000
0010
0000
0000
0000
0100
0000
0010
0000
0000
0100
1000
0000
0100
0000
0000
0000
0010
0000
,
0000
0000
0001
0000
1000
0000
0000
0001
1000
0001
1000
0000
0001
0000
1000
0000
0002
0000
0000
0000
0000
0000
0000
0000
0103
0000
0000
0000
0000
0000
0000
0000
,
001M
1000
010M
1000
001M
0100
000M
0010
,
010M
0010
100M
0100
001M
0100
000M
1000
,
001M
0000
0000
0100
001M
0000
1000
0000
010M
0000
0010
0000
000M
0000
0100
0000
,
M01M
0100
M01M
0100
M11M
0110
M00M
0010
,
M001
0100
M000
0010
M100
0010
M100
0001
,
M010
0100
M010
0001
M100
0010
M000
0100
,
M010
0000
0100
0000
M000
0000
0001
0010
M001
0000
0100
0000
M000
0000
0040
0400
,
M00M
0000
0000
0000
M00M
0000
0000
0000
M00M
0000
0000
0330
M00M
0400
0040
0000
,
0000
0000
0000
0000
0000
0000
0330
0000
0000
0100
0001
0100
0000
0001
1000
0000
,
0000
0100
1000
0100
1000
0100
0000
4000
0400
0000
0000
0000
0000
0000
0000
3300
,
0000
0100
1000
0001
0000
0400
0004
0000
0000
0000
0000
0303
0000
4000
0004
0000
,
0000
0000
0000
3003
0000
0000
0000
0000
1000
0100
0010
0100
1000
0100
0010
0001
,
0010
0000
0100
0000
1000
0001
1000
0001
1000
0000
0001
0000
0100
0001
0000
0100
,
0010
0100
0001
0000
1000
0000
0100
0000
1000
0000
1000
0000
0001
0100
0010
0100
,
0001
1000
0001
0100
0010
0100
0001
1000
0002
0000
0000
0000
0000
0000
0000
0000
,
0000
0000
0000
0000
0003
0000
0000
0000
1000
0001
0100
0001
1000
0010
0100
0001
,
1000
0000
0100
0000
0010
0001
1000
0001
0010
0000
0100
0000
1000
0100
0000
1000
,
0100
0000
0010
0000
0100
0000
1000
0000
0001
0100
0001
0100
0010
0000
0100
0001
,
1000
0001
0100
0010
0100
0000
0000
0002
0000
0000
0000
0000
0000
0000
0000
0000
,
0000
0003
0000
0000
0110
0110
0000
0000
;
