#TITLE:Ism;
#SUBTITLE:;
#ARTIST:Savant;
#TITLETRANSLIT:;
#SUBTITLETRANSLIT:;
#ARTISTTRANSLIT:;
#GENRE:;
#CREDIT:;
#BANNER:;
#BACKGROUND:;
#LYRICSPATH:;
#CDTITLE:;
#MUSIC:Ism - Savant.mp3;
#OFFSET:-0.027000;
#SAMPLESTART:30.226000;
#SAMPLELENGTH:12.715000;
#SELECTABLE:YES;
#BPMS:0.000000=151.000000
,299.000000=104.000000
,300.000000=105.000000
,303.000000=109.000000
;
#STOPS:
;
#BGCHANGES:;
#KEYSOUNDS:;
#ATTACKS:;

//---------------dance-single - ----------------
#NOTES:
     dance-single:
     Shortysnmn2010:
     Beginner:
     1:
     0.110308,0.182094,0.015921,0.000000,0.000000,97.000000,95.000000,2.000000,0.000000,0.000000,0.000000,0.110308,0.182094,0.015921,0.000000,0.000000,97.000000,95.000000,2.000000,0.000000,0.000000,0.000000:
0000
0000
0000
0000
,
0000
0000
0000
0000
,
0000
0000
0000
0000
,
0000
0000
0000
0000
,
0000
0000
0000
0000
,
1000
0000
0000
0000
,
0001
0000
0000
0000
,
0100
0000
0000
0000
,
1000
0000
0000
0000
,
0100
0000
0000
0000
,
0001
0000
0000
0000
,
1000
0000
0000
0000
,
0010
0000
0000
0000
,
1000
0000
0001
0000
,
1000
0000
0001
0000
,
1000
0000
0001
0000
,
1001
0000
0000
0000
,
0001
0000
1000
0000
,
1001
0000
0000
0000
,
0010
0000
0000
0000
,
0001
0000
0001
0000
,
0100
0000
0000
0000
,
0010
0000
0000
0000
,
1000
0000
0000
0000
,
0100
0000
0100
0000
,
1000
0000
0000
0000
,
0010
0010
0010
0000
,
0100
0000
0000
0000
,
0001
0000
0001
0000
,
0100
0000
0000
0000
,
0010
0000
0000
0000
,
1000
0000
0000
0000
,
0100
0000
0100
0000
,
0001
0000
0000
0000
,
0100
0100
0100
0000
,
1000
0000
0001
0000
,
0001
0000
1000
0000
,
1000
0000
0000
0000
,
0010
0000
0000
0000
,
0100
0000
0001
0000
,
0001
0000
0100
0000
,
0100
0000
0000
0000
,
0010
0000
0000
0000
,
1000
0000
0000
0000
,
0100
0000
0000
0000
,
0001
0000
0000
0000
,
0100
0000
0000
0000
,
1000
0000
0000
0000
,
0010
0000
0000
0000
,
0001
0000
0000
0000
,
0010
0000
0000
0000
,
0100
0000
0000
0000
,
0001
0000
0000
0000
,
1000
0000
0000
0000
,
0100
0000
0000
0000
,
0010
0000
0010
0000
,
0010
0000
0000
0000
,
0001
0000
0000
0000
,
0100
0000
0000
0000
,
0010
0000
0000
0000
,
1000
0000
0100
0000
,
1000
0000
0000
0000
,
0001
0000
0000
0000
,
0100
0000
0000
0000
,
0010
0000
0000
0000
,
1000
0000
0001
0000
,
1000
0000
0000
0000
,
0001
0000
0000
0000
,
0100
0000
0000
0000
,
0010
0000
0000
0000
,
1000
0000
0000
0000
,
0001
0000
1000
0000
,
0001
0000
1000
0000
,
0001
0000
0000
0000
,
0010
0000
0000
0000
,
1000
0000
0010
0000
,
0100
0001
0000
0000
;

//---------------dance-single - ----------------
#NOTES:
     dance-single:
     Shortysnmn2010:
     Easy:
     3:
     0.168305,0.275827,0.023881,0.071644,0.000000,148.000000,145.000000,3.000000,9.000000,0.000000,0.000000,0.168305,0.275827,0.023881,0.071644,0.000000,148.000000,145.000000,3.000000,9.000000,0.000000,0.000000:
0000
0000
0000
0000
,
0000
0000
0000
0000
,
0000
0000
0000
0000
,
0000
0000
0000
0000
,
0000
0000
0000
0000
,
1000
0000
0000
0100
,
0100
0000
0000
0000
,
0010
0000
0010
0000
,
1001
0000
0000
0000
,
0001
0000
0010
0000
,
0001
0000
1000
0000
,
0100
0000
1000
0000
,
0001
0000
0000
0000
,
0100
0100
0100
0100
,
0001
0001
1000
1000
,
0010
0000
0100
0000
,
0220
0000
0330
0000
,
1000
0000
0001
0000
,
2002
0000
3003
0000
,
0010
0000
0000
0000
,
1000
0100
1000
0100
,
0100
0000
0000
0000
,
0010
0000
0001
0000
,
0100
0000
0100
0000
,
0001
0001
0010
0010
,
0001
0000
0000
0000
,
1000
0001
1000
0000
,
0010
0000
0000
0000
,
1000
0100
0010
0001
,
1000
0000
0000
0000
,
0001
0000
0100
0000
,
0001
0000
0001
0000
,
1000
1000
0010
0010
,
0100
0000
0000
0000
,
0001
1000
0001
0000
,
0020
0001
0000
0100
,
0000
0001
0000
0100
,
0130
0000
0000
0000
,
1000
0000
0000
0000
,
0002
0100
0000
1000
,
0000
0100
0000
1000
,
1003
0000
0000
0000
,
0010
0000
0000
0000
,
1000
0000
0001
0000
,
0010
0010
0010
0000
,
0001
0000
0100
0000
,
0200
0000
0300
0000
,
0001
1000
0001
0000
,
1000
0000
0001
0000
,
0010
0000
0100
0000
,
1000
0000
0000
0000
,
0001
0010
0001
0000
,
1000
0000
0100
0000
,
1000
0000
0001
0000
,
0100
0000
0000
0000
,
0010
1000
1000
0010
,
0010
0000
1000
0000
,
0010
0000
0000
0000
,
0100
0000
0000
0000
,
0001
0001
0000
1000
,
1000
0000
0010
0000
,
0100
0000
0001
0000
,
1000
0000
0000
0000
,
0100
0010
0100
0000
,
1000
0000
0100
0000
,
0010
0000
0001
0000
,
0100
0000
0000
0000
,
0001
0000
1000
0000
,
0001
0000
0010
0000
,
0001
0000
1000
0000
,
0100
0000
0000
0000
,
0001
1000
0001
1000
,
0001
0000
1000
0000
,
0001
0000
0010
0000
,
0100
0000
0000
0000
,
1000
0000
0020
0030
,
0100
0002
0000
0000
,
0003
0000
0000
0000
;

//---------------dance-single - ----------------
#NOTES:
     dance-single:
     Shortysnmn2010:
     Medium:
     6:
     0.354806,0.488768,0.191049,0.382099,0.083584,312.000000,288.000000,24.000000,48.000000,20.000000,0.000000,0.354806,0.488768,0.191049,0.382099,0.083584,312.000000,288.000000,24.000000,48.000000,20.000000,0.000000:
0000
0000
0000
0000
,
0000
0000
0000
0000
,
0000
0000
0000
0000
,
0000
0000
0000
0000
,
0000
0000
0000
0000
,
1000
0001
0001
0010
,
0000
0001
1000
0000
0200
0000
0300
0001
,
0200
0000
0300
0010
0200
0000
0300
1000
,
0200
0000
0300
0000
0000
0000
0001
1000
,
0000
0001
0000
0001
0010
0000
0001
0010
,
0000
0001
0010
0000
0100
0000
1000
0100
,
0010
0000
0001
0000
0100
1000
0100
0000
,
0002
0003
1000
0100
,
1100
0000
1100
0000
1100
0000
0100
0010
,
0100
0010
0001
0000
0101
0000
0100
0010
,
1000
0000
0001
0000
0100
0000
1000
0100
,
0002
0000
0000
0000
0003
0000
0010
1000
,
0020
0000
0001
0000
1000
0000
0031
1000
,
0001
0000
100M
100M
,
0220
0000
0330
0000
,
0100
0000
0100
0001
0000
0000
0010
0000
0000
0100
0000
0100
,
2000
0010
0100
3010
,
0000
0000
0100
0001
0000
0000
0020
0000
0000
0030
0000
0000
,
0100
0000
0000
0000
0000
1000
0100
0000
0100
0010
0000
0000
,
0100
0000
0100
1000
0000
0000
0010
0000
0000
0100
0000
0100
,
0002
10M0
1M00
10M3
,
1MM1
0000
0000
0001
0000
1000
0002
0000
0000
0003
0000
0000
,
0220
0000
0330
0000
,
0001
0000
1000
0001
0000
0000
1000
0000
0000
0010
0000
1000
,
0002
0100
0010
0103
,
0000
0000
0010
1000
0000
0001
0200
0000
0000
0300
0000
0000
,
0001
0000
0000
0000
0000
0010
0100
0000
1000
0100
0000
0000
,
0010
0000
1000
0010
0000
0000
0100
0000
0000
1000
0000
0010
,
2000
0M01
00M1
3M01
,
1MM1
0000
0000
1000
0000
0001
2000
0000
0000
3000
0000
0000
,
0000
01M2
1003
2M10
,
3100
21M0
3001
M012
,
0103
0000
0000
0100
0000
0001
0010
0000
0000
0100
0000
1000
,
0100
0000
0000
0010
0000
0000
0001
0000
1000
0002
0000
0000
,
0003
21M0
3001
M012
,
0103
01M2
1003
201M
,
3100
0000
0000
0100
0000
1000
0100
0000
0000
0010
0000
0000
,
0002
0000
0003
0000
,
2000
0000
3000
0000
0001
0010
0001
0000
,
0100
1001
1001
0000
,
0010
0000
1000
0000
,
0200
0000
0000
0310
,
0001
0100
0100
1000
,
0100
0000
0100
0000
0001
1000
0001
0000
,
0010
1000
0010
0000
0001
0000
0100
0000
,
2000
0000
3000
0000
,
0100
0000
0001
0010
0000
0001
0010
0001
,
0000
1000
0100
0000
0010
0000
0001
0000
,
1000
1000
0001
0010
,
0002
0000
0000
0103
,
0010
0000
1000
0100
1000
0000
0100
0000
,
1000
0010
0100
1000
,
0100
0010
1000
0100
,
0220
0000
0330
0000
,
0010
0000
0010
0000
0000
0001
0010
0001
,
0020
0030
0001
0100
,
0200
0000
0300
1000
0200
0000
0300
0001
,
0200
0300
0000
0010
,
1000
0001
1000
0000
0100
0001
0100
0000
,
0000
0100
1000
0000
0020
0000
0030
1000
,
0002
0000
0003
0100
0020
0000
0030
1000
,
0002
0000
0003
0000
0000
0000
0010
0100
,
0000
1100
0000
0100
0010
0000
0001
0010
,
0000
0100
0010
0000
0001
0000
0100
0010
,
0100
0001
2000
0100
,
0002
3003
0001
0100
,
0101
0000
0101
0000
0101
0000
0010
1000
,
0010
1000
0001
0000
1001
0000
1000
0100
,
1000
0000
0010
0000
0001
0000
1000
0100
,
0002
0000
0000
0000
0003
0000
1000
0100
,
0010
0000
0001
0010
0200
0000
0300
0000
,
1000
0001
2000
0000
0000
0000
3000
0000
;

//---------------dance-single - ----------------
#NOTES:
     dance-single:
     Shortysnmn2010:
     Hard:
     8:
     0.454879,0.554342,0.286574,0.366178,0.199010,400.000000,364.000000,36.000000,46.000000,29.000000,0.000000,0.454879,0.554342,0.286574,0.366178,0.199010,400.000000,364.000000,36.000000,46.000000,29.000000,0.000000:
// measure 0
0000
0000
0000
0000
,  // measure 1
0000
0000
0000
0000
,  // measure 2
0000
0000
0000
0000
,  // measure 3
0000
0000
0000
0000
,  // measure 4
0000
0000
0000
0000
,  // measure 5
2000
0001
3002
0010
0023
0100
0230
0000
,  // measure 6
0300
1000
0001
0100
0002
0000
0003
1000
,  // measure 7
0020
0000
0000
0000
0030
0000
1000
0001
2000
0000
0000
0000
3000
0000
0100
0000
,  // measure 8
0020
0000
0000
0000
0030
0000
0001
1000
,  // measure 9
0000
1001
0000
0001
1000
1000
0001
0001
,  // measure 10
1000
0100
0010
0010
0100
0000
1000
0100
,  // measure 11
1000
0000
1100
0000
0001
0010
0001
0100
,  // measure 12
0002
0000
0003
0000
1000
0010
1000
0010
,  // measure 13
0100
0000
0100
0000
0100
0000
0100
0001
,  // measure 14
0010
0100
0010
0100
1000
0000
0010
0100
,  // measure 15
0001
1000
0100
1000
0001
0000
0100
0010
,  // measure 16
0200
0000
0000
0000
0300
0000
0001
1000
,  // measure 17
0400
0040
0000
0000
0000
0000
0000
0000
0000
0000
0000
0000
0000
0000
0000
0000
,  // measure 18
0330
0000
0000
MMMM
0000
0000
0001
1000
0100
1000
0000
0000
,  // measure 19
1001
0000
0000
0000
0010
0001
2000
0000
0000
3001
0000
0000
,  // measure 20
0100
0000
0100
0010
1000
0010
0100
0000
0000
0001
0000
0001
,  // measure 21
0010
0000
0220
0000
0000
0330
0000
0000
0000
0000
0000
0000
,  // measure 22
0000
0000
1000
0001
0000
0000
0220
0000
0000
0330
0000
0000
,  // measure 23
1001
0000
0000
0000
0000
0001
1000
0000
0100
1000
0000
0000
,  // measure 24
1010
0000
0100
0001
0000
0000
0011
0000
0000
0001
0000
0100
,  // measure 25
0020
1M0M
MM01
1M3M
,  // measure 26
1MM1
0000
0000
0010
0000
0001
0200
0000
0000
0300
0000
0000
,  // measure 27
1001
0000
0000
0000
0010
1000
0001
0100
0001
0100
0000
0000
,  // measure 28
0010
0000
0010
1000
0001
0100
0010
0000
0000
0100
0000
0001
,  // measure 29
0010
0000
0220
0000
0000
0330
0000
0000
0000
0000
0000
0000
,  // measure 30
0000
0000
1000
0010
0000
0000
0202
0000
0000
0303
0000
0000
,  // measure 31
1010
0000
0000
0000
0000
0100
0001
0000
0001
0100
0000
0000
,  // measure 32
1001
0000
1000
0100
0000
0000
0010
0000
0000
0100
0000
1000
,  // measure 33
0200
M0M1
10MM
M3M1
,  // measure 34
1MM1
0000
0000
1000
0000
0001
0200
0000
0000
0300
0000
0000
,  // measure 35
MMMM
1010
1020
0130
,  // measure 36
1001
2001
3100
0011
,  // measure 37
0011
0000
0000
0100
0000
1000
0100
1000
0100
1000
0000
0000
,  // measure 38
0001
1000
0001
1000
0000
0000
0010
0000
0010
0100
0000
0000
,  // measure 39
MMMM
0101
0201
0310
,  // measure 40
1001
1002
0103
1010
,  // measure 41
1010
0000
0000
0200
0000
0000
0301
1000
0001
1000
0000
0000
,  // measure 42
0100
0000
0010
0000
0001
0000
0000
1000
0000
0001
0000
0000
,  // measure 43
1000
0100
0010
0100
1000
0100
0010
0001
,  // measure 44
1000
0000
0000
0000
0000
0000
0000
0000
0100
1000
0000
0000
0000
0000
0000
0000
1010
0000
0000
0000
0000
0000
0000
0000
0000
0000
0000
0000
0000
0000
0000
0000
,  // measure 45
0101
0000
1001
0000
,  // measure 46
0020
0000
0030
0100
,  // measure 47
1000
0000
0000
0000
0000
0000
0000
0000
0010
1000
0000
0000
0000
0000
0000
0000
0100
0000
0000
0000
0000
0000
0000
0000
0100
0000
0000
0000
0000
0000
0000
0000
,  // measure 48
0010
0000
0010
0000
0001
0100
0001
0000
,  // measure 49
1000
0100
1000
0001
0010
0010
0010
0010
,  // measure 50
0200
0000
0300
1000
,  // measure 51
0100
0010
0001
0010
0000
0001
0100
0010
,  // measure 52
1000
0010
0100
0002
0010
0000
0013
0000
,  // measure 53
0001
0000
1100
0000
0001
0001
0001
0001
,  // measure 54
2000
0000
3000
0110
,  // measure 55
0101
0000
1000
0010
0100
0010
0001
0010
,  // measure 56
0100
0001
0010
0100
0010
0000
1001
0000
,  // measure 57
1000
0010
0001
0100
,  // measure 58
1000
0000
0001
1000
0001
0000
1000
0001
1000
0000
0001
0000
1000
0000
0001
0000
,  // measure 59
0010
0100
0010
0100
0000
1000
0100
0010
,  // measure 60
0200
0300
2000
3020
,  // measure 61
0230
0000
0000
0000
0300
0000
0001
1000
0001
0000
0000
0000
0000
0000
0010
0000
,  // measure 62
0100
0000
0000
0000
0000
0000
1000
1000
,  // measure 63
0010
0100
0001
0100
0010
1000
0100
0000
,  // measure 64
0000
1000
0100
1000
0002
0000
0003
0010
,  // measure 65
0020
0000
0000
0000
0030
0000
0100
1000
0200
0000
0000
0000
0300
0000
1000
0000
,  // measure 66
2000
0000
0000
0000
3000
0000
0001
0100
,  // measure 67
0000
1001
0000
1000
0100
0100
0010
0010
,  // measure 68
0001
0100
0010
0010
0100
0000
0001
0100
,  // measure 69
0001
0000
0102
0000
1003
0100
1000
0001
,  // measure 70
0200
0000
0300
0000
0001
1000
0001
1000
,  // measure 71
0100
0000
0100
0000
0100
0000
0100
0010
,  // measure 72
0001
0010
1000
0010
0001
0000
1000
0010
,  // measure 73
1000
0100
0010
1000
0010
0000
0001
1000
,  // measure 74
0002
0000
0000
0000
0003
0000
0100
0010
,  // measure 75
2000
0000
0000
0000
0001
0000
0000
0000
3100
0000
0000
0000
0010
0000
0000
0000
0001
0200
0000
0000
0000
0000
0000
0000
0000
0000
0000
0000
0000
0000
0000
0000
,  // measure 76
0310
1000
0002
0000
0000
0000
0000
0000
,  // measure 77
0000
0000
0003
000M
0000
0000
0000
0000
;

//---------------dance-single - ----------------
#NOTES:
     dance-single:
     Shortysnmn2010:
     Challenge:
     10:
     0.602715,0.738525,0.398019,0.270653,0.425881,530.000000,480.000000,50.000000,34.000000,42.000000,0.000000,0.602715,0.738525,0.398019,0.270653,0.425881,530.000000,480.000000,50.000000,34.000000,42.000000,0.000000:
// measure 0
0000
0000
0000
0000
,  // measure 1
0000
0000
0000
0000
,  // measure 2
0000
0000
0000
0000
,  // measure 3
0000
0000
0000
0000
,  // measure 4
0000
0000
0000
0000
,  // measure 5
0001
0000
1000
0000
0100
0000
1000
0000
0010
0000
0100
0000
0002
0000
0000
0003
,  // measure 6
0000
1000
0100
1100
1001
0000
0000
0010
,  // measure 7
0001
0000
0000
0000
0000
0000
0001
0010
0001
0000
0000
0000
0000
0000
1000
0010
,  // measure 8
1000
0000
0000
0100
0000
0000
1000
0000
0001
0010
0000
0000
0001
0000
0100
0000
,  // measure 9
0000
0101
0000
0002
0010
0013
0001
2000
,  // measure 10
0100
3100
0010
0100
1100
0000
0010
0001
,  // measure 11
0100
0000
1010
0000
0100
0001
1000
0010
,  // measure 12
0002
0000
0003
0000
0010
0100
0010
0100
,  // measure 13
0001
0000
0011
0000
0011
0000
0011
0010
,  // measure 14
0110
0100
1100
1000
1010
0000
1010
0010
,  // measure 15
0100
0001
0010
1000
0010
0001
1000
0100
,  // measure 16
0001
0100
1000
0010
0100
0010
1000
0001
,  // measure 17
0100
0040
1000
0000
0100
0000
1000
0000
0100
0000
0100
0000
0001
0000
0100
0030
,  // measure 18
1001
0000
0000
0000
0000
0000
0000
0000
0000
0000
0000
0000
1000
0000
0001
0000
0100
0010
1000
0000
0000
0000
0000
0000
,  // measure 19
1001
0000
1000
0000
0001
1000
0001
0000
0000
0100
0000
0010
,  // measure 20
0100
0000
0001
0010
0001
1000
0100
0000
0000
1000
0000
0001
,  // measure 21
0100
0000
0000
0000
0110
0000
0000
0000
0100
0001
0100
0000
0010
0000
1000
0000
0100
0000
1000
0000
0001
0000
0010
0000
,  // measure 22
0001
0000
0000
0000
1000
0000
0010
0000
0000
0000
0100
0001
2000
0000
0000
0000
0000
0000
3000
0000
0000
0000
0000
0000
,  // measure 23
1001
0000
0000
0000
0000
0001
0100
0000
0001
0100
0000
0000
,  // measure 24
0001
0000
0000
1000
0100
0000
0010
0000
0000
0000
0001
0000
0010
0000
0000
0000
0000
0000
0100
0000
0000
0000
1000
0000
,  // measure 25
0100
MM1M
MMM1
M1MM
,  // measure 26
0110
0000
0000
0001
0000
1000
0002
0000
0000
0003
0000
0000
,  // measure 27
0110
0000
0000
0000
0010
0000
0000
0000
1000
0000
0100
0000
1000
0000
0001
0000
0010
0000
0001
1000
0001
0000
1000
0000
,  // measure 28
0100
0000
0100
1000
0001
0100
0001
0000
0000
1000
0000
1000
,  // measure 29
0010
0000
0100
0000
0001
0000
0010
0100
1000
0001
1000
0001
,  // measure 30
0100
0000
0010
0100
0000
0000
2002
0000
0000
3003
0000
0000
,  // measure 31
1001
0000
0000
0000
0000
1000
0100
0000
0100
1000
0000
0000
,  // measure 32
0010
0000
0000
1000
0001
0000
0100
0000
0000
0000
0001
0000
0010
0000
0000
0000
0000
0000
0100
0000
0000
0000
0100
0000
,  // measure 33
0010
MMM1
M1MM
1MMM
,  // measure 34
0110
0000
0000
1000
0000
1000
0002
0000
0000
0003
0000
0000
,  // measure 35
MMMM
2100
3M01
0012
,  // measure 36
01M3
2010
30M1
0110
,  // measure 37
1M01
0000
0000
0001
0000
1000
0100
1000
0001
1000
0000
0001
,  // measure 38
1000
0000
0100
0000
0010
0000
0100
0000
0000
1000
0100
1000
0100
0000
0010
0000
0001
0000
0100
0000
0000
0000
0000
0000
,  // measure 39
MMMM
0102
0M13
2100
,  // measure 40
3M01
0102
1M03
1010
,  // measure 41
01M1
0000
0000
0000
0000
0000
1000
0000
0100
1000
0100
0000
0010
0000
0100
0000
0010
0000
0100
0000
0000
0000
0000
0000
,  // measure 42
2000
0000
0000
0000
3002
0000
0000
0000
0003
0100
0000
0000
0020
0000
0000
0000
0000
0000
1030
0000
0000
0000
0000
0000
,  // measure 43
0001
0010
0001
0010
0100
1000
0010
1000
,  // measure 44
0100
0000
0000
0000
0010
0000
0000
0000
0100
0010
0000
0000
0000
0000
0000
0000
2002
0000
0000
0000
0000
0000
0000
0000
3003
0000
0000
0000
0000
0000
0000
0000
,  // measure 45
0202
0000
0303
0000
0010
0000
1000
0100
,  // measure 46
0010
0000
0000
0000
1100
0000
0000
0010
0001
0000
0100
0000
1000
0000
0100
0000
,  // measure 47
0001
0000
0000
0000
0000
0000
0000
0000
1000
0100
0000
0000
0000
0000
0000
0000
1100
0000
0000
0000
0000
0000
0000
0000
1001
0000
0000
0000
0000
0000
0000
0000
,  // measure 48
0101
0000
0010
1000
0100
1000
0010
0000
,  // measure 49
0010
0100
0000
0000
0001
0000
0000
0000
1000
0000
0000
0000
0001
0000
0000
0000
0100
0000
0000
0100
0001
0000
0000
0001
1000
0000
0000
1000
0100
0000
0000
0100
,  // measure 50
0010
0000
0000
1100
0000
0000
0001
0000
1000
0010
0000
0000
0100
0000
0001
0000
,  // measure 51
1000
0100
0010
0100
0MMM
0010
0100
0010
,  // measure 52
MMM0
0000
1000
0000
0100
0000
0001
0000
0010
0000
1000
0000
0010
0000
0001
0100
,  // measure 53
0010
0100
0000
0000
0001
0000
0000
0000
0010
0000
0000
0000
0100
0000
0000
0000
1000
0000
0000
1000
0010
0000
0000
0010
0100
0000
0000
0100
0001
0000
0000
0001
,  // measure 54
0010
0000
0000
0000
0100
0000
1000
0010
1000
0000
0100
0000
0010
0000
0100
0000
,  // measure 55
2000
0000
3010
0010
0100
0100
0001
0001
,  // measure 56
0010
0010
0001
0001
0100
0000
1001
0000
,  // measure 57
1000
0010
0000
0000
1000
0000
0000
0000
0100
0000
0000
0000
0010
0000
0000
0000
0100
0000
0000
0100
1000
0000
0000
1000
0100
0000
0000
0100
0010
0000
0000
0010
,  // measure 58
0100
0000
1000
0001
1000
0000
0001
1000
0001
0000
0100
0000
0001
0000
0100
0000
,  // measure 59
0001
0010
0001
0010
0000
0100
0010
0100
,  // measure 60
2000
0000
0000
0000
0000
0000
0000
0000
3000
0000
0000
0000
0000
0000
0000
0000
0010
0100
0000
0000
0000
0000
0000
0000
0001
0000
0000
0000
0000
0000
0000
0000
,  // measure 61
0011
0000
0000
0000
0000
0000
0100
1000
0001
0000
0000
0000
0000
0000
0010
0000
,  // measure 62
0002
0100
2003
0100
3002
0010
2003
0010
,  // measure 63
3001
0100
1000
0100
0001
1000
1001
0000
,  // measure 64
0000
0000
0000
0000
0001
0000
0000
0000
0010
0000
0000
0000
0001
0000
0000
0000
2000
0000
0000
0000
0000
0000
0000
0000
3000
0000
0000
0100
0010
0000
0000
0000
,  // measure 65
0100
0000
0000
0000
0000
0000
1000
0010
0100
0000
0000
0000
0000
0000
0001
0010
,  // measure 66
0001
0000
0000
0101
0000
0000
1001
0000
1000
0100
0000
0000
0010
0000
0010
0000
,  // measure 67
0001
0200
0000
0302
1000
1003
0100
0020
,  // measure 68
1000
1030
0010
0001
1000
0000
0001
0100
,  // measure 69
0001
0000
1001
0000
1000
0100
0010
1000
,  // measure 70
0020
0000
0030
0000
0100
1000
0100
1000
,  // measure 71
0010
0000
1010
0000
1010
0000
1010
0010
,  // measure 72
0110
0100
0101
0001
0011
0000
0001
0100
,  // measure 73
1000
0000
0000
0000
0001
0000
0000
0000
1000
0000
0000
0000
0100
0000
0000
0000
0001
0100
0000
0000
0000
0000
0000
0000
0001
0000
0000
0000
0100
0000
0000
0000
,  // measure 74
0020
0000
0000
0000
0030
0000
1000
0100
,  // measure 75
0010
0000
0000
0000
0001
0000
0000
0000
0010
0000
0000
0000
1000
0000
0000
0000
0010
0100
0000
0000
0000
0000
0000
0000
0000
0000
0000
0000
0000
0000
0000
0000
,  // measure 76
1000
0000
0000
0000
0001
0000
0000
0000
4000
0004
0000
0000
0000
0000
0000
0000
0000
0000
0000
0000
0000
0000
0000
0000
0000
0000
0000
0000
0000
0000
0000
0000
,  // measure 77
0000
0000
0000
3003
0000
M00M
0000
0000
0000
0000
0000
0000
0000
0000
0000
0000
;
