#TITLE:I Like It Loud;
#SUBTITLE:;
#ARTIST:Nightcore;
#TITLETRANSLIT:;
#SUBTITLETRANSLIT:;
#ARTISTTRANSLIT:;
#GENRE:;
#CREDIT:;
#MUSIC:I Like It Loud.mp3;
#BANNER:;
#BACKGROUND:;
#CDTITLE:;
#SAMPLESTART:46.860;
#SAMPLELENGTH:12.468;
#SELECTABLE:YES;
#OFFSET:-0.497;
#BPMS:0.000=154.000
,248.000=77.000
,264.000=154.000
;
#STOPS:;
#BGCHANGES:;
#FGCHANGES:;

//--------------- dance-single - ----------------
#NOTES:
     dance-single:
     Shortysnmn2010:
     Beginner:
     1:
     0.12366,0.179596,0.02427,0.080899,0,107,104,3,10,0,0,0.12366,0.179596,0.02427,0.080899,0,107,104,3,10,0,0:
0000
0000
0000
0000
,
0000
0000
0000
0000
,
0000
0000
0000
0000
,
0000
0000
0000
0000
,
1000
0000
0000
0010
,
0000
0000
0100
0000
,
0001
0000
0000
0010
,
0000
0000
0001
0000
,
1000
0000
0000
0000
,
0001
0000
0000
0000
,
1001
0000
0000
0000
,
1000
0000
0100
0000
,
1000
0000
0000
0000
,
0001
0000
0010
0000
,
0001
0000
0000
0000
,
0100
0000
0010
0000
,
0100
0000
0000
0000
,
0001
0000
0000
0000
,
1000
0000
1000
0000
,
1000
1000
0000
0000
,
0001
0000
0001
0000
,
0001
0001
0000
0000
,
0010
0000
0010
0000
,
0020
0000
0030
0000
,
0110
0000
0000
0000
,
1000
0000
0001
1000
,
0001
0000
0000
0000
,
0010
0000
0000
0000
,
0100
0000
0000
0000
,
1000
0000
0000
0000
,
0001
0000
0000
0010
,
0000
0000
0100
0000
,
1000
0000
0000
0010
,
0000
0000
0100
0000
,
0001
0000
0000
1000
,
0000
0000
0010
0000
,
0010
0000
0100
0000
,
0100
0000
0000
0000
,
0001
0000
0000
0100
,
0000
0000
1000
0000
,
0100
0000
0000
0010
,
0000
0000
1000
0000
,
0001
0000
0000
0010
,
0000
0000
0001
0000
,
1000
0000
1000
0000
,
0001
0000
0000
0000
,
0020
0000
0030
0000
,
1000
0000
1000
0000
,
0002
0000
0003
0000
,
0100
0000
0100
0000
,
0020
0000
0030
0000
,
0001
0000
0001
0000
,
2000
0000
3000
0000
,
0100
0000
0100
0000
,
0002
0000
0003
0000
,
0010
0000
0000
0000
,
1000
0000
0100
0000
,
1000
0000
0000
0000
,
0001
0000
0010
0000
,
0001
0000
0010
0000
,
0001
0000
1000
0000
,
0001
0000
1000
0000
,
0002
0000
0003
0000
,
2000
0000
3000
0000
,
0020
0000
0030
0000
,
0200
0000
0300
0000
,
0001
0000
1000
0000
,
0001
0000
0000
0000
,
1000
0000
0010
0000
,
1000
0000
0000
0000
,
0100
0000
0010
0000
,
0100
0000
0000
0000
,
0010
0000
0001
0000
,
0010
0000
0000
0000
,
0110
0000
0000
0000
;

//--------------- dance-single - ----------------
#NOTES:
     dance-single:
     Shortysnmn2010:
     Easy:
     3:
     0.171044,0.269394,0.03236,0.03236,0,148,144,4,4,0,0,0.171044,0.269394,0.03236,0.03236,0,148,144,4,4,0,0:
0000
0000
0000
0000
,
0000
0000
0000
0000
,
0000
0000
0000
0000
,
0000
0000
0000
0000
,
1000
0000
0000
0100
,
0000
0000
0010
0000
,
0001
0000
0000
1000
,
0000
0000
0010
0000
,
0100
0010
0100
0010
,
0100
0000
0000
0000
,
0001
0000
0010
0000
,
0100
0000
0000
0000
,
1000
0000
0001
0000
,
0100
0000
0000
0000
,
0010
0000
1000
0000
,
0100
0000
0000
0000
,
0010
0000
0001
0000
,
0100
0000
0000
0000
,
0001
0000
0010
0000
,
0100
0000
1000
0000
,
0001
0000
1000
0000
,
0100
0000
0010
0000
,
0001
0000
1000
0000
,
0010
0000
0000
0000
,
0110
0000
0001
0001
,
0000
1000
1000
0000
,
0010
0000
0010
0000
,
0010
0100
0010
0100
,
0001
0000
1000
0000
,
1001
0000
0000
0000
,
0010
0000
0000
1000
,
0000
0100
0010
0000
,
0001
0000
0000
1000
,
0000
0001
0100
0000
,
0010
0000
0000
0100
,
0000
0001
0010
0000
,
0001
0000
0001
0000
,
1000
0000
1000
0000
,
0010
0000
0000
1000
,
0000
0000
0001
0000
,
0010
0000
0000
0100
,
0000
0000
0001
0000
,
0100
0000
0000
1000
,
0000
0000
0010
0000
,
0100
0000
0010
0000
,
0100
0000
0000
0000
,
2000
0000
0010
0010
,
0010
0000
0010
3000
,
0002
0000
0100
0100
,
0100
0000
0100
0003
,
2000
0000
0001
0001
,
0001
0000
0001
3000
,
0002
0000
1000
1000
,
1000
0000
1000
0003
,
0110
0000
0000
0000
,
1000
0100
0001
0000
,
0010
0000
0000
0000
,
0001
0100
1000
0000
,
0010
0000
0000
0000
,
0100
0000
0000
0000
,
0001
1000
0001
1000
,
0001
1000
0001
1000
,
0001
0000
0000
0000
0010
0000
0000
0100
,
0100
0000
0000
0000
1000
0000
0000
0010
,
0010
0000
0100
0000
,
0001
0000
0010
0010
0000
0100
0100
0000
,
1000
0000
0100
0000
,
0010
0000
0001
0000
,
1000
0000
0010
0000
,
0100
0000
0001
0000
,
1000
0000
0001
0000
,
0010
0000
0000
0000
,
0100
0000
1000
1000
,
0000
0010
0010
0000
,
0110
0000
0000
0000
;

//--------------- dance-single - ----------------
#NOTES:
     dance-single:
     Shortysnmn2010:
     Medium:
     6:
     0.377914,0.419057,0.161798,0.194157,0.036405,327,307,20,24,0,0,0.377914,0.419057,0.161798,0.194157,0.036405,327,307,20,24,0,0:
0000
0000
0000
0000
,
0000
0000
0000
0000
,
0000
0000
0000
0000
,
0000
0000
0000
0000
,
1000
0000
0000
0001
0000
0000
0100
0000
,
0000
0010
0100
0000
0001
0000
0001
0000
,
1000
0100
0001
0100
,
1000
0100
0001
0100
,
0010
0001
1000
0001
0010
0001
1000
0001
,
0020
0030
1100
1010
,
0100
0000
0001
1000
0001
0000
0100
0000
,
0010
0101
0010
2000
,
3100
0000
0010
0000
0001
0100
0001
0000
,
1000
0110
0002
0013
,
0100
0000
1000
0000
0001
0010
0001
0000
,
0100
1001
0010
2000
,
3001
0000
0100
0000
1000
0100
0001
0000
,
1000
0000
0000
0000
1100
0000
0000
0000
0001
0000
0000
0001
0000
0000
0001
0000
,
0000
1000
0100
0000
1000
0100
1000
0000
,
0010
0000
0100
0001
0000
0000
0100
0001
,
0000
0010
0001
0000
0100
0001
0100
0000
,
0010
0000
1000
0001
0000
0000
1000
0001
,
0000
0010
0100
0000
1000
0000
0010
0000
,
0100
0000
0000
0001
0000
0000
1000
0000
0000
0000
1100
0000
0000
0000
0011
0000
,
0000
0000
0000
0001
1000
0000
1010
0000
,
0000
1000
0001
0000
0101
0000
0000
0000
,
2010
0001
0010
3001
,
0102
1000
0100
1003
,
0004
4000
0000
0000
0000
0000
0000
0000
0000
0000
0000
0000
0000
0000
0000
0000
,
0000
0000
0000
0000
0000
3003
0000
0000
,
1000
0000
0000
0010
0000
0000
0100
0000
,
0000
0001
0100
0001
0100
0000
0010
0000
,
1000
0000
0000
0001
0000
0000
0010
0000
,
0000
0001
1000
0100
1000
0000
0010
0000
,
0100
0000
0000
1000
0000
0000
0100
0000
,
0000
0001
0010
0001
0010
0000
0001
0000
,
0000
1000
0000
0100
1000
0100
1000
0000
,
0000
0001
0100
0002
0100
0000
0103
0000
,
0010
0000
0000
1000
0000
0000
0001
0000
,
0000
0010
0100
1000
0100
0000
0010
0000
,
0001
0000
0000
0100
0000
0000
0010
0000
,
0000
0001
0010
1000
0001
0000
0010
0000
,
0001
0000
0000
1000
0000
0000
0100
0000
,
0000
0001
0100
1000
0001
0000
0010
0000
,
0000
0100
0000
0010
0100
0010
0100
0000
,
0000
1000
0010
2000
0010
0000
3010
0000
,
0100
0001
0010
0001
,
1000
0010
0100
0010
1000
0010
0100
0000
,
0001
0010
0100
1000
,
0001
0100
0010
0100
0001
0100
0010
0000
,
1000
0001
0010
0100
,
1000
0001
0100
0001
1000
0001
0100
0000
,
0010
1000
0100
0010
,
1000
0010
0100
0010
1000
0010
0100
0000
,
2000
0000
0100
3100
,
1001
1001
0010
0010
,
0002
0000
0100
0103
,
1001
1001
0010
0010
,
2000
0100
0001
0010
,
3002
0100
1000
0010
,
2003
3002
2003
3020
,
2030
3002
0203
0302
,
2000
0000
0000
0000
0000
0000
0000
0000
3003
0000
0000
0000
0000
0000
0100
0100
,
0010
0000
0000
0000
0100
0000
0000
0000
0001
0000
0010
0010
0000
0000
0010
0010
,
0100
1000
0020
0030
,
1001
0000
0000
0001
1000
0000
1000
0000
0000
1000
0001
0000
0001
0000
0000
0000
,
0000
1000
0100
0000
0010
0000
0001
0000
,
0100
0000
0001
0200
0000
0000
0010
0310
,
0000
1000
0001
0000
0010
0000
0001
0000
,
1000
0000
0100
0020
0000
0000
0001
0031
,
0000
1000
0100
0000
0010
0000
0001
0000
,
0100
0000
0000
0010
0000
0000
1000
0000
0000
0000
0001
0000
0000
0000
0011
0000
,
0000
0000
0000
1000
0100
0010
0001
0000
,
0000
0001
0100
0010
1000
0000
1001
0000
,
1001
0000
0000
0000
;

//--------------- dance-single - ----------------
#NOTES:
     dance-single:
     Shortysnmn2010:
     Hard:
     9:
     0.536244,0.873911,0.291236,0.291236,0.226517,464,428,36,36,0,0,0.536244,0.873911,0.291236,0.291236,0.226517,464,428,36,36,0,0:
0000
0000
0000
0000
,
0000
0000
0000
0000
,
0000
0000
0000
0000
,
0000
0000
0000
0000
,
1000
0000
0000
0100
0000
0000
0100
0000
0000
0010
0000
0000
1100
0000
0000
0000
,
0000
0000
0001
0000
0000
0001
0000
0000
0100
0000
0000
0000
0101
0000
0000
0000
,
0010
1000
0100
0001
,
0100
1000
0010
0100
,
0001
1000
0010
1000
0001
1000
0010
1000
,
0004
0400
0000
0000
0000
0000
0000
0000
0000
0000
0303
0000
0000
0000
0000
0000
,
0001
1000
0100
1000
0010
0100
0001
0000
,
0010
0000
0000
0010
0100
0000
0010
0000
1000
0000
0000
0000
0020
0000
0000
0000
,
0031
1000
0010
0001
0010
1000
0001
0000
,
0100
0000
0000
0100
0001
0000
0100
0000
0010
0000
1000
0000
0001
0000
0010
0100
,
1000
0001
0100
1000
0100
0010
0100
0000
,
0001
0000
0000
0001
0010
0000
0001
0000
1000
0000
0000
0000
0200
0000
0000
0000
,
0310
1000
0010
0100
1000
0010
0100
0000
,
0001
0000
0000
0001
0100
0000
0002
0000
0010
0000
0000
0010
0000
0000
0013
0000
,
0000
0001
0010
0100
0010
0100
1000
0010
,
0100
0010
0100
0002
0000
0000
1000
1003
,
0000
0010
1000
0001
1000
0001
0100
0010
,
0001
1000
0001
2000
0000
0000
0100
3100
,
0000
0010
1000
0100
1000
0100
0010
1000
,
0010
0000
0000
0001
0000
0000
0101
0000
0000
0000
1010
0000
0000
0000
2002
0000
,
0000
3003
0000
0010
0001
0100
0001
0000
,
0000
0010
0100
1000
0100
0000
0100
0000
,
1000
0010
0001
0010
,
1000
0001
0100
0001
1000
0001
0100
0001
,
4000
0400
0000
0000
0000
0000
0000
0000
0000
0000
0000
0000
0000
0000
0000
0000
,
0000
0000
0000
0000
0000
3300
0000
0000
,
0010
0000
0000
0001
0000
0000
0001
0000
0000
0100
0000
0000
1010
0000
0000
0000
,
0000
1000
0001
0100
0010
0100
0001
0010
,
0100
0000
0000
1000
0000
0000
1000
0000
0000
0010
0000
0000
0101
0000
0000
0000
,
0000
0000
0010
0000
1000
0000
0001
0000
1000
0000
0100
0000
0010
0000
0001
1000
,
0001
0000
0000
0010
0000
0000
0010
0000
0000
0100
0000
0000
1001
0000
0000
0000
,
0000
1000
0010
0001
0010
1000
0001
0100
,
0002
0010
0000
0010
0013
0001
0011
0000
,
0000
0200
1000
1300
0100
0000
1100
0000
,
1000
0000
0000
0001
0000
0000
0001
0000
0000
0100
0000
0000
1001
0000
0000
0000
,
0000
0001
0010
1000
0010
0100
1000
0001
,
0010
0000
0000
0100
0000
0000
0100
0000
0000
1000
0000
0000
0110
0000
0000
0000
,
0000
0000
1000
0000
0001
0000
0100
0000
1000
0000
0100
0000
0010
0000
1000
0001
,
1000
0000
0000
0100
0000
0000
0100
0000
0000
1000
0000
0000
0011
0000
0000
0000
,
0000
0100
1000
0010
1000
0001
0100
0010
,
0200
0001
0000
0001
0301
0100
0101
0000
,
0000
0002
1000
1003
0001
0000
1001
0000
,
1000
0000
0100
1000
0000
0100
1000
0100
1000
0000
0100
0000
0020
0000
0001
0000
,
0031
1000
0010
1000
0001
0100
0001
0000
,
1000
0000
0001
0100
0000
0001
0100
0001
0100
0000
0001
0000
2000
0000
0010
0000
,
3010
0100
0001
0010
0001
0001
1100
0000
,
1000
0000
0001
1000
0000
0001
1000
0001
1000
0000
0001
0000
0020
0000
0100
0000
,
0130
1000
0001
0100
0001
1000
0001
0000
,
1000
0000
0010
0100
0000
0010
0100
0010
0100
0000
0010
0000
2000
0000
0001
0000
,
3001
0010
0100
1000
0001
0010
0011
0000
,
1000
0100
0010
0100
1000
0000
0110
0000
,
1000
0110
0001
0110
,
0001
1000
0100
1000
0010
0000
1001
0000
,
0010
1001
0100
1001
,
2000
3002
0023
2030
,
3020
0230
2300
3002
,
0203
0000
0020
0300
2000
0030
0002
3000
0020
0003
2000
0030
0002
3000
0100
0003
,
4000
0004
0000
0000
0000
0000
0000
0000
0000
0000
0000
0000
3003
0000
0000
0000
,
0220
0000
0000
0000
0000
0000
0000
0000
0330
0000
0000
0000
0000
0000
0001
0001
,
0000
1000
0100
0010
0001
0010
0100
1000
0001
0010
0001
0100
0000
0000
0010
0010
,
0000
0000
1000
0000
0001
0000
0100
0000
0001
0000
1000
0000
0010
0000
0100
0000
0001
0000
0000
1000
0000
0000
1100
0000
0000
0000
1001
0000
0000
0000
0011
0000
,
0000
0000
0100
1001
0000
1000
0110
0110
,
0000
0001
0100
0010
0001
0010
1000
0001
,
0100
0010
0100
0001
0000
0000
1001
1001
,
0000
1000
0100
0010
1000
0010
0100
1000
,
0001
0010
0100
1000
0000
0000
0110
0110
,
0000
0001
0010
0001
0100
1000
0100
0001
,
2000
0000
0000
0010
0000
0000
0001
0000
0000
0000
3100
0000
0000
0000
0010
0000
,
0002
0000
0000
0100
0103
0010
1000
0000
,
0000
0001
0001
1000
0100
0000
1100
0000
,
2002
0000
3003
0000
;
