#TITLE:Feel It;
#SUBTITLE:;
#ARTIST:Three 6 Mafia;
#TITLETRANSLIT:;
#SUBTITLETRANSLIT:;
#ARTISTTRANSLIT:;
#GENRE:;
#CREDIT:;
#MUSIC:Feel It - Three 6 Mafia.mp3;
#BANNER:;
#BACKGROUND:;
#CDTITLE:;
#SAMPLESTART:65.007;
#SAMPLELENGTH:14.436;
#SELECTABLE:YES;
#OFFSET:-0.045;
#BPMS:0.000=133.000;
#STOPS:;
#BGCHANGES:;
#FGCHANGES:;

//--------------- dance-single - ----------------
#NOTES:
     dance-single:
     Shortysnmn2010:
     Beginner:
     1:
     0.1042,0.218019,0,0.040077,0,91,91,0,5,0,0,0.1042,0.218019,0,0.040077,0,91,91,0,5,0,0:
0000
0000
0000
0000
,
0000
0000
0000
0000
,
0000
0000
0000
0000
,
0000
0000
0000
0000
,
0010
0000
1000
0000
,
0010
0000
0000
0000
,
0100
0000
0000
0000
,
0001
0000
0000
0000
,
0010
0000
0100
0000
,
0010
0000
0000
0000
,
0001
0000
0000
0000
,
1000
0000
0000
0000
,
0020
0000
0030
0000
,
1000
0000
0001
0000
,
1000
0000
0000
0000
,
0100
0000
0000
0000
,
0010
0000
0100
0000
,
0010
0000
0000
0000
,
0001
0000
1000
0000
,
0001
0000
0000
0000
,
1000
0000
0000
0000
,
0010
0000
0000
0000
,
0001
0000
0000
0000
,
1000
0000
0000
0000
,
0100
0000
0000
0000
,
0001
0000
1000
0000
,
0001
0000
0000
0000
,
0010
0000
0000
0000
,
0100
0000
1000
0000
,
0010
0000
0000
0000
,
0100
0000
0001
0000
,
0010
0000
0000
0000
,
0002
0000
0000
0000
,
1000
0000
0003
0000
,
2000
0000
0000
0000
,
0001
0000
3000
0000
,
0001
0000
0010
0000
,
0001
0000
0000
0000
,
1000
0000
0100
0000
,
1000
0000
0000
0000
,
0020
0000
0000
0000
,
0100
0000
0030
0000
,
0200
0000
0000
0000
,
0010
0000
0300
0000
,
0001
0000
0001
0000
,
0001
0000
0000
0000
,
1000
0000
1000
0000
,
1000
0000
0000
0000
,
0010
0000
0010
0000
,
0010
0000
0000
0000
,
0100
0000
0100
0000
,
0100
0000
0000
0000
,
0001
0000
0010
0000
,
0010
0000
0000
0000
,
0001
0000
0000
0000
,
1000
0000
0000
0000
,
0010
0100
0010
0100
,
0010
0100
0010
0000
,
1000
0001
1000
0001
,
1000
0001
1000
0000
,
0100
0000
0000
0000
,
0010
0000
0000
0000
,
0001
0000
0000
0000
,
1000
0000
0000
0000
,
0010
0000
0000
0000
,
0100
0000
0000
0000
,
0001
0000
0000
0000
,
0010
0000
0100
0000
,
0010
0000
0000
0000
;

//--------------- dance-single - ----------------
#NOTES:
     dance-single:
     Shortysnmn2010:
     Easy:
     2:
     0.128246,0.218019,0.008015,0.080154,0,112,111,1,10,0,0,0.128246,0.218019,0.008015,0.080154,0,112,111,1,10,0,0:
0000
0000
0000
0000
,
0000
0000
0000
0000
,
0000
0000
0000
0000
,
0000
0000
0000
0000
,
1000
0000
0100
0000
,
0001
0000
0000
0000
,
0100
0000
1000
0000
,
0001
0000
0000
0000
,
0020
0000
0030
0000
,
0100
0000
0100
0000
,
2000
0000
0000
3000
,
0010
0000
0010
0000
,
0100
0000
0000
0000
,
0001
0000
1000
0000
,
0001
0000
0000
0000
,
0010
0000
0100
0000
,
0010
0000
0000
0000
,
0100
0000
1000
0000
,
0100
0000
0000
0000
,
1000
0000
0010
0000
,
1000
0000
0001
0000
,
0010
0000
0100
0000
,
1000
0000
0000
0000
,
0010
0000
0000
0000
,
0100
0000
0001
0000
,
0010
0000
1000
0000
,
0010
0000
0000
0000
,
0001
0000
0000
0000
,
1000
0000
0001
0000
,
0100
0000
0000
0000
,
0001
0000
1000
0000
,
0010
0000
0000
0000
,
2000
0000
0000
3000
,
0001
0000
0001
0000
,
0020
0000
0000
0030
,
0100
0000
0100
0000
,
1000
0000
0000
0000
,
0001
0000
0010
0000
,
0100
0000
0000
0000
,
1000
0000
0001
0000
,
0200
0000
0000
0300
,
0010
0000
0010
0000
,
2000
0000
0000
3000
,
0001
0000
0001
0000
,
0010
0020
0000
0030
,
0100
0000
1000
0000
,
0100
0200
0000
0300
,
0010
0000
0001
0000
,
1000
2000
0000
3000
,
0010
0000
0100
0000
,
0001
0002
0000
0003
,
0010
0000
0100
0000
,
1000
0000
1000
0000
,
0001
0000
0001
0000
,
1000
0000
0001
0000
,
1000
0000
1000
0000
,
0010
0010
0010
0010
,
0010
0010
0010
0000
,
0100
0100
0100
0100
,
0100
0100
0100
0000
,
0001
0000
1000
0000
,
0100
0000
0000
0000
,
0010
0000
0001
0000
,
0100
0000
0000
0000
,
0010
0000
1000
0000
,
0100
0000
0000
0000
,
1000
0000
0001
0000
,
0100
0000
0000
0000
,
0110
0000
0000
0000
;

//--------------- dance-single - ----------------
#NOTES:
     dance-single:
     Shortysnmn2010:
     Medium:
     5:
     0.30115,0.381533,0.304585,0.216416,0,263,225,38,27,4,0,0.30115,0.381533,0.304585,0.216416,0,263,225,38,27,4,0:
0000
0000
0000
0000
,
0000
0000
0000
0000
,
0000
0000
0000
0000
,
0000
0000
0000
0000
,
1000
0100
0001
0100
,
0000
0000
0000
0010
0001
0000
0100
0000
,
0010
1000
0001
0100
,
0000
0000
0000
0000
0010
0000
1000
0200
,
0000
0010
0000
1300
,
1001
0000
0011
0000
0100
0000
1000
0020
,
0000
0100
0000
1030
,
1001
1100
0010
0000
,
0001
0200
0300
0010
,
1000
0100
0010
0010
,
0000
0001
1000
0000
0010
0000
1000
0000
,
0000
0001
1000
0000
0100
0000
1000
0000
,
0000
0010
0000
0010
0000
0110
0000
0110
,
0000
0001
0000
0001
0000
0011
0000
0011
,
0000
0100
0000
1100
0000
1000
0000
0001
,
0000
0100
0010
0100
0000
0010
0100
0000
,
0001
0010
0100
1100
,
0010
0010
1001
1001
,
0100
0001
1000
1010
,
0001
0001
0110
0110
,
1000
2000
3000
0001
,
0012
0103
0102
0013
,
0100
0000
1000
0001
0000
0000
1000
0000
,
0020
0000
0030
0100
,
0001
0010
0011
1100
,
0000
0000
0000
1000
0010
0000
0100
0000
,
0001
0010
0011
1100
,
0000
0000
0000
0000
1000
0000
0001
0200
,
0000
0010
0000
0301
,
1001
0000
1010
0000
1000
0000
0001
0020
,
0000
0100
0000
0031
,
1001
1100
0000
0010
,
0001
0100
1010
0101
,
0000
0000
0010
1000
,
0100
1000
1010
0101
,
0000
0000
0000
0000
1000
0000
0001
2000
,
0000
0010
0000
3100
,
0110
0000
1100
0000
0010
0000
0100
0002
,
0000
1000
0000
0013
,
0110
0022
0033
0000
,
1000
2000
3000
0010
,
0100
0000
0002
0000
0003
1000
0100
0000
,
0010
0000
0001
0020
0000
0030
0000
0000
,
0100
2200
3300
0010
,
0001
0002
0003
1000
,
0010
0001
0010
1000
,
1001
2002
3003
0010
,
0100
0000
0000
0100
0000
0000
0100
0000
,
0001
0010
0001
0010
,
1000
0010
1000
0010
,
0001
0100
0001
0100
,
1000
0100
1000
0100
,
0001
0001
0001
0001
,
0MM1
0001
0001
0110
,
1000
1000
1000
1000
,
1MM0
1000
1000
0110
,
0002
0003
1000
0100
,
0100
0000
0010
0100
0000
0100
1000
0000
,
0020
0030
0100
0001
,
1000
0000
0100
0010
0000
0010
0001
0000
,
2000
3000
0001
0100
,
1000
0000
0100
0001
0000
0001
1000
0000
,
0020
0030
1000
0100
,
0010
0000
0002
2000
0000
0000
0000
0000
,
3003
0000
0000
0000
;

//--------------- dance-single - ----------------
#NOTES:
     dance-single:
     Shortysnmn2010:
     Hard:
     7:
     0.436266,0.465844,0.336646,0.232446,0.012023,381,339,42,29,47,0,0.436266,0.465844,0.336646,0.232446,0.012023,381,339,42,29,47,0:
0000
0000
0000
0000
,
0000
0000
0000
0000
,
0000
0000
0000
0000
,
0000
0000
0000
0000
,
1001
0000
1000
0100
0010
0100
1000
0000
,
MMMM
0000
0000
0010
0001
0010
0001
0100
,
0010
0000
0100
0001
0010
0001
1000
0000
,
MMMM
0000
0000
0000
1000
0010
0100
0002
,
0000
0013
0100
1100
,
1001
0000
1000
0100
0010
0100
1000
0020
,
0000
0130
0001
1010
,
1001
0000
0100
0010
2000
0000
3000
0000
,
0001
0000
0000
0000
0022
0000
0000
0033
0000
0000
0100
0000
1000
0000
0001
0000
,
1000
0100
1000
0000
0010
0100
0010
0100
,
0000
0001
0010
0001
1000
0010
0001
0010
,
0000
0100
0010
0100
0001
1000
0000
0001
,
0000
1000
0000
1100
0000
0001
0000
0011
,
0000
1000
0000
1010
0000
0001
0000
0101
,
0000
0010
1000
0100
0000
0010
0000
0100
,
0000
1000
0001
1000
0010
0100
1001
0000
,
0001
1000
0100
0001
0100
1000
0010
0100
,
1000
0100
0001
0010
0100
1000
0010
0100
,
0000
0001
1000
0100
1000
0001
0010
1000
,
0010
0100
1000
0001
0010
0100
1000
0001
,
0100
0000
0000
0000
0220
0000
0000
0330
0000
0000
1000
0000
0001
0000
0010
0000
,
0100
0100
1000
1000
0001
0001
1000
1000
,
0000
0000
0010
0000
0100
0000
0020
0000
0000
0030
1000
0000
0001
0000
1000
0000
,
0100
0000
0000
0000
1000
0000
0100
0000
0001
0000
0100
0000
0000
0MMM
0000
0000
,
0010
0000
0100
0001
1000
0100
1000
0000
,
MMMM
0000
0000
0010
0100
0001
1000
0001
,
0100
0000
0010
1000
0100
1000
0001
0000
,
MMMM
0000
0000
0000
1000
0100
0001
0200
,
0000
1300
0010
0101
,
1001
0000
0010
1000
0001
0010
0001
0020
,
0000
0130
1000
0101
,
1001
0000
0000
0000
0010
0000
1000
0000
0000
0000
1000
0000
0000
M0MM
0000
0000
,
0010
0000
0100
1000
0001
0100
0001
0000
,
MMMM
0000
0000
1000
0100
0001
0100
0010
,
0001
0000
0100
0010
0100
0001
0010
0000
,
MMMM
0000
0000
0000
0100
1000
0010
2000
,
0000
3100
0010
1100
,
1001
0000
0010
0001
0100
0010
0100
0002
,
0000
0013
0100
1100
,
1001
0000
0020
0001
0000
0000
0030
0000
,
1001
0000
0000
0000
2002
0000
0000
3003
0000
0000
0010
0000
1000
0000
0010
0000
,
0100
0000
0000
0000
0220
0000
0000
0330
0000
0000
0001
0000
0010
0000
0001
0000
,
1000
0100
1000
0002
0000
0103
0010
0100
,
0001
0000
0010
0000
0200
0000
0000
0300
0000
0000
1000
0000
0010
0000
1000
0000
,
0100
0000
0000
0000
0220
0000
0000
0330
0000
0000
0001
0000
0001
0000
0010
0000
,
0100
0100
1000
0010
0010
0100
0001
0001
,
0010
0000
0100
0000
0220
0000
0000
0330
0000
0000
1000
0000
0001
0000
1000
0000
,
0100
0100
1001
0100
,
0010
1000
0010
1000
0001
0010
0001
0010
,
0000
0010
0001
0100
0000
0100
0001
0010
,
0100
1000
0100
1000
0000
1000
0010
1000
,
0100
0010
0100
1000
0000
1000
0010
1000
,
0100
0000
01MM
0000
0100
0000
01MM
0200
,
1300
0000
1MM0
0000
1000
0000
M10M
0010
,
0001
M0M1
0001
M0M1
,
0100
0000
0000
0000
M10M
0000
0200
0000
0310
0000
1000
0000
0000
MMM0
0000
0000
,
0200
0300
1010
0110
,
0110
0000
0100
0001
0000
0001
0010
0000
,
0110
0100
1001
1010
,
1010
0000
0100
0001
0000
0001
1000
0000
,
1100
0010
1100
1001
,
1001
0000
0010
0100
0000
0100
1000
0000
,
1010
0100
0101
1001
,
1001
0000
0010
0200
0000
0000
0300
0000
,
2002
0000
0000
3003
0000
0000
0000
0000
;

//--------------- dance-single - ----------------
#NOTES:
     dance-single:
     Shortysnmn2010:
     Challenge:
     9:
     0.51642,0.626804,0.408785,0.240462,0.108208,451,400,51,30,15,0,0.51642,0.626804,0.408785,0.240462,0.108208,451,400,51,30,15,0:
0000
0000
0000
0000
,
0000
0000
0000
0000
,
0000
0000
0000
0000
,
0000
0000
0000
1000
1000
0001
0100
0000
,
1002
0000
0103
0010
0001
0010
0100
0000
,
0001
0000
1000
0100
0010
1000
0010
0100
,
2000
0000
3010
0100
0010
1000
0100
0000
,
0110
0000
0001
0000
1000
0010
0001
0020
,
1000
0100
1030
1001
,
1100
0000
0010
0001
0100
0010
0100
0002
,
0010
0100
0013
0110
,
1100
0000
0001
0020
0000
0030
0000
0000
,
0000
0001
0100
0010
1000
0000
0000
0000
0000
0000
0100
1000
0100
1000
0001
0000
,
0010
0001
0010
0001
1000
0000
0000
0000
0100
1000
0100
0000
1000
0001
1000
0000
,
0000
0000
0001
0010
0001
0000
0010
0001
0010
0000
0001
0000
1000
0000
0100
0000
,
0000
0000
0010
0100
0010
0000
0001
0010
0001
0010
0100
0000
0010
0100
0010
0000
,
0000
0100
1000
0100
1000
0010
0100
0010
,
0100
0001
0010
0001
0010
0100
1000
0100
,
1000
0000
0001
0200
0010
0000
0001
0000
0300
0000
0001
0000
0100
0000
0010
0000
,
1000
0000
0100
0001
0100
1000
0100
0000
0010
0000
0001
0000
1001
0000
0000
0000
,
0001
0100
0010
0100
1000
0100
0010
1000
,
0001
0010
0100
0010
0001
1000
0100
0010
,
1000
0010
0001
1000
0100
0010
0100
1000
,
0001
0100
0010
0100
0001
0010
0001
1000
,
0000
0001
0010
0001
0010
0000
0000
0000
0000
0000
0100
0000
1000
0000
0010
0000
,
1000
0000
0001
0000
0100
0000
0010
0000
0100
0000
0001
1000
0100
0000
0010
0000
,
0000
0000
0100
0000
1000
0001
1000
0000
0000
0001
1000
0001
1000
0000
0010
0000
,
0100
0001
1000
0000
0001
0000
0001
0000
1000
0000
1000
0000
0010
0000
0000
0000
,
0110
0000
0100
0001
0010
1000
0000
1010
,
0000
0011
0000
0001
1000
0100
1000
0010
,
0100
0000
0010
1000
0100
0010
0000
1010
,
0000
0011
0000
0001
1000
0100
0010
0002
,
0100
0013
0100
1100
,
1010
0000
0001
0100
1000
0100
0001
0020
,
0100
0031
1000
1010
,
0110
0000
0010
1000
0000
1000
0100
0000
,
0110
0000
0010
0001
1000
0001
0000
0101
,
0000
1010
0000
1000
0100
0001
0100
0000
,
1100
0000
0010
0001
0100
0001
0000
1010
,
0000
1100
0000
0010
0001
1000
0100
0020
,
1000
0130
1000
0101
,
1001
0000
0010
1000
0100
0010
0001
0200
,
0010
1300
0001
0011
,
1010
2002
3003
0000
,
1100
0000
2200
0000
3300
0010
0001
0100
,
0001
0000
2020
0000
3030
0100
0001
1000
,
0100
0100
0010
0002
0000
1000
1003
0010
,
1000
0000
0100
0000
0010
0000
0000
0000
0000
0000
0100
1000
0001
0000
0020
0000
,
1000
0000
2000
0000
3030
0001
0001
0100
,
1000
1000
0010
0001
0001
0010
1000
0001
,
0200
0010
0020
0000
0330
1000
0001
0010
,
1000
0000
0010
0001
0000
0010
0100
0000
,
0100
1000
0010
1000
0001
0100
1000
0100
,
0001
1000
0010
0001
0010
1000
0100
0010
,
0100
0000
1000
0000
0010
0000
0100
0000
0001
0000
1000
0001
0100
0000
0010
0000
,
0001
0000
0010
0000
0100
0000
0001
0000
1000
0000
0100
0001
0100
0000
1000
0000
,
0100
0000
110M
0000
01M1
0000
M110
0001
,
01M0
0000
110M
0000
01M1
0000
011M
1000
,
01M0
M101
11M0
011M
,
01M0
0000
010M
1000
1M00
0010
010M
0000
,
2002
3003
0100
1001
,
1010
0000
0100
0001
0000
0001
0010
0000
,
2200
3300
0010
1001
,
0101
0000
0010
1000
0000
1000
0100
0000
,
0220
0330
0001
1010
,
1100
0000
0010
0001
0000
1000
0010
0000
,
0220
0330
0001
1100
,
0011
0000
0001
2000
0000
0000
0000
0000
,
3000
0000
0000
0000
;
