#TITLE:Falling Down;
#SUBTITLE:;
#ARTIST:Space Cowboy;
#TITLETRANSLIT:;
#SUBTITLETRANSLIT:;
#ARTISTTRANSLIT:;
#GENRE:;
#CREDIT:;
#MUSIC:Falling Down - Space Cowboy.mp3;
#BANNER:;
#BACKGROUND:;
#CDTITLE:;
#SAMPLESTART:45.116;
#SAMPLELENGTH:15.000;
#SELECTABLE:YES;
#OFFSET:-0.123;
#BPMS:0.000=128.000
,95.000=130.000
,96.000=128.001
;
#STOPS:;
#DISPLAYBPM:128.000;
#BGCHANGES:;
#FGCHANGES:;

//--------------- dance-single - ----------------
#NOTES:
     dance-single:
     Shortysnmn2010:
     Beginner:
     1:
     0.106527,0.155622,0.024316,0.089158,0,92,89,3,11,2,0,0.106527,0.155622,0.024316,0.089158,0,92,89,3,11,2,0:
0000
0000
0000
0000
,
0000
0000
0000
0000
,
0000
0000
0000
0000
,
0000
0000
0000
0000
,
0001
0000
0000
0000
,
0010
0000
0000
0000
,
1000
0000
0000
0000
,
0010
0000
0000
0000
,
0002
0000
0000
0003
,
0000
0000
1000
0000
,
0010
0000
0000
0000
,
0100
0000
0000
0000
,
0010
0000
0000
0000
,
1000
0000
0000
0000
,
0001
0001
0001
0000
,
1000
0000
0000
0000
,
0010
0010
0010
0000
,
1000
0000
0000
0000
,
0100
0000
0100
0000
,
1000
0000
0000
0000
,
0002
0003
0020
0030
,
0200
0000
0000
0300
,
2000
3000
0200
0300
,
0020
0000
0000
0030
,
0001
0000
0001
0000
,
0001
0000
0001
0000
,
1000
0000
1000
0000
,
1000
0000
0010
0000
,
1000
0000
1000
0000
,
1000
0000
1000
0000
,
0001
0000
0001
0000
,
0001
0000
0010
0000
,
0001
0000
0000
0000
,
0100
0000
0000
0000
,
0010
0000
0000
0000
,
1000
0000
0000
0000
,
0200
0000
0300
0M00
,
0200
0000
0300
0000
,
0020
0000
0030
00M0
,
0020
0000
0030
0000
,
0001
0000
1000
0000
,
0001
0000
0000
0000
,
0010
0000
0100
0000
,
0010
0000
0000
0000
,
0001
0000
0100
0000
,
0001
0000
0000
0000
,
1000
0000
0010
0000
,
1000
0000
0000
0000
,
1100
0000
0000
0000
,
1000
0000
0000
0000
,
0101
0000
0000
0000
,
0001
0000
0000
0000
,
1000
0000
0001
0000
,
1000
0000
1000
0000
,
0001
0000
0001
0000
,
1000
0000
0000
0000
,
0010
0000
0100
0000
,
0010
0000
0010
0000
,
0100
0000
0010
0000
,
0100
0000
0100
0000
,
0010
0000
0000
0000
,
1000
0000
0000
0000
,
0100
0100
0100
0000
,
0010
0000
0000
0000
,
1001
0000
0000
0000
;

//--------------- dance-single - ----------------
#NOTES:
     dance-single:
     Shortysnmn2010:
     Easy:
     4:
     0.251264,0.365954,0.25937,0.178317,0,217,185,32,22,0,0,0.251264,0.365954,0.25937,0.178317,0,217,185,32,22,0,0:
0000
0000
0000
0000
,
0000
0000
0000
0000
,
0000
0000
0000
0000
,
0000
0000
0000
0000
,
0000
1000
0000
0001
0000
1000
0000
0000
,
0100
0010
0001
0101
,
1001
0000
0010
2000
,
0001
0002
0000
3003
,
0010
0100
1000
0000
,
0001
0100
0010
0100
,
0001
0010
0100
0200
,
0300
1000
0001
0100
,
0001
1100
0010
0001
,
0100
1001
0010
1000
,
0001
0001
0002
0003
,
1000
0000
0110
1001
,
0100
0100
0200
0300
,
0010
0000
1010
0101
,
1000
1000
2000
3000
,
0001
0000
0011
1100
,
0002
0003
2000
3000
,
0002
0003
1010
1100
,
0002
0003
2000
3000
,
0002
0003
1100
1010
,
0100
0100
0001
0010
,
0100
0000
1000
0000
,
0100
0100
0010
0001
,
1000
0000
0010
0000
,
0100
0100
0001
1000
,
0100
0000
0001
0000
,
0100
0100
1000
0010
,
0100
0000
0010
0000
,
0100
0100
0001
0010
,
0001
0000
1000
0000
,
0100
0100
0010
0001
,
1000
0000
0001
0000
,
2000
0000
0100
0100
,
3002
0000
0100
0100
,
2003
0000
0010
0010
,
3002
0000
0010
0010
,
1003
1100
1100
1000
,
0001
0101
0101
0001
,
1000
1010
1010
1000
,
0001
0011
0011
0001
,
2000
0100
0001
3100
,
2000
0010
0100
3010
,
0200
0001
0010
0301
,
0020
0100
0031
1001
,
0110
0000
0000
0000
,
1100
0000
0000
0000
,
0011
0000
0000
0000
,
0110
0000
0000
0000
,
1000
1000
0100
0010
,
0001
0000
0100
0000
,
0001
0001
0010
0100
,
1000
0000
0010
0000
,
0100
0100
0001
1000
,
0010
0000
0001
0000
,
0010
0010
1000
0001
,
0010
0000
1100
1100
,
0010
0010
0001
0100
,
0001
0000
0010
0000
,
0100
0100
1000
0010
,
0001
0000
1010
0101
,
0220
0000
0330
0000
;

//--------------- dance-single - ----------------
#NOTES:
     dance-single:
     Shortysnmn2010:
     Medium:
     5:
     0.327686,0.440929,0.251264,0.12158,0,283,252,31,15,0,0,0.327686,0.440929,0.251264,0.12158,0,283,252,31,15,0,0:
0000
0000
0000
0000
,
0000
0000
0000
0000
,
0000
0000
0000
0000
,
0000
0000
0000
0000
,
0000
1000
0000
0001
0000
1000
0000
0000
,
0100
0010
0001
0100
,
0000
0001
0000
1000
0000
0001
0000
0000
,
0010
0020
0000
0030
,
0100
0000
1000
0001
1000
0000
0000
0000
,
0000
0010
0100
0000
0001
0000
0010
0000
,
0110
0000
0100
1000
0001
0000
0010
0000
,
0001
0000
1000
0000
0100
0000
0001
0100
,
1000
0000
1100
0000
0100
1000
0010
0000
,
1000
0000
0010
0000
0001
0000
0010
1000
,
0100
0100
0200
0300
,
1001
0000
0010
0001
0100
0000
0100
0000
,
0001
0001
0002
0003
,
0110
0000
1000
0001
0010
0000
0010
0000
,
0100
1000
0001
0100
,
0010
1000
0100
0000
0010
0000
0010
0000
,
0011
0000
0001
0100
0001
0000
0100
0001
,
0100
0002
0000
0003
,
1010
0000
1000
0100
1000
0000
0100
1000
,
0100
0000
2002
3003
,
0100
0100
1000
0001
,
0010
0000
0001
1000
0001
1000
0001
0000
,
0100
0100
0010
1000
,
0001
0000
1000
0001
1000
0000
0010
0000
,
0100
0100
0001
0010
,
0100
0000
1000
0001
1000
0001
1000
0000
,
0100
0100
0010
0001
,
1000
0000
0010
0100
0010
0000
1000
0000
,
0001
0000
0001
0000
0100
0001
0000
0010
,
0000
0001
0000
0010
0100
0000
1000
0000
,
0010
0000
0010
0000
1000
0100
0000
1000
,
0000
0010
0000
0100
0002
0000
0003
0000
,
1000
0000
0000
1000
0200
0000
0300
0000
,
0100
0000
0000
0100
2000
0000
3000
0000
,
1000
0000
0000
1000
0020
0000
0030
0000
,
0010
0000
0000
0010
0200
0000
0300
0000
,
0101
0101
0011
0011
,
1001
0000
1001
0000
0000
0110
0000
0010
,
1000
1000
1100
1100
,
0011
0000
0011
0000
0000
0110
0000
0010
,
0001
0001
1100
1100
,
1001
0000
1001
0000
0010
0001
0010
0000
,
0101
0101
1010
1010
,
1100
0000
1100
0000
0010
0100
0010
0000
,
1000
0000
0000
1000
0002
0000
0003
0000
,
0001
0000
0000
0001
0020
0000
0030
0000
,
0010
0000
0000
0010
0200
0000
0300
0000
,
0100
0000
0000
0100
2000
0000
3000
0000
,
0100
0100
0010
0001
,
1000
0000
0010
0100
0010
0100
0010
0000
,
0100
0100
0001
0010
,
0100
0000
1000
0001
1000
0000
0010
0000
,
0100
0100
0001
1000
,
0010
0000
1000
0001
1000
0001
1000
0000
,
0100
0100
0010
0001
,
1000
0000
0100
0010
0001
0000
1001
0000
,
0100
0100
0100
0100
,
1000
0000
0010
0100
0001
0100
0010
0000
,
0100
0100
0100
0100
,
0001
0000
0010
0100
1000
0000
0001
0000
,
1001
0000
0000
0000
;

//--------------- dance-single - ----------------
#NOTES:
     dance-single:
     Shortysnmn2010:
     Hard:
     7:
     0.404107,0.447818,0.372844,0.145895,0,349,303,46,18,0,0,0.404107,0.447818,0.372844,0.145895,0,349,303,46,18,0,0:
0000
0000
0000
0000
,
0000
0000
0000
0000
,
0000
0000
0000
0000
,
0000
0000
0000
0000
,
1000
0001
0000
1000
0000
0001
0010
0000
,
0100
1000
0001
0000
0100
0000
0101
0000
,
1100
0011
1010
0100
,
0001
0002
0000
0003
,
0000
1000
0100
1000
0020
0000
0030
0000
,
0000
0100
0001
1000
0001
0100
0010
1000
,
0001
0000
0110
0000
1000
0001
0200
0000
,
0300
0001
0010
0100
1000
0001
1000
0100
,
0010
0000
1100
0000
0010
0001
0200
0000
,
0300
0010
1000
0001
0010
0001
1000
0100
,
0010
0000
0010
0000
0010
0000
0001
1000
,
0010
0000
1000
0002
0010
0000
0013
0000
,
0100
0000
0100
0000
0100
0000
1000
0001
,
0100
0000
0001
2000
0100
0000
3100
0000
,
0010
0001
0100
0000
0101
0000
1001
0000
,
1000
0100
1000
0010
1000
0000
1100
0000
,
0110
0000
0010
0001
0100
0000
0100
0001
,
0010
0000
0100
0000
0100
1000
0010
1000
,
0100
0000
0100
1000
0010
0000
0010
1000
,
0100
0000
0220
0330
,
0100
0100
0100
0100
,
0100
0000
1000
0001
0010
0001
1000
0010
,
0100
0100
0100
0100
,
0100
0000
0001
0010
0001
0000
1001
0000
,
0100
0100
0100
0100
,
0100
0000
0010
0001
1000
0010
1000
0001
,
0100
0100
0100
0100
,
0100
0000
0010
1000
0010
0000
1001
0000
,
0100
0000
0100
0000
0100
0001
0000
0011
,
0000
1001
0000
1000
0100
0010
0001
0000
,
0100
0000
0100
0000
0100
0010
0000
1010
,
0000
1001
0000
0010
0001
0000
1000
0000
,
0100
0000
0000
1000
0002
0010
0013
0000
,
0100
0000
0000
1000
0020
0100
0130
0000
,
0001
0000
0000
1000
0200
0010
0310
0000
,
0001
0000
0000
1000
0020
1000
1030
0000
,
1100
1100
1001
1001
,
0101
0000
0101
0000
0000
1001
0000
0100
,
1010
1010
1001
1001
,
0011
0000
0011
0000
0000
1001
0000
0100
,
0010
0001
1000
0010
1000
0001
0100
0001
,
1000
0000
1100
0000
0010
0001
0100
0000
,
0001
1000
0010
1000
0001
0100
1000
0100
,
0001
1000
0001
0010
0100
1000
0010
0000
,
0110
0000
0000
0001
2000
0100
3100
0000
,
0010
0000
0000
0001
0200
0010
0310
0000
,
1000
0000
0000
0001
0200
0001
0301
0000
,
1000
0000
2002
3003
,
0100
0100
0100
0100
,
0100
0000
1000
0001
0010
0001
1000
0010
,
0100
0100
0100
0100
,
0100
0000
0001
0010
0001
0000
1001
0000
,
0100
1100
0100
0101
,
0100
0000
0010
0001
1000
0010
1000
0001
,
0100
1100
0100
0101
,
0100
0000
1000
0001
0010
0000
1001
0000
,
0100
0110
0100
0110
,
0100
0000
1000
0010
1000
0010
0001
0010
,
0100
1100
0100
0101
,
0100
0000
0001
0010
1000
0000
1001
0000
,
0210
0000
0000
0000
,
0300
0000
0000
0000
;

//--------------- dance-single - ----------------
#NOTES:
     dance-single:
     Shortysnmn2010:
     Challenge:
     9:
     0.530318,0.579529,0.372844,0.186422,0.202633,458,412,46,23,0,0,0.530318,0.579529,0.372844,0.186422,0.202633,458,412,46,23,0,0:
0000
0000
0000
0000
,
0000
0000
0000
0000
,
0000
0000
0000
0000
,
0000
0000
0000
0000
,
0002
0100
0000
1000
0000
0103
0010
1000
,
0001
0010
0001
1000
0100
0000
0110
0000
,
1001
0010
1001
0100
,
0200
0020
0000
0330
,
0000
1000
0000
0001
0000
0100
0000
1001
,
0000
0010
0000
1000
0000
0100
0010
0100
,
1000
0010
0000
0100
0000
0001
0000
1001
,
0000
1000
0000
0100
0000
0010
0100
0010
,
0001
0000
0100
0001
0100
0000
0001
0000
0010
0000
0001
0100
0001
0000
0100
0000
,
0010
0000
0100
0010
0100
0000
0010
0000
1000
0000
0100
1000
0100
0000
0010
0000
,
0001
0000
0001
0000
0101
0000
0100
0010
,
1000
0000
0100
2000
0100
0000
3100
0000
,
1000
0000
1000
0000
1010
0000
0010
0100
,
0001
0000
0001
0020
0001
0000
0031
0000
,
1000
1000
0100
0100
0010
0010
0001
0001
,
1000
0010
0001
1000
0100
0000
1001
0000
,
2010
0000
3001
0100
0120
0000
1030
0001
,
0021
0000
0000
0000
0130
1000
0001
1000
0010
0000
0100
0000
0001
0000
0010
0000
,
0021
0000
0130
1000
1002
0000
0103
0001
,
1001
0000
0020
0030
,
0100
0000
0001
1000
0100
0000
1000
0001
0100
0000
0001
1000
0100
0000
1000
0001
,
0100
0000
0001
1000
0010
0000
0010
0000
0100
0000
0100
0000
0001
0000
0001
0000
,
0100
0000
0001
0010
0100
0000
1000
0010
0100
0000
0001
0010
0100
0000
1000
0010
,
0100
0000
0001
0010
0001
0000
1000
0000
0001
0000
0000
0000
1001
0000
0000
0000
,
0100
0000
1000
0001
0100
0000
0001
1000
0100
0000
1000
0001
0100
0000
0001
1000
,
0100
0000
1000
0001
0010
0000
0010
0000
0100
0000
0100
0000
1000
0000
1000
0000
,
0100
0000
1000
0010
0100
0000
0001
0010
0100
0000
1000
0010
0100
0000
0001
0010
,
0100
0000
1000
0010
1000
0000
0001
0000
1000
0000
0000
0000
1001
0000
0000
0000
,
0100
0000
0100
0000
0100
1000
0000
1010
,
0000
1001
0000
0001
1000
0010
0001
0010
,
0100
0000
0100
0000
0100
0001
0000
0011
,
0000
1001
0000
1000
0100
0000
0110
0000
,
0001
0100
0001
0000
1000
0000
0200
0000
0010
0000
0310
0000
1001
0000
0000
0000
,
0001
0100
0001
0000
0010
0000
0200
0000
0010
0000
0310
0000
1001
0000
0000
0000
,
1000
0010
1000
0000
0100
0000
0020
0000
0001
0000
0031
0000
1100
0000
0000
0000
,
1000
0100
1000
0000
0001
0000
2000
0000
0010
0000
3010
0000
0101
0000
0000
0000
,
1001
1100
1001
0101
,
1001
0000
1010
0000
0000
0110
0000
0101
,
1001
0011
1001
1010
,
1001
0000
0101
0000
0000
0110
0000
1010
,
1000
0001
0010
0100
1000
0001
1000
0100
,
0020
0000
0230
0000
0310
0001
0010
0000
,
0100
1000
0001
1000
0010
0100
0001
1000
,
0001
0100
1000
0100
0001
1000
0001
0000
,
1100
0000
0000
0010
0002
0100
0103
0010
,
0100
0000
0000
0001
0020
0100
0130
0001
,
0100
0000
0000
1000
0020
0100
0130
1000
,
0100
0001
2002
3003
,
0100
0100
0100
0100
,
0100
0000
0010
1000
0010
0001
1000
0010
,
0100
0100
0100
0100
,
0100
0000
0010
1000
0010
0000
1001
0000
,
0100
0000
0001
1000
0100
0000
1000
0010
0100
0000
0001
1000
0100
0000
1000
0010
,
0100
0000
0001
1000
0010
0000
0001
0000
0010
0000
1000
0000
0001
0000
0010
0000
,
0100
0000
1000
0001
0100
0000
0001
0010
0100
0000
1000
0001
0100
0000
0001
0010
,
0100
0000
1000
0001
0010
0000
0001
0000
1000
0000
0000
0000
1001
0000
0000
0000
,
0100
0000
1000
0010
0100
0000
0001
1000
0100
0000
1000
0001
0100
0000
0001
0010
,
0100
0000
1000
0001
0010
0000
1000
0000
0010
0000
0001
0000
1000
0000
0010
0000
,
0100
0000
0001
1000
0100
0000
1000
0010
0100
0000
0001
0010
0100
0000
1000
0001
,
0100
0000
0001
1000
0001
0000
0010
0000
0001
0000
0000
0000
1000
0000
0000
0000
,
0210
0000
0000
0000
,
0300
0000
0000
0000
;
