#TITLE:Could It Be You;
#SUBTITLE:;
#ARTIST:HWood;
#TITLETRANSLIT:;
#SUBTITLETRANSLIT:;
#ARTISTTRANSLIT:;
#GENRE:;
#CREDIT:;
#BANNER:;
#BACKGROUND:;
#LYRICSPATH:;
#CDTITLE:;
#MUSIC:Could It Be You - HWood.mp3;
#OFFSET:-0.755000;
#SAMPLESTART:45.528999;
#SAMPLELENGTH:15.227000;
#SELECTABLE:YES;
#BPMS:0.000000=132.000000
;
#STOPS:
;
#BGCHANGES:;
#KEYSOUNDS:;
#ATTACKS:;

//---------------dance-single - ----------------
#NOTES:
     dance-single:
     Shortysnmn2010:
     Beginner:
     1:
     0.091836,0.133551,0.000000,0.000000,0.000000,71.000000,71.000000,0.000000,0.000000,0.000000,0.000000,0.091836,0.133551,0.000000,0.000000,0.000000,71.000000,71.000000,0.000000,0.000000,0.000000,0.000000:
0000
0000
0000
0000
,
0000
0000
0000
0000
,
0000
0000
0000
0000
,
0000
0000
0000
0000
,
1000
0000
0000
0000
,
0010
0000
0000
0000
,
0100
0000
0000
0000
,
0001
0000
0000
0000
,
1000
0000
1000
0000
,
1000
0000
0000
0000
,
0001
0000
0001
0000
,
0001
0000
0000
0000
,
0100
0000
0100
0000
,
0100
0000
0000
0000
,
0010
0000
0010
0000
,
0010
0000
0000
0000
,
1000
0000
0000
0000
,
0100
0000
0000
0000
,
0001
0000
0000
0000
,
0100
0000
0000
0000
,
0010
0000
0000
0000
,
0001
0000
0000
0000
,
1000
0000
0000
0000
,
0010
0000
0000
0000
,
0100
0000
0000
0000
,
0001
0000
1000
0000
,
0001
0000
0000
0000
,
1000
0000
0001
0000
,
1000
0000
0000
0000
,
0100
0000
0010
0000
,
0100
0000
0000
0000
,
0010
0000
0100
0000
,
0010
0000
0000
0000
,
0001
0000
0000
0000
,
1000
0000
0000
0000
,
0010
0000
0000
0000
,
0100
0000
0000
0000
,
0010
0000
0000
0000
,
1000
0000
0000
0000
,
0100
0000
0000
0000
,
0010
0000
0000
0000
,
0010
0000
0000
0000
,
0001
0000
0001
0000
,
0001
0000
0001
0000
,
0001
0000
0000
0000
,
1000
0000
0000
0000
,
0010
0000
0010
0000
,
0010
0000
0010
0000
,
0010
0000
0000
0000
,
0100
0000
0000
0000
,
0010
0000
0000
0000
,
1000
0000
0000
0000
,
0100
0000
0000
0000
,
0010
0000
0000
0000
,
0001
0000
0001
0000
,
0100
0000
0000
0000
,
0010
0000
0010
0000
,
1000
0000
0000
0000
,
0001
0000
1000
0000
,
0001
0000
0000
0000
;

//---------------dance-single - ----------------
#NOTES:
     dance-single:
     Shortysnmn2010:
     Easy:
     3:
     0.162977,0.214586,0.009054,0.108651,0.000000,126.000000,125.000000,1.000000,12.000000,0.000000,0.000000,0.162977,0.214586,0.009054,0.108651,0.000000,126.000000,125.000000,1.000000,12.000000,0.000000,0.000000:
0000
0000
0000
0000
,
0000
0000
0000
0000
,
0000
0000
0000
0000
,
0000
0000
0000
0000
,
1000
0000
0001
0000
,
0010
0000
0001
0000
,
1000
0000
0100
0100
,
0100
0000
0000
0000
,
1000
0000
0010
1000
,
0001
0000
0100
0000
,
0001
0000
0010
0000
,
0100
0000
0000
0000
,
1000
0000
0010
1000
,
0001
0000
0100
0000
,
0001
0000
0010
0000
,
0010
0000
0000
0000
,
0200
0300
1000
0100
,
0001
0000
0001
0100
,
1000
0000
1000
0010
,
0001
0000
0001
0010
,
2000
3000
0001
0010
,
0001
0000
0010
0100
,
0010
0000
0100
1000
,
0100
0000
0100
0000
,
1000
0000
1000
0000
,
0010
0010
0010
0000
,
1000
0000
0100
0000
,
1000
0000
0010
0000
,
0100
0000
0000
0000
,
0001
0001
0001
0000
,
0010
0000
0100
0000
,
0010
0000
0000
0000
,
0100
0000
0000
0000
,
1000
1000
1000
0000
,
0010
0000
0100
0000
,
0010
0000
1000
0000
,
0001
0000
0000
0000
,
0010
0010
0010
0000
,
0001
0000
0100
0000
,
1000
0000
0100
0000
,
0001
0000
0000
0000
,
1000
0000
0000
0000
,
0010
0010
0020
0030
,
1000
1000
2000
3000
,
0100
0100
0200
0300
,
0010
0010
0020
0030
,
0001
0010
0002
0003
,
0010
0001
0020
0030
,
0100
1000
0200
0300
,
1000
0100
2000
3000
,
0010
0000
0100
0000
,
0010
0000
1000
0000
,
0001
0000
0010
0000
,
0001
0000
0000
0000
,
1000
0000
0100
0000
,
1000
0000
0010
0000
,
0100
0000
1000
0000
,
0100
0000
0001
0000
,
1000
0001
1000
0001
,
2002
3003
0000
0000
;

//---------------dance-single - ----------------
#NOTES:
     dance-single:
     Shortysnmn2010:
     Medium:
     6:
     0.355704,0.429173,0.172031,0.289737,0.027163,275.000000,256.000000,19.000000,32.000000,0.000000,0.000000,0.355704,0.429173,0.172031,0.289737,0.027163,275.000000,256.000000,19.000000,32.000000,0.000000,0.000000:
0000
0000
0000
0000
,
0000
0000
0000
0000
,
0000
0000
0000
0000
,
0000
0000
0000
0000
,
1000
0000
0000
0000
1000
0000
0000
0000
0001
0000
0000
0010
0000
0000
0100
0000
,
1000
0000
1000
0010
0000
0010
0000
0000
,
1000
0000
0000
0000
0001
0000
0000
0000
1000
0000
0000
0100
0000
0000
1000
0000
,
0010
0000
0010
0100
0000
0100
0000
0000
,
2002
0000
3003
0000
0010
1000
0100
0000
,
2002
0000
3003
0000
0010
0001
0100
0000
,
1000
0100
0001
0000
0010
0000
1000
0000
,
2002
3003
0100
0010
,
0002
1000
0000
0000
0010
0000
0103
0000
,
2002
0000
3003
0000
0010
1000
0100
0000
,
0001
0100
1000
0000
0010
0000
0100
0000
,
0110
0110
0101
1001
,
2200
0000
3300
0000
0001
1000
0100
0000
,
1000
0000
1000
0000
0001
1000
0100
0000
,
0010
0001
1000
0000
0010
0000
0010
0000
,
1000
0001
0010
0000
0001
0000
1001
0000
,
1000
0000
0100
0000
0001
0100
1000
0000
,
0001
0000
0100
0000
1000
0100
0001
0000
,
1000
0000
0010
0000
0001
0010
1000
0000
,
0002
0000
1000
0000
1003
0000
0001
0001
,
2000
0001
3001
0010
,
0100
0000
0100
0000
0100
0000
1000
0020
,
0000
0100
0130
0000
0010
0000
0010
0100
,
0001
0000
0001
0000
0001
0000
0010
0200
,
0000
0010
0310
0000
0001
0000
1000
0000
,
0010
0100
0010
0000
0100
0010
0100
0000
,
1000
0000
0100
0000
0001
0000
0010
0002
,
0000
0003
0000
0000
1000
0000
0001
0020
,
0000
0030
0100
2000
0000
3000
0000
0000
,
0001
0000
0001
0000
0001
0000
0010
0200
,
0000
1000
1300
0000
0001
0000
0010
0001
,
0100
0000
0100
0000
0100
0000
0010
2000
,
0000
0001
3001
0000
0100
0000
0010
0000
,
1000
0001
1000
0000
0100
0001
0100
0000
,
1000
0000
0010
0000
0001
0000
0010
2000
,
0000
3000
0000
0000
0001
0000
0010
0002
,
0000
0003
0100
0002
0000
0003
0010
0001
,
1000
0001
1000
0001
2000
0000
3000
0000
,
0010
0100
0010
0100
0010
0000
0000
0110
,
0000
0100
0001
0100
0002
0000
0003
0000
,
1000
0001
1000
0001
1000
0000
0000
1001
,
0000
0001
0010
0001
0020
0000
0030
0000
,
0100
1000
0001
1000
0100
0000
0000
1100
,
0000
1000
0001
0010
0002
0000
0003
0000
,
0100
0001
1000
0001
0100
0000
0000
0000
,
0010
1000
0001
1000
0010
0000
0000
0000
,
0020
0000
0000
0000
1030
0000
0000
0000
0001
0000
0000
0010
0000
0000
0001
0000
,
1000
0000
0100
1000
0000
1100
0000
0000
,
0002
0000
0000
0000
1003
0000
0000
0000
0100
0000
0000
1000
0000
0000
0010
0000
,
0001
0000
0010
0100
0000
0101
0000
0000
,
2000
0000
0000
0000
3010
0000
0000
0000
1000
0000
0000
0010
0000
0000
0100
0000
,
0001
0000
1000
0100
0000
1001
0000
0000
,
0002
0000
0000
0000
1003
0000
0000
0000
0100
0000
0000
1000
0000
0000
0001
0000
,
0100
0101
1001
1100
,
0010
0001
0010
0001
1000
0100
1000
0100
,
0002
0003
0000
0000
;

//---------------dance-single - ----------------
#NOTES:
     dance-single:
     Shortysnmn2010:
     Hard:
     8:
     0.459181,0.455996,0.153923,0.244466,0.144868,355.000000,338.000000,17.000000,27.000000,0.000000,0.000000,0.459181,0.455996,0.153923,0.244466,0.144868,355.000000,338.000000,17.000000,27.000000,0.000000,0.000000:
0000
0000
0000
0000
,
0000
0000
0000
0000
,
0000
0000
0000
0000
,
0000
0000
0000
0000
,
0202
0000
0000
0000
0303
0000
0000
0000
0010
0000
0000
1000
0000
0000
0100
0000
,
0010
0000
0000
0011
0000
1010
0000
0000
,
0220
0000
0000
0000
0330
0000
0000
0000
0001
0000
0000
0010
0000
0000
0001
0000
,
0100
0000
0000
1010
0000
0011
0000
0000
,
1001
0000
0000
0000
1001
0000
0000
0000
0010
0000
0001
1000
0000
1000
0001
0000
,
0100
0000
0100
0000
0010
1000
0001
1000
,
0100
0000
0001
0000
0100
0000
0010
0000
0001
0000
1000
0010
0000
0100
0001
0000
,
1000
0000
1100
0000
0001
0100
1000
0100
,
0001
0000
1001
0000
1000
0010
0001
0010
,
1000
0000
1001
0000
0001
0010
1000
0010
,
0001
0000
1000
0000
0100
0000
0010
0000
0100
0000
1000
0010
0000
0100
0001
0000
,
1000
0000
0000
0000
1000
0000
0000
0000
1000
0000
0000
0000
1000
0100
1000
0100
,
0010
0000
0000
0001
0010
0001
0100
0000
,
0001
1000
0100
1000
0001
0100
0001
0000
,
0010
0100
1000
0010
0100
0010
1000
0000
,
0001
0000
0010
0000
0100
0000
0010
0001
1000
0000
0100
0000
0010
0000
0000
0000
,
0001
0000
0100
0000
0010
0000
0100
0000
0001
0000
1000
0100
1000
0000
0000
0000
,
0001
0000
1000
0000
0100
0000
0010
0000
0100
0000
1000
0001
1000
0000
0000
0000
,
0010
0000
0100
0000
1000
0000
0100
0000
0001
0000
1000
0100
1000
0000
0000
0000
,
0001
0010
1000
0010
0001
0000
0100
0100
,
0010
1000
0100
1000
0010
0000
0000
0000
,
0102
0000
1000
0000
0103
0000
0010
1000
,
0000
1000
0100
0100
0010
0001
1000
0002
,
0010
0000
1000
0000
0013
0000
0100
1000
,
0000
1000
0001
0001
0100
1000
0100
0001
,
1000
0001
1000
0100
0001
2000
0000
3000
,
0000
0010
0001
0001
1000
0010
0100
0002
,
0000
0000
0003
0000
1000
0100
0001
0200
,
0000
0300
0010
0010
0000
0000
0000
0000
,
2100
0000
0001
0000
3100
0000
0010
0001
,
0000
0001
0100
0100
0010
0100
0001
2000
,
0010
0000
0001
0000
3010
0000
0100
0001
,
0000
0001
1000
1000
0100
0010
1000
0010
,
0100
1000
0010
0100
0001
2000
0000
3000
,
0000
0100
0010
0010
0001
0010
0100
2000
,
0000
0000
3000
0000
0010
0100
0001
0020
,
0001
0030
0001
2000
0001
3000
0001
0100
,
0001
1000
0010
1000
0002
0000
0003
0000
,
1000
0000
1000
0000
0100
0000
0100
0000
0010
0000
0000
0001
0000
0000
0010
0000
,
0000
0100
0100
1000
1000
0020
0000
0030
,
0100
0000
0100
0000
0001
0000
0001
0000
1000
0000
0000
0100
0000
0000
1000
0000
,
0000
0010
0010
1000
1000
0200
0000
0300
,
0010
0000
0010
0000
0001
0000
0001
0000
1000
0000
0000
0100
0000
0000
0001
0000
,
0000
0100
0100
1000
1000
0020
0000
0030
,
0100
0000
0100
0000
0001
0000
0001
0000
0010
0000
0000
0001
0000
0000
0100
0000
,
0010
0010
1000
1000
0001
0100
0001
1000
,
0100
0000
0000
0000
1100
0000
0000
0000
0010
0000
0000
0001
0000
0000
0100
0000
,
0010
0000
0000
0000
2000
0000
0001
0000
0000
0000
3001
0000
0010
0100
0000
0010
,
0100
0000
0000
0000
1100
0000
0000
0000
0001
0000
0000
0100
0000
0000
0010
0000
,
1000
0000
0000
0000
0002
0000
0100
0000
0000
0000
0103
0000
0010
1000
0001
1000
,
0010
0000
0000
0000
0110
0000
0000
0000
0100
0000
0000
0001
0000
0000
1000
0000
,
0100
0000
0000
0000
0020
0000
0001
0000
0000
0000
0031
0000
1000
0100
0000
0100
,
1000
0000
0000
0000
0101
0000
0000
0000
0010
0000
0000
1000
0000
0000
0100
0000
,
2000
3002
2003
3002
,
0013
0000
0100
0000
0010
0000
0100
0000
1000
0001
1000
0001
1000
0001
1000
0001
,
2000
3000
0000
0000
;

//---------------dance-single - ----------------
#NOTES:
     dance-single:
     Shortysnmn2010:
     Challenge:
     10:
     0.688125,0.725757,0.344063,0.199194,0.638327,532.000000,494.000000,38.000000,22.000000,0.000000,0.000000,0.688125,0.725757,0.344063,0.199194,0.638327,532.000000,494.000000,38.000000,22.000000,0.000000,0.000000:
// measure 0
0000
0000
0000
0000
,  // measure 1
0000
0000
0000
0000
,  // measure 2
0000
0000
0000
0000
,  // measure 3
0000
0000
0000
0000
0000
0000
0000
0000
0000
0000
0000
0000
1000
0001
1000
0001
,  // measure 4
0100
0000
0010
0000
0100
0000
0001
0000
0010
0000
0100
1000
0001
1000
0100
0000
,  // measure 5
0010
0000
0002
0000
0100
0000
2003
0000
0010
0000
3001
0000
0100
0010
0000
0100
,  // measure 6
0001
0000
0000
1001
0000
1100
0000
0000
0010
0000
0001
1000
0100
1000
0001
0000
,  // measure 7
0010
0000
0000
0000
0100
0000
1000
0000
0100
0000
0010
0000
0001
0100
0010
0100
,  // measure 8
0001
0000
0000
1001
0000
1010
0000
0000
1000
0000
0100
0010
0000
0010
0100
0000
,  // measure 9
1000
0010
2000
0000
3001
0100
0001
0010
,  // measure 10
2000
0000
0000
3001
0000
0100
0010
0000
1000
0000
0010
0100
0000
0100
1000
0000
,  // measure 11
1010
0000
0000
0000
1001
0000
0000
0000
0101
0000
0000
0000
1000
0010
0100
0001
,  // measure 12
1000
0000
0000
1100
0000
1000
0100
0000
1000
0000
0010
0100
0010
0100
0010
0000
,  // measure 13
0100
0000
0000
0000
1001
0000
0000
0000
0010
0000
0100
1000
0001
0010
0000
0010
,  // measure 14
0001
0000
0000
0100
0000
0100
0010
0000
1000
0000
0100
0010
0000
0010
0100
0000
,  // measure 15
1000
0000
0000
0000
0101
0000
0000
0000
1001
0000
0000
0000
1000
0100
0010
0001
,  // measure 16
1000
0000
0000
0000
0000
0000
0001
0100
0001
1000
0100
0000
0010
0000
0000
0000
,  // measure 17
0100
0000
1000
0100
1000
0000
0010
0100
0001
0100
0010
0000
1000
0000
0000
0000
,  // measure 18
0001
0010
0001
0000
0100
0000
0001
0010
0001
0000
0100
0000
0010
0000
0000
0000
,  // measure 19
1000
0000
0001
0000
0010
0000
1000
0010
1000
0000
0010
0000
0001
0000
0000
0000
,  // measure 20
1000
0100
1000
0001
0100
0000
0001
0010
0001
0000
1000
0010
1000
0000
0000
0000
,  // measure 21
0001
0010
0001
1000
0100
1000
0001
0010
0001
0000
0100
0010
0100
0000
0000
0000
,  // measure 22
0001
1000
0010
0100
0001
1000
0001
0010
0100
0000
1000
0000
0001
0000
0000
0000
,  // measure 23
0010
0001
0100
1000
0100
0000
0101
0011
,  // measure 24
1010
1000
0010
0001
0100
0010
0010
0010
,  // measure 25
0101
0000
1001
0000
1100
0000
0001
0020
,  // measure 26
0001
0000
0130
0000
1000
0000
0010
0000
0110
0000
0101
0000
0001
1000
0000
1000
,  // measure 27
0010
0000
0110
0000
1010
0000
1000
0200
,  // measure 28
0010
0000
1300
0000
0001
0000
0100
0000
0110
0000
1010
0000
1000
0001
0100
0001
,  // measure 29
1000
0000
0100
0000
0001
0000
0100
0000
1000
0000
0001
0100
0000
0001
0100
0000
,  // measure 30
0002
0000
0010
0000
0010
0000
2003
0000
0010
0000
0010
0000
3001
0100
0000
0100
,  // measure 31
0001
0000
0000
0000
1001
0000
0000
0000
1000
0000
0010
0000
0001
0010
0100
0000
,  // measure 32
0001
0000
0000
0000
0020
0000
0100
0000
0000
0000
0130
0000
1000
0100
0010
0001
,  // measure 33
0100
0000
1001
0000
0101
0000
0010
2000
,  // measure 34
0100
0000
3001
0000
0010
0000
0100
0000
0110
0000
0011
0000
0001
0100
0000
0100
,  // measure 35
1000
0000
1100
0000
0101
0000
0001
0020
,  // measure 36
0100
0000
0031
0000
1000
0000
0010
0000
1010
0000
1001
0000
1000
0100
0010
1000
,  // measure 37
0010
0000
0100
0000
1000
0000
0010
0000
0001
0000
1000
0100
0000
0100
0001
0000
,  // measure 38
0020
0000
0100
0000
0100
0000
2030
0000
0001
0000
3001
0000
0100
1000
0000
1000
,  // measure 39
0001
0000
0000
0000
1001
0000
0000
0000
0010
0000
0100
0000
0001
0100
0010
0000
,  // measure 40
1000
0000
0100
0010
0100
0000
0100
1000
,  // measure 41
0001
0000
0001
0000
1000
0000
1000
0000
0001
0100
0010
1000
0001
0000
0000
0000
,  // measure 42
1000
0100
1000
0100
0010
1000
0010
1000
0001
0000
0000
0100
0000
0000
1100
0000
,  // measure 43
0000
0000
0001
0100
0001
0100
0010
0001
0020
0000
1000
0000
0100
0000
1030
0000
,  // measure 44
0001
0100
0001
0100
0010
0001
0010
0001
1000
0000
0000
0100
0000
0000
0101
0000
,  // measure 45
0000
0000
1000
0100
1000
0100
0010
1000
0020
0000
0001
0000
0130
1000
0001
0010
,  // measure 46
0100
1000
0100
1000
0001
0100
0001
0100
0010
0000
0000
1000
0000
0000
1100
0000
,  // measure 47
0000
0000
0010
0001
0010
0001
1000
0100
2000
0000
0010
0000
0001
0000
3010
0000
,  // measure 48
0100
0001
0100
0001
1000
0100
1000
0100
0010
0000
0000
0001
0000
0000
0100
0000
,  // measure 49
0010
0100
0010
0100
0001
1000
0001
1000
0100
0000
0010
0100
0010
0001
1000
0001
,  // measure 50
0100
0000
0001
0100
0001
0000
0100
0002
0010
0000
0000
1000
0000
0000
0013
0000
,  // measure 51
0100
0000
1000
0100
1000
0000
0010
0000
0000
0000
0010
0000
0100
0001
0000
0001
,  // measure 52
0100
0000
0010
1000
0010
0000
0100
0002
1000
0000
0000
0010
0000
0000
1003
0000
,  // measure 53
0100
0000
0010
0001
0010
0000
1000
0000
0000
0000
0010
0000
0001
0100
0010
1000
,  // measure 54
0001
0000
1000
0100
1000
0000
0001
0020
0100
0000
0000
0001
0000
0000
0130
0000
,  // measure 55
1000
0000
0001
0100
0001
0000
1000
0000
0000
0000
1000
0000
0010
0100
0000
0100
,  // measure 56
0010
0000
1000
0100
0010
0000
0001
0020
0100
0000
0000
1000
0000
0000
0130
0000
,  // measure 57
1000
0001
0100
0000
0110
0000
0110
0000
,  // measure 58
1000
0000
0001
0000
1000
0000
0001
0000
0010
0100
0010
0100
1000
0010
1000
0010
,  // measure 59
0200
0020
0000
0330
0000
0000
0000
0000
;
