#TITLE:A Girl I Know;
#SUBTITLE:;
#ARTIST:Sabrepulse;
#TITLETRANSLIT:;
#SUBTITLETRANSLIT:;
#ARTISTTRANSLIT:;
#GENRE:;
#CREDIT:;
#MUSIC:A Girl I Know - Sabrepulse.mp3;
#BANNER:;
#BACKGROUND:;
#CDTITLE:;
#SAMPLESTART:76.932;
#SAMPLELENGTH:11.339;
#SELECTABLE:YES;
#OFFSET:-0.043;
#BPMS:0.000=169.322
,136.000=164.322
,137.000=157.322
,138.000=151.322
,139.000=143.322
,140.000=138.000
,188.000=141.000
,190.000=143.000
,191.000=145.000
,192.000=146.000
,193.000=148.000
,194.000=151.000
,195.000=152.000
,196.000=155.000
,197.000=158.000
,203.000=195.000
,204.000=169.322
,254.000=168.322
,255.000=169.323
,299.000=168.123
,300.000=169.322
,331.000=167.322
,332.000=169.321
;
#STOPS:;
#BGCHANGES:;
#FGCHANGES:;

//--------------- dance-single - ----------------
#NOTES:
     dance-single:
     Shortysnmn2010:
     Beginner:
     1:
     0.109216,0.166242,0.007964,0.023891,0,96,95,1,3,0,0,0.109216,0.166242,0.007964,0.023891,0,96,95,1,3,0,0:
0000
0000
0000
0000
,
0000
0000
0000
0000
,
0000
0000
0000
0000
,
0000
0000
0000
0000
,
1000
0000
0000
0000
,
0001
0000
0000
0000
,
1000
0000
0000
0000
,
0001
0000
0000
0000
,
0010
0000
0000
0000
,
0100
0000
0000
0000
,
0010
0000
0000
0000
,
0100
0000
0000
0000
,
1000
0000
0100
0000
,
1000
0000
0100
0000
,
1000
0000
0000
0000
,
0001
0000
0000
0000
,
2002
0000
0000
0000
,
0000
3003
0000
0000
,
0010
0000
0000
0000
,
1000
0000
0000
0000
,
0100
0000
0000
0000
,
0010
0000
0000
0000
,
0100
0000
0000
0000
,
0010
0000
0000
0000
,
0001
0000
0000
0000
,
0100
0000
0000
0000
,
0010
0000
0000
0000
,
0100
0000
0000
0000
,
0001
0000
0000
0000
,
0010
0000
0000
0000
,
1000
0000
0000
0000
,
0010
0000
0000
0000
,
0100
0000
0000
0000
,
1000
0000
0000
0000
,
0001
0000
1000
0000
,
0001
0000
0000
0000
,
0010
0000
0010
0000
,
0001
0000
0000
0000
,
0100
0000
0100
0000
,
1000
0000
0000
0000
,
1000
0000
1000
0000
,
0010
0000
0000
0000
,
0001
0000
0000
0000
,
0010
0000
0100
0000
,
0010
0000
0000
0000
,
0001
0000
1000
0000
,
0001
0000
0000
0000
,
1000
0000
0000
0000
,
0100
0000
0000
0000
,
0010
0000
0000
0000
,
0001
0000
0000
0000
,
0100
0000
0000
0000
,
0010
0000
0000
0000
,
1000
0000
0000
0000
,
0001
0000
0000
0000
,
0100
0000
0000
0000
,
0010
0000
0000
0000
,
1000
0000
0000
0000
,
0100
0000
0000
0000
,
0001
0000
0000
0000
,
0100
0000
0000
0000
,
1000
0000
0000
0000
,
0010
0000
0000
0000
,
0001
0000
0000
0000
,
0010
0000
0000
0000
,
1000
0000
0000
0000
,
0100
0000
0000
0000
,
0001
0000
0100
0000
,
0001
0000
0100
0000
,
1000
0000
0000
0000
,
0010
0000
0000
0000
,
0100
0000
0001
0000
,
0100
0000
0001
0000
,
0010
0000
0000
0000
,
0100
0000
0000
0000
,
1000
0000
0001
0000
,
1000
0000
0001
0000
,
0010
0000
0000
0000
,
0001
0000
0000
0000
,
0100
0000
0010
0000
,
0100
0000
0010
0000
,
1000
0000
0000
0000
,
0001
0000
0000
0000
,
0020
0000
0030
0000
;

//--------------- dance-single - ----------------
#NOTES:
     dance-single:
     Shortysnmn2010:
     Easy:
     3:
     0.201367,0.299235,0,0.007964,0,177,177,0,1,0,0,0.201367,0.299235,0,0.007964,0,177,177,0,1,0,0:
0000
0000
0000
0000
,
0000
0000
0000
0000
,
0000
0000
0000
0000
,
0000
0000
0000
0000
,
1000
0000
0000
0000
,
0010
0000
0000
0000
,
0100
0000
0000
0000
,
0010
0000
0000
0000
,
1000
0000
0000
0000
0000
0010
0000
0000
,
0100
0000
0000
0000
0000
0001
0000
0000
,
0010
0000
0000
0000
0000
0001
0000
0000
,
1000
0000
0000
0000
0000
0010
0000
0000
,
0100
0000
0001
0000
,
0010
0000
0100
0000
,
1000
0100
0010
0001
,
1000
0100
0010
0001
,
1000
0000
0001
0000
,
0010
0000
0001
0000
,
0100
0000
0010
0000
0000
0000
0000
1000
,
0000
0000
0100
0000
0000
0000
0000
0010
,
0000
0000
0100
0000
0000
0000
0000
1000
,
0000
0000
0010
0000
0000
0000
0000
0100
,
0000
0000
0001
0000
0000
0000
0000
0010
,
0000
0000
0001
0000
0000
0000
0000
1000
,
0000
0000
0010
0000
0000
0000
0000
0100
,
0000
0000
1000
0000
0000
0000
0000
0100
,
0000
0000
0001
0000
0000
0000
0000
0010
,
0000
0000
0001
0000
0000
0000
0000
1000
,
0000
0000
0100
0000
0000
0000
0000
0010
,
0000
0000
0100
0000
0000
0000
0000
0010
,
0000
0000
0001
0000
0000
0000
0000
0001
,
0000
0000
1000
0000
0000
0000
0000
0010
,
0000
0000
0100
0000
0001
0000
0000
0100
,
0000
0010
1000
0000
,
0001
0000
1000
0000
,
0001
0001
0001
0010
,
0100
0000
1000
0000
,
0010
0010
0010
1000
,
0100
0000
1000
0000
,
0001
0001
0001
0100
,
1000
0000
0100
0000
,
0010
0010
0010
1000
,
0100
0000
0010
0000
,
0001
0000
0000
0000
,
1000
1000
1000
0000
,
0010
0000
0000
0000
,
0100
0100
0100
0000
,
0001
0000
0010
0000
,
0100
0000
1000
0000
,
0001
0000
0010
0000
,
0100
0000
1000
0000
,
0000
0001
0000
0010
,
0000
0001
0000
0100
,
0000
0001
0000
1000
,
0000
0010
0000
1000
,
0000
0100
0000
1000
,
0000
0010
0000
0100
,
0000
0001
0000
1000
,
0000
0001
0000
0100
,
0000
0010
0000
1000
,
0000
0100
0000
0100
,
0000
0010
0000
0001
,
0000
0100
0000
0100
,
0000
0010
0000
1000
,
0000
0100
0000
0100
,
0000
1000
0000
1000
,
0000
0010
0000
0100
,
0001
0000
0010
0001
,
0100
0000
0001
0000
,
0010
0000
0100
1000
,
0010
0000
1000
0000
,
0001
0000
0010
0001
,
0100
0000
0001
0000
,
1000
0000
0100
1000
,
0010
0000
0100
0000
,
0010
0000
1000
0000
,
0001
0100
0001
0000
,
0010
0000
0100
0000
,
1000
0100
1000
0000
,
0010
0000
1000
0000
,
0001
0100
0001
0000
,
1000
0000
0010
0000
,
0100
0001
0100
0000
,
0020
0000
0030
0000
;

//--------------- dance-single - ----------------
#NOTES:
     dance-single:
     Shortysnmn2010:
     Medium:
     6:
     0.373156,0.46269,0.230947,0.286693,0,328,299,29,36,0,0,0.373156,0.46269,0.230947,0.286693,0,328,299,29,36,0,0:
0000
0000
0000
0000
,
0000
0000
0000
0000
,
0000
0000
0000
0000
,
0000
0000
0000
0000
,
1000
0100
0000
0000
0000
1000
0010
0000
,
1000
0100
0000
0000
0000
0001
0010
0000
,
0001
0100
0000
0000
0000
0010
0100
0000
,
0100
0010
0000
0000
0000
1000
0001
0000
,
0001
0000
1001
0000
0000
0010
0001
0000
,
0001
0000
1001
0000
0000
0001
0100
0000
,
0100
0000
0110
0000
0000
0010
1000
0000
,
1000
0000
1100
0000
0000
0001
0010
0000
,
0002
0003
0200
0300
,
2000
3000
0020
0030
,
0001
0010
1000
0010
,
0001
1000
0001
1000
0001
1000
0001
0000
,
2000
3000
0020
0030
,
0002
0003
0200
0300
,
1000
0000
0001
0000
0000
0100
0000
0001
,
0010
0000
0001
0000
0000
0010
0000
1000
,
0010
0000
0100
0000
0000
1000
0000
0100
,
1000
0000
0010
0000
0000
0100
0000
1000
,
0100
0000
0010
0000
0000
1000
0000
0100
,
1000
0000
0001
0000
0000
0010
0000
0001
,
0010
0000
1000
0000
0000
0010
0000
0001
,
0010
0000
0001
0000
0000
1000
0000
0010
,
1000
0000
0001
0000
0000
1000
0000
0001
,
1000
0000
0100
0000
0000
0010
0000
0100
,
0010
0000
0001
0000
0000
1000
0000
0001
,
0010
0000
0001
0000
0000
0100
0000
0001
,
0100
0000
1000
0000
0000
0100
0000
0001
,
0100
0000
0001
0000
0000
0010
0000
0001
,
0010
0001
0100
1000
,
0100
0001
0010
1000
,
0010
0010
0010
0010
,
1100
0101
0011
1010
,
0100
0100
0100
0100
,
0011
1010
1100
0101
,
0010
0010
0010
0010
,
1100
0101
0011
1010
,
0001
0001
0001
0001
,
1010
0011
0101
1100
,
0010
0010
0010
0010
,
1000
0000
0100
0000
1000
0002
0000
0003
,
0010
0000
0100
0000
1000
0002
0000
0003
,
0100
0000
0010
0000
1000
0020
0000
0030
,
0100
0000
0001
0000
0100
2000
0000
3000
,
0100
0000
0001
0000
0010
0002
0000
0003
,
1000
0000
0100
0000
1000
0200
0000
0300
,
0001
0100
1000
0100
0001
0100
1000
0000
,
0020
0000
0030
0000
,
1000
0100
0010
0001
,
0000
1001
0000
0000
1000
0000
0010
0000
,
0000
1010
0000
0000
0100
0000
0001
0000
,
0000
0011
0000
0000
0100
0000
1000
0000
,
0000
0011
0000
0000
1000
0000
0100
0000
,
0000
1001
0000
0000
0010
0000
0001
0000
,
0000
0110
0000
0000
1000
0000
0100
0000
,
0000
1001
0000
0000
0010
0000
0002
0000
,
1003
0100
1000
0000
0010
0000
0100
0000
,
0001
0010
0001
0000
,
0001
0010
0001
0000
0100
0000
0010
0000
,
0100
0001
0010
0000
,
0100
0010
0100
0000
1000
0000
0010
0000
,
0100
0010
0100
0000
,
0010
1000
0010
0000
1000
0000
0100
0000
,
0010
0100
1000
0000
,
0002
0100
1000
0103
,
0002
0010
2000
3003
,
2000
0010
0001
3010
,
2000
0100
0002
3003
,
0002
0100
0010
1003
,
0002
0010
0200
0303
,
2000
0010
0001
3100
,
2000
0010
0200
3300
,
0020
0001
1000
0100
,
0001
0100
0002
0033
,
0200
0001
1000
0010
,
1000
0010
2000
3300
,
0002
0010
1000
0010
,
0100
1000
0020
0033
,
0001
0001
1100
0010
,
2002
0000
3003
0000
1000
0001
1000
0001
,
1000
0000
0000
0000
;

//--------------- dance-single - ----------------
#NOTES:
     dance-single:
     Shortysnmn2010:
     Hard:
     8:
     0.506263,0.662977,0.350402,0.493749,0.091582,445,401,44,62,0,0,0.506263,0.662977,0.350402,0.493749,0.091582,445,401,44,62,0,0:
0000
0000
0000
0000
,
0000
0000
0000
0000
,
0000
0000
0000
0000
,
0000
0000
0000
0000
,
1000
0001
0000
0000
0000
0010
0001
0000
,
0100
0001
0000
0000
0000
0010
0100
0000
,
0100
0010
0000
0000
0000
0100
1000
0000
,
1000
0010
0000
0000
0000
1000
0001
0000
,
0010
0000
0001
0000
0200
0000
0000
0300
0000
0000
0010
0000
1000
0000
0000
0000
,
0010
0000
1000
0000
0200
0000
0000
0300
0000
0000
0010
0000
0001
0000
0000
0000
,
0010
0000
0001
0000
0200
0000
0000
0300
0000
0000
0001
0000
1000
0000
0000
0000
,
0001
0000
1000
0000
0200
0000
0000
0300
0000
0000
0010
0000
0001
0000
0000
0000
,
2200
3300
2002
3003
,
0202
0303
2002
3003
,
0002
0203
2300
3200
,
0301
0000
1000
0001
1000
0000
0001
1000
0001
0000
0010
0000
0001
0000
0000
0000
,
1000
0000
0000
1000
0100
0000
0000
0000
0100
0000
0000
0100
0010
0000
0000
0000
,
0010
0000
0000
0010
0001
0000
0000
0000
0001
0000
0000
0001
1000
0000
0000
0000
,
0001
0000
0000
0000
0020
0000
0000
0030
0000
0000
0001
0000
0100
0000
0000
0000
,
0001
0000
0000
0000
0021
0000
0000
0030
0000
0000
0001
0000
0100
0000
0000
0000
,
0001
0000
0000
0000
2100
0000
0000
3000
0000
0000
0010
0000
1000
0000
0000
0000
,
0100
0000
0000
0000
2100
0000
0000
3000
0000
0000
0010
0000
0100
0000
0000
0000
,
0001
0000
0000
0000
0021
0000
0000
0030
0000
0000
0100
0000
1000
0000
0000
0000
,
0001
0000
0000
0000
0021
0000
0000
0030
0000
0000
0100
0000
0010
0000
0000
0000
,
0001
0000
0000
0000
0201
0000
0000
0300
0000
0000
0010
0000
1000
0000
0000
0000
,
0001
0000
0000
0000
0201
0000
0000
0300
0000
0000
0010
0000
0100
0000
0000
0000
,
0001
0000
1001
0000
0000
0010
1000
0000
,
0100
0000
1001
0000
0000
0010
0001
0000
,
1000
0000
0110
0000
0000
1000
0001
0000
,
1000
0000
0110
0000
0000
0001
0010
0000
,
0100
0000
1100
0000
0000
0010
0001
0000
,
0100
0000
1100
0000
0000
0100
0001
0000
,
0020
0000
0001
0000
0100
0000
0031
1000
,
0100
0000
1000
0000
0001
0000
1000
0100
1000
0000
0100
1000
0100
0000
1000
0100
,
1000
1010
1001
1100
,
1000
0001
0000
0101
0000
1001
0000
0001
,
0200
0320
0200
0330
,
0001
1000
0000
1100
0000
1010
0000
1000
,
0002
0203
0002
0303
,
1000
0001
0000
0011
0000
0101
0000
0001
,
2000
3200
2000
3300
,
0001
0000
0010
0000
0000
0000
1010
0000
0000
0000
0011
0000
0000
0000
0010
0100
,
0010
0000
0001
0000
0000
0000
0100
0000
0000
0000
1001
0000
0000
0000
0001
0100
,
0001
0000
1000
0000
0100
0000
1000
0000
0001
0000
0010
0000
0000
0000
0000
0001
,
0010
0000
0100
0000
0010
0000
0100
1000
0000
0000
0100
0000
0000
0000
0000
0000
,
1000
0000
0010
0000
1000
0000
0001
0000
0100
0000
0100
0000
0000
0000
0000
0001
,
0010
0000
0001
0000
1000
0000
0001
0010
0000
0000
0001
0000
0000
0000
1000
0000
,
0010
0000
0001
0000
0010
0000
1000
0000
0001
0000
0100
0000
0000
0000
0000
0001
,
0010
0000
0010
0000
1000
0000
0010
0001
0000
0000
1000
0000
0000
0000
0000
0000
,
0001
0100
0001
1000
0100
1000
0001
1000
,
0020
0000
0200
0030
0002
0300
0020
0003
2000
0030
0002
3000
0200
0003
0000
0300
,
1000
0000
0101
0000
0010
1000
0100
0000
,
0001
0000
1100
0000
0010
0001
0100
0000
,
0001
0000
1010
0000
0100
0001
0010
0000
,
0001
0000
1100
0000
0010
0001
0100
0000
,
0010
0000
0101
0000
0010
1000
0100
0000
,
0010
0000
1100
0000
0010
0001
1000
0000
,
0010
0000
0101
0000
0010
1000
0001
0000
,
0010
0000
1100
0000
0010
0001
2000
0000
,
3001
0010
0001
1000
0100
0010
0100
0000
,
0000
1000
0100
0010
0001
1000
0001
0000
,
0000
0100
0010
1000
0001
0100
1000
0000
,
0000
0100
0001
1000
0010
0100
0001
0000
,
0000
1000
0100
0001
0100
0010
0001
0000
,
0000
1000
0010
0001
0010
1000
0001
0000
,
0000
0100
0001
0010
0100
1000
0010
0000
,
0000
0000
1000
0000
0100
0000
0010
0000
0001
0000
0100
0000
0010
0100
0010
0100
,
0002
0100
1000
0203
,
1000
0001
2300
0001
,
3200
0001
1000
0302
,
0010
0000
0100
0000
0013
0110
1100
0000
,
2000
0010
0001
3020
,
0001
1000
0032
1000
,
0023
1000
0001
2030
,
0100
0000
0001
0000
3100
0110
0011
0000
,
0002
0100
1000
0023
,
1000
0100
0032
0100
,
1000
0023
1000
0100
,
0032
0000
0100
0000
1003
1010
0110
0000
,
2000
0010
0001
3200
,
0001
0010
2300
0010
,
3001
0000
1000
0001
1000
0000
0001
1000
0001
0000
0000
0000
0010
0000
0010
0000
,
0000
0000
0100
0000
0100
0000
1000
0001
1000
0000
0001
1000
0001
0000
0000
0000
,
2002
3003
0000
0000
;
