#TITLE:Turn Me On;
#SUBTITLE:ft. Nicki Minaj;
#ARTIST:David Guetta;
#TITLETRANSLIT:;
#SUBTITLETRANSLIT:;
#ARTISTTRANSLIT:;
#GENRE:;
#CREDIT:;
#MUSIC:Turn Me On.mp3;
#BANNER:;
#BACKGROUND:;
#CDTITLE:;
#SAMPLESTART:53.471;
#SAMPLELENGTH:15.000;
#SELECTABLE:YES;
#OFFSET:-0.034;
#BPMS:0.000=128.000
,66.000=64.000
,70.000=62.600
,71.000=64.001
,73.500=66.001
,74.000=128.000
,203.000=64.000
,208.000=61.800
,208.500=64.001
,210.500=65.001
,211.000=128.000
;
#STOPS:138.000=1.401;
#DISPLAYBPM:64.000:128.000;
#BGCHANGES:;
#FGCHANGES:;

//--------------- dance-single - ----------------
#NOTES:
     dance-single:
     Shortysnmn2010:
     Beginner:
     1:
     0.097717,0.122786,0,0.071584,0,86,86,0,9,0,0,0.097717,0.122786,0,0.071584,0,86,86,0,9,0,0:
0000
0000
0000
0000
,
0000
0000
0000
0000
,
0000
0000
0000
0000
,
0000
0000
0000
0000
,
0000
0000
1000
0000
,
0000
0000
0100
0000
,
0000
0000
0010
0000
,
0000
0000
0001
0000
,
0000
0000
1000
0000
,
0100
0000
0001
0000
,
0000
0000
1000
0000
,
0010
0000
0001
0000
,
0000
0000
1000
0000
,
0010
0000
0001
0000
,
0000
0000
1000
0000
,
0100
0000
0001
0000
,
0000
0000
2000
3000
,
0002
0003
2000
3000
,
0002
0003
1000
0000
,
0000
0000
0000
0001
0000
0000
0000
0000
,
0100
0000
0100
0000
,
0000
0000
0000
0010
0000
0000
0000
0000
,
1000
0000
1000
0000
,
0000
0000
0000
0100
0000
0000
0000
0000
,
0010
0000
0001
0000
,
0001
0000
0010
0000
,
0010
0000
0001
0000
,
0000
0000
1000
0000
,
0000
0000
0010
0000
,
0000
0000
0100
0000
,
0000
0000
0001
0000
,
1000
0000
0001
0000
,
0000
0000
0010
0000
,
0100
0000
0010
0000
,
0100
0000
0010
0001
,
0000
1000
0000
0001
,
0000
0000
0000
1000
,
0000
0100
0000
0010
,
0000
0000
0000
0001
,
0000
0100
0000
1000
,
0000
0000
0000
0001
,
0000
0010
0000
1000
,
0000
0000
0000
0100
,
0000
0100
0000
0000
0000
0000
1000
0000
,
0000
0000
0000
0001
,
0000
0001
0000
0000
0000
0000
0010
0000
,
0000
0000
0000
0100
,
0000
0100
0000
0000
0000
0000
0010
0000
,
0000
0000
0000
0001
,
0000
1000
0000
0001
,
0000
0000
0000
0200
,
0300
0020
0030
0200
,
0300
0020
0030
1000
,
0000
0000
0000
0100
,
0000
0000
0000
0010
,
0000
0000
0000
0001
,
0000
0100
0000
0010
,
0000
0000
0000
1000
,
0000
0001
0000
1000
,
0000
1000
0000
0001
,
0000
0001
0000
2000
,
0000
0000
0000
3000
;

//--------------- dance-single - ----------------
#NOTES:
     dance-single:
     Shortysnmn2010:
     Easy:
     4:
     0.21816,0.270129,0.095445,0.174982,0,192,180,12,22,0,0,0.21816,0.270129,0.095445,0.174982,0,192,180,12,22,0,0:
0000
0000
0000
0000
,
0000
0000
0000
0000
,
0000
0000
0000
0000
,
0000
0000
0000
0000
,
0000
0000
0010
0100
,
0010
0000
0100
0000
0010
0000
0001
0010
,
0000
0000
0001
0100
,
0001
0100
0010
0100
,
0010
0000
1000
0000
0100
0000
0000
0100
,
0000
1000
0000
0001
0000
0001
0000
0000
,
0010
0000
0100
0000
1000
0000
0000
0001
,
0000
0100
0000
0010
0000
0010
0000
0000
,
1000
0000
0001
0000
0010
0000
0000
0001
,
0000
0100
0000
0001
0000
0001
0000
0000
,
1000
0100
0010
0000
,
0001
0000
1000
0000
,
0010
0000
0220
0000
,
0330
0000
2002
0000
,
3003
0000
0010
0100
0010
0000
0000
0010
,
0000
0000
0000
1000
0000
0000
0100
0000
,
0010
0000
0001
0000
1000
0000
0000
1000
,
0000
0000
0000
0001
0000
0000
0010
0000
,
0001
0000
0100
0000
0001
0000
0000
0001
,
0000
0000
0000
0010
0000
0000
0100
0000
,
1000
0100
0010
0010
,
0001
0100
0010
0010
,
1000
0100
1000
0001
,
0000
0010
0000
0010
0000
0000
0001
0000
,
0100
0010
1000
0001
,
0000
0010
0000
0010
0000
0000
0001
0000
,
0100
0010
1000
0100
,
0000
0010
0000
0010
0000
0000
0100
0000
,
1000
0001
0100
0100
,
0010
1000
0100
0100
,
0010
0001
1001
0001
,
0100
0010
1000
2002
,
0000
3003
0000
0001
,
0010
0100
1000
2020
,
0000
3030
0000
1000
,
0100
0001
0100
2200
,
0000
3300
0000
0010
,
0001
0100
0010
0220
,
0000
0330
0000
0001
,
0000
0001
0000
1000
0000
0100
0000
0100
,
0000
1000
0010
1000
,
0000
0100
0000
0010
0000
0001
0000
0001
,
0000
0100
0010
0100
,
0000
1000
0000
0100
0000
0001
0000
0001
,
0000
1000
0001
1000
,
0000
0100
0000
0010
,
0000
0001
1000
2002
,
3003
0220
0330
2002
,
3003
0220
0330
1000
,
0001
0000
0000
0100
0000
0100
0000
0000
,
0010
1000
1000
0100
,
0010
0000
0000
0001
0000
0100
0000
0000
,
0010
1000
0001
0100
,
0001
0000
0000
0010
0000
0010
0000
0000
,
0001
1000
1000
0010
,
1000
0001
0001
1000
,
0100
1000
1000
2002
,
0000
0000
0000
3003
;

//--------------- dance-single - ----------------
#NOTES:
     dance-single:
     Shortysnmn2010:
     Medium:
     5:
     0.285198,0.341017,0.167029,0.087491,0,251,230,21,11,0,0,0.285198,0.341017,0.167029,0.087491,0,251,230,21,11,0,0:
0000
0000
0000
0000
,
0000
0000
0000
0000
,
0000
0000
0000
0000
,
0000
0000
0000
0000
,
0000
0000
1000
0100
,
0010
0000
1000
0000
0010
0000
0001
0100
,
0000
0000
0000
0010
1000
0000
0001
0000
,
0010
0001
1000
0100
,
0010
0000
0001
0000
0100
0000
0000
0101
,
0000
0010
0000
1000
0000
1100
0000
0000
,
1000
0000
0001
0000
0100
0000
0000
1010
,
0000
0100
0000
0001
0000
0011
0000
0000
,
0100
0000
1000
0000
0001
0000
0000
0110
,
0000
1000
0000
0001
0000
0110
0000
0001
,
1000
0001
0000
0010
0000
0001
0010
0000
,
0000
0100
0000
0100
,
0000
0100
2000
3000
,
0002
0003
2000
3000
,
0100
0010
0100
0010
0001
0000
0000
1001
,
0000
0000
0000
1000
0000
0010
1000
0000
,
0100
0000
0100
0000
0010
0000
0000
0110
,
0000
0000
0000
0001
0000
0100
0001
0000
,
0010
0000
0100
0000
1000
0000
0000
1100
,
0000
0000
0000
1000
0000
0010
0100
0000
,
0001
0000
0011
0000
0001
1000
0001
0000
,
1000
0001
1000
0000
0001
1000
0001
0000
,
1000
0001
1000
0000
0110
0000
0001
0100
,
0000
0001
0000
0001
0000
1000
0100
0000
,
0010
0000
0001
0000
1000
0000
0010
1000
,
0000
0100
0000
0100
0000
0010
0100
0000
,
1000
0000
0100
0000
0001
0000
0100
0010
,
0000
0001
0000
0001
0000
0100
0010
0000
,
1000
0000
0001
0000
0100
0010
0100
0000
,
0010
0100
0010
0000
0100
0010
0100
0000
,
0010
0000
0100
0000
0010
0000
0000
0000
0002
0003
0000
0000
1000
0000
0000
0000
,
0001
0000
0010
0100
0020
0000
0030
0000
,
1100
0000
0011
0100
,
1000
0000
0001
0100
0002
0000
0003
0000
,
1010
0000
1100
0010
,
0001
0000
0100
0010
0200
0000
0300
0000
,
1010
0000
0101
0010
,
0100
0000
1000
0100
0002
0000
0000
0000
,
0000
1000
1003
0010
,
0000
1000
0000
0100
0010
0001
0000
1000
,
0000
0001
0100
0010
,
0000
0100
0000
0010
0100
0001
0000
0010
,
0000
0100
0010
0100
,
0000
1000
0000
0100
0001
0100
0000
1000
,
0000
0001
1000
0001
0000
0100
0000
0010
,
2000
0000
0100
0000
,
0010
0000
3100
1001
,
0000
0110
0000
1001
,
0000
0000
0010
0100
0010
0100
0001
0000
,
1000
0100
0000
0010
0000
0010
0000
0001
,
0010
0100
1000
0001
,
0100
0001
0000
1000
0000
1000
0000
0010
,
1000
0010
0001
0010
,
1000
0001
0000
0010
0000
0010
0000
0001
,
0100
0000
1000
0000
0100
0000
0001
0100
,
0001
0000
0100
0001
0100
0000
0001
0100
,
0001
0000
0100
0001
0100
0000
2020
0000
,
0000
3030
0000
0000
;

//--------------- dance-single - ----------------
#NOTES:
     dance-single:
     Shortysnmn2010:
     Hard:
     8:
     0.403368,0.460919,0.135214,0.151121,0.055676,355,338,17,19,0,0,0.403368,0.460919,0.135214,0.151121,0.055676,355,338,17,19,0,0:
0000
0000
0000
0000
,
0000
0000
0000
0000
,
0000
0000
0000
0000
,
0000
0000
0000
0000
,
0000
0000
0000
0001
1000
0100
0010
0001
,
1000
0010
0100
0001
1000
0100
0010
0002
,
0000
0000
0003
1000
0010
0001
1000
0100
,
0001
1000
0010
1000
0001
1000
0010
0001
,
1000
0100
0001
1000
0001
0000
0000
0011
,
0000
0100
1000
0010
0000
1001
0000
0000
,
0010
0100
1000
0001
0010
0000
0000
0011
,
0000
1000
0100
0010
0000
1100
0000
0000
,
1000
0001
0100
0010
1000
0000
0000
1010
,
0000
0100
0001
0010
0000
1001
0000
0001
,
0010
0000
0001
0000
0000
0000
1000
0000
0000
0000
0100
0000
0010
0000
0001
0020
,
0000
0000
0100
0031
,
1000
0010
0100
0001
2000
0000
3000
0000
,
0002
0000
0003
0000
0020
0000
0130
1000
,
0001
0010
0100
1000
0001
0000
1000
0100
,
0000
1000
0010
1000
0000
0001
0100
1000
,
0100
0001
1000
0000
0001
0000
1000
0100
,
0000
0010
0100
0010
0000
0100
1000
0010
,
1000
0100
0001
0000
0100
0000
0010
0001
,
0000
0100
0010
1000
0000
0001
0010
0001
,
0010
0100
1000
0000
0010
0100
0001
0000
,
0010
0100
1000
0000
0001
0010
0100
1000
,
0001
0100
0010
1000
0001
0100
0010
1000
0001
0000
0000
0000
0010
0000
0100
0000
,
0000
1000
0100
1000
0000
0001
0100
0010
,
1000
0001
1000
0000
0110
0000
0001
0010
,
0000
0100
0010
0001
0000
1000
0010
0100
,
0001
0010
0001
0000
1100
0000
0010
0001
,
0000
1000
0010
0001
0000
0010
0100
0010
,
1000
0100
0010
0000
0001
0010
0100
0000
,
1000
0010
0100
0000
0001
0100
0010
1000
,
0001
0000
0000
0000
0010
0000
0000
0000
0002
0000
0000
0000
0000
0000
0000
0000
2000
3003
0000
0000
0000
0000
0000
0000
0001
0000
0000
0000
0000
0000
0000
0000
,
0100
0000
0001
0100
0000
0000
0000
0000
0010
0000
1000
0000
0100
0000
0000
0000
,
1000
0000
0010
0100
0001
0010
0001
0000
,
1000
0000
0100
1000
0000
0000
0000
0000
0010
0000
0100
0000
0001
0000
0000
0000
,
0010
0000
0100
1000
0001
0010
0001
0000
,
0100
0000
0010
0100
0000
0000
0000
0000
0001
0000
0010
0000
0001
0000
0000
0000
,
0011
0000
1000
0010
1000
0100
0010
0000
,
0100
0000
1000
0100
0000
0000
0000
0000
1000
0000
0010
0000
1000
0000
0000
0000
,
1010
0000
0100
0001
0010
0001
0100
0000
,
0000
1001
0000
0010
1000
0100
0000
1001
,
0000
0000
0010
0100
1000
0001
0010
0000
,
0000
1100
0000
0010
0001
0100
0000
1010
,
0000
0000
0001
0010
1000
0010
0001
0000
,
0000
1010
0000
0100
0001
1000
0000
0110
,
0000
0001
0010
0001
0000
1000
0000
0100
,
1000
0000
0010
2000
0000
0000
0000
0000
0000
0000
0000
0000
0100
0000
0000
0000
,
3001
0000
0000
0000
0010
1000
0010
1000
0001
0010
0001
0010
0200
0000
0000
0000
,
0300
2000
3000
0020
,
0130
0001
0010
0100
1000
0010
0100
0001
,
1000
0001
0100
0010
0010
0010
0000
1000
,
0100
0010
0002
0000
1003
0000
0010
0100
,
0001
0010
0001
1000
1000
1000
0000
0010
,
1000
0001
0200
0000
0310
0000
1000
0001
,
0010
0100
0010
0001
0001
0001
0000
0100
,
0010
1000
0001
0020
0001
0030
0100
2000
,
0100
3000
0010
2000
0010
3000
0001
0200
,
0001
0301
1000
0010
0100
0000
2002
0000
,
3003
0000
0000
0000
;
