#TITLE:Time For Tea;
#SUBTITLE:;
#ARTIST:11 Acorn Lane;
#TITLETRANSLIT:;
#SUBTITLETRANSLIT:;
#ARTISTTRANSLIT:;
#GENRE:;
#CREDIT:;
#BANNER:;
#BACKGROUND:;
#LYRICSPATH:;
#CDTITLE:;
#MUSIC:11 Acorn Lane - Time for Tea.mp3;
#OFFSET:-0.190000;
#SAMPLESTART:49.383999;
#SAMPLELENGTH:15.058000;
#SELECTABLE:YES;
#DISPLAYBPM:63.499996:127.000000;
#BPMS:0.000000=126.999992
,35.000000=128.000000
,36.000000=127.000992
,192.000000=63.499996
,196.000000=126.999992
,200.000000=125.999992
,201.000000=127.000992
,228.000000=63.499996
,230.000000=126.999992
;
#STOPS:
;
#BGCHANGES:;
#KEYSOUNDS:;
#ATTACKS:;

//---------------dance-single - Shortysnmn2010----------------
#NOTES:
     dance-single:
     Shortysnmn2010:
     Beginner:
     1:
     0.095642,0.127676,0.008583,0.034333,0.000000,78.000000,77.000000,1.000000,4.000000,0.000000,0.000000,0.095642,0.127676,0.008583,0.034333,0.000000,78.000000,77.000000,1.000000,4.000000,0.000000,0.000000:
0000
0000
0000
0000
,
0000
0000
0000
0000
,
1000
0000
0000
0000
,
0001
0000
0000
0000
,
0010
0000
0000
0000
,
0001
0000
0000
0000
,
1000
0000
0000
0000
,
0100
0000
0000
0000
,
0010
0000
0000
0000
,
0100
0000
0000
0000
,
1000
0000
0001
0000
,
1000
0000
0000
0000
,
0001
0000
1000
0000
,
0001
0000
0000
0000
,
1000
0000
0010
0000
,
1000
0000
0000
0000
,
0010
0000
1000
0000
,
0010
0000
0000
0000
,
0100
0000
0000
0000
,
0001
0000
0000
0000
,
0010
0000
0000
0000
,
0100
0000
0100
0000
,
0100
0000
0000
0000
,
1000
0000
0000
0000
,
0010
0000
0000
0000
,
0001
0000
0001
0000
,
0001
0000
0000
0000
,
0010
0000
0000
0000
,
1000
0000
0000
0000
,
0100
0000
0100
0000
,
0100
0000
0000
0000
,
0010
0000
0000
0000
,
0001
0000
0000
0000
,
1000
0000
1000
0000
,
1000
2000
0000
0000
,
3000
0000
1000
0000
,
0001
0002
0000
0000
,
0003
0000
0001
0000
,
0010
0020
0000
0000
,
0030
0000
0010
0000
,
0100
0200
0000
0000
,
0300
0000
0100
0000
,
1000
0000
0000
0000
,
0001
0000
0000
0000
,
0010
0000
0000
0000
,
0001
0000
1000
0000
,
0001
0000
0000
0000
,
0100
0000
0000
0000
,
1000
0000
0100
0000
,
0001
0000
1000
0000
,
1000
0000
0000
0000
,
1000
0000
0001
0000
,
0001
0000
0000
0000
,
1000
0000
0001
0000
,
1000
0000
0000
0000
,
0001
0000
0001
0000
,
1000
0000
0000
0000
,
0010
0000
0100
0000
,
0000
0000
0010
0000
,
0000
0000
1001
0000
;

//---------------dance-single - Shortysnmn2010----------------
#NOTES:
     dance-single:
     Shortysnmn2010:
     Easy:
     3:
     0.152046,0.178746,0.008583,0.085832,0.000000,124.000000,123.000000,1.000000,10.000000,0.000000,0.000000,0.152046,0.178746,0.008583,0.085832,0.000000,124.000000,123.000000,1.000000,10.000000,0.000000,0.000000:
0000
0000
0000
0000
,
0000
0000
0000
0000
,
1000
0001
0000
0001
,
1000
0000
0010
0000
,
0100
0010
0000
0010
,
0100
0000
0010
0000
,
0100
0001
0000
0001
,
0100
0000
0010
0000
,
1000
0001
0000
0001
,
1000
1000
1000
0000
,
0001
0000
0010
0000
,
0100
0000
1000
0000
,
0001
0000
0010
0000
,
0001
0000
0000
0000
,
1000
0000
0010
0000
,
0100
0000
1000
0000
,
0100
0000
0001
0000
,
1000
0001
1000
1000
,
0001
0000
0001
0000
,
0010
0100
0010
0000
,
0100
0000
0100
0000
,
0100
0000
0000
0000
,
1000
0000
0010
0000
,
0100
0010
0100
0000
,
0010
0000
0010
0000
,
0010
0000
0000
0000
,
1000
0000
1000
0000
,
0001
1000
0001
0000
,
0010
0000
0010
0000
,
0010
0000
0000
0000
,
0001
0000
0001
0000
,
1000
0001
1000
0000
,
0100
0000
0100
0000
,
0100
0000
0000
0000
,
1000
2000
0000
3000
,
0010
0000
0100
0000
,
0001
0002
0000
0003
,
0010
0000
0100
0000
,
0010
0020
0000
0030
,
0001
0000
1000
0000
,
0001
0002
0000
0003
,
0100
0000
0010
0000
,
0200
0300
0200
0300
,
0001
0000
1000
0000
,
0020
0030
0020
0030
,
1000
0000
0001
0000
,
2000
3000
2000
3000
,
0001
0000
0010
0000
,
0001
0000
1000
0000
,
0010
0000
0010
0000
,
1000
0100
1000
0000
,
0010
0000
0100
0000
,
0010
0000
0000
0000
,
0100
0000
0100
0000
,
0001
0010
0001
0000
,
0100
0000
0100
0000
,
0010
0000
0000
0000
,
1000
0001
1000
0000
,
0001
0000
0010
0000
,
0001
0000
1001
0000
;

//---------------dance-single - Shortysnmn2010----------------
#NOTES:
     dance-single:
     Shortysnmn2010:
     Medium:
     5:
     0.259950,0.306422,0.017166,0.231748,0.000000,212.000000,210.000000,2.000000,27.000000,0.000000,0.000000,0.259950,0.306422,0.017166,0.231748,0.000000,212.000000,210.000000,2.000000,27.000000,0.000000,0.000000:
0000
0000
0000
0000
,
0000
0000
0000
0000
,
1000
0000
0001
0100
0000
0000
0001
0000
,
1000
0100
0010
0100
,
1000
0000
0010
0100
0000
0000
0001
0000
,
0100
0010
1000
0100
,
1000
0000
0001
0010
0000
0000
0001
0000
,
0100
1000
0100
0001
,
1000
0000
0001
0200
0000
0000
0310
0000
,
1000
0001
1000
0000
,
0001
0000
0100
0000
0010
0000
0000
1000
,
0100
0010
0001
1000
,
0001
0000
0100
0000
0010
0000
0000
0100
,
0010
1000
0002
2003
,
3001
0000
0100
0000
0010
0000
0000
0100
,
0001
0100
1000
0100
,
0010
0000
1000
0000
0100
0000
0000
0001
,
0100
0000
1000
0000
,
0002
0003
2000
3000
,
0100
0010
0100
0000
0010
0000
0001
0000
,
0100
0100
0200
0300
,
0001
0000
0001
0000
0010
0001
0100
0000
,
0002
0003
0020
0030
,
0100
1000
0010
0000
1000
0000
0001
0000
,
1000
1000
2000
3000
,
0010
0000
0010
0000
1000
0001
0100
0000
,
0020
0030
0200
0300
,
0010
1000
0100
0000
1000
0000
0010
0000
,
0100
0100
0200
0300
,
0010
0000
0010
0000
1000
0001
0010
0000
,
0200
0300
2000
3000
,
0001
0010
0100
0000
1000
0000
0010
0000
,
1000
1000
2000
3000
,
0001
0000
0010
0000
0001
0100
0001
0000
,
1000
0000
0100
2000
0000
0000
0010
0000
,
0001
0000
3010
0000
,
0001
0000
0100
0002
0000
0000
0010
0000
,
1000
0000
0103
0000
,
0010
0000
1000
0200
0000
0000
0010
0000
,
0001
0000
1300
0000
,
0001
0000
1000
0020
0000
0000
0001
0000
,
0100
0000
1030
0000
,
0001
0000
1000
0100
0000
1000
0100
0000
,
0010
0000
0001
0000
,
0100
0000
0010
0100
0000
0010
0100
0000
,
0001
0000
1000
0000
,
0001
0000
0100
0001
0000
0100
0001
0000
,
1000
0000
0100
0000
,
0010
0001
1000
0010
,
2000
3000
0200
0300
,
0010
0001
1000
0000
0001
0000
0100
0000
,
1000
1000
2000
3000
,
0100
0000
0100
0000
0001
0010
0100
0000
,
0020
0030
0002
0003
,
1000
0100
0001
0000
0100
0000
0010
0000
,
0001
0001
0002
0003
,
1000
0000
1000
0000
0100
0010
0001
0000
,
0200
0300
0020
0030
1010
0000
1100
0000
,
1000
0000
0000
0001
0000
0000
0001
0000
,
0100
0000
0000
0010
1000
0000
0000
0000
;

//---------------dance-single - Shortysnmn2010----------------
#NOTES:
     dance-single:
     Shortysnmn2010:
     Hard:
     7:
     0.391151,0.410279,0.145915,0.145915,0.171665,319.000000,302.000000,17.000000,17.000000,0.000000,0.000000,0.391151,0.410279,0.145915,0.145915,0.171665,319.000000,302.000000,17.000000,17.000000,0.000000,0.000000:
// measure 0
0000
0000
0000
0000
,  // measure 1
0000
0000
0000
0000
,  // measure 2
0001
1000
0100
1000
0000
0001
1000
0000
,  // measure 3
0010
1001
0100
0101
,  // measure 4
0001
1000
0010
1000
0000
0001
0010
0000
,  // measure 5
0100
1001
0010
1100
,  // measure 6
0001
1000
0001
0010
0000
0100
0010
0000
,  // measure 7
0001
0110
1000
1100
,  // measure 8
0001
0010
0001
0010
0000
0001
0100
0000
,  // measure 9
0001
1000
0010
0200
0000
0000
0300
0000
,  // measure 10
0001
0000
0000
0000
0010
0000
0000
0000
0001
0000
0000
0100
0000
0000
0010
0000
,  // measure 11
0000
0000
1000
0000
0001
0000
0010
0000
0100
0000
0000
1000
0000
0000
0100
0000
,  // measure 12
0010
0000
0000
0000
0001
0000
0000
0000
0100
0000
0000
0001
0000
0000
1000
0000
,  // measure 13
0000
0000
0010
0000
1000
0000
0001
0000
0100
0000
0000
0001
0000
0000
1000
0000
,  // measure 14
0100
0000
0000
0000
0010
0000
0000
0000
0100
0000
0000
1000
0000
0000
1000
0000
,  // measure 15
0000
0000
0001
0000
0010
0000
0001
0000
0100
0000
0000
0100
0000
0000
0001
0000
,  // measure 16
0010
0000
0000
0000
0001
0000
0000
0000
0100
0000
0000
0001
0000
0000
0001
0000
,  // measure 17
0000
0000
1000
0000
0100
0000
0010
0000
0002
0000
0000
1000
0003
0000
0100
0000
,  // measure 18
1000
0000
0000
1000
0000
0000
0000
0000
0001
0000
0000
0001
0000
0000
0000
0000
,  // measure 19
0010
0000
0000
0010
0000
0000
0001
0000
1000
0000
0001
0010
0000
0000
0000
0000
,  // measure 20
0100
0000
0002
0000
0000
0000
1003
0000
0010
0000
0000
0010
0000
0000
0000
0000
,  // measure 21
1000
0000
0200
0000
0000
0000
0310
0000
0001
0000
0000
0001
0000
0000
0000
0000
,  // measure 22
1000
0000
0000
1000
0000
0000
0000
0000
0010
0000
0000
0010
0000
0000
0000
0000
,  // measure 23
0100
0000
0000
0100
0000
0000
0001
0000
1000
0000
0001
0000
1000
0000
0000
0000
,  // measure 24
0100
0000
0020
0000
0000
0000
0031
0000
1000
0000
0000
0001
0000
0000
0000
0000
,  // measure 25
0100
0020
0000
1030
0001
0000
1001
0000
,  // measure 26
1000
0000
0000
0100
0000
0000
0000
0000
0010
0000
0000
0001
0000
0000
0000
0000
,  // measure 27
0100
0000
0000
0010
0000
0000
1000
0000
0100
0000
1000
0010
0000
0000
0000
0000
,  // measure 28
0001
0000
0000
0000
0010
0000
0000
0000
0100
0000
0000
0100
0000
0000
0100
0000
,  // measure 29
0000
0010
0001
0100
0010
0000
0101
0000
,  // measure 30
1000
0000
0000
0001
0000
0000
0000
0000
0001
0000
0000
1000
0000
0000
0000
0000
,  // measure 31
0010
0000
0000
0100
0000
0000
0001
0000
0100
0000
0001
0000
0100
0000
0000
0000
,  // measure 32
0001
0000
0000
0000
0010
0000
0000
0000
0100
0000
0000
1000
0000
0000
0010
0000
,  // measure 33
0000
0000
1000
0000
0001
0000
1000
0000
0100
0000
0000
0011
0000
0000
1000
0000
,  // measure 34
0001
0100
0001
0200
0000
0010
0010
0000
,  // measure 35
0010
0001
0001
1300
,  // measure 36
0010
1000
0010
2000
0000
0100
0100
0000
,  // measure 37
0100
0010
0010
3001
,  // measure 38
1000
0100
0010
0002
0000
0100
0100
0000
,  // measure 39
0100
1000
1000
0013
,  // measure 40
0100
1000
0010
0200
0000
0010
0010
0000
,  // measure 41
0010
0001
0001
0310
,  // measure 42
1000
1100
0001
0011
,  // measure 43
0001
0100
1000
0000
1000
0100
0001
0000
,  // measure 44
0010
1100
0010
0101
,  // measure 45
1000
0010
0001
0000
0001
0010
1000
0000
,  // measure 46
0001
0110
1000
0110
,  // measure 47
0001
0010
0100
0000
1000
0010
0001
0000
,  // measure 48
2000
0000
3100
0000
0200
0000
0310
0000
0001
1000
0001
0000
2000
0000
3200
0000
,  // measure 49
0301
0000
0000
0001
0000
0000
0000
0000
0010
0000
0000
0010
0000
0000
0000
0000
,  // measure 50
0100
0000
0000
1000
0000
0000
0100
0000
0010
0000
0100
0010
0000
0000
0000
0000
,  // measure 51
0001
0000
0000
0000
1000
0000
0000
0000
0100
0000
0000
0010
0000
0000
0001
0000
,  // measure 52
0000
1000
0100
0010
0001
0000
1001
0000
,  // measure 53
1000
0000
0000
1000
0000
0000
0000
0000
0001
0000
0000
0001
0000
0000
0000
0000
,  // measure 54
0010
0000
0000
0010
0000
0000
0100
0000
1000
0000
0010
0000
0100
0000
0000
0000
,  // measure 55
0001
0100
0010
0100
0000
0010
0100
0010
,  // measure 56
0000
0100
0010
0100
0001
0000
1000
0000
,  // measure 57
0200
0000
0300
0000
0010
0001
0100
0000
0001
0000
0000
0000
1100
0000
0000
0000
,  // measure 58
0010
0000
0000
0001
0000
0000
0100
0000
0000
0000
0010
0000
1000
0000
0001
0000
,  // measure 59
0100
0000
0000
0010
0000
0000
2000
0000
0002
0000
0000
0000
3003
0000
0000
0000
;

//---------------dance-single - Shortysnmn2010----------------
#NOTES:
     dance-single:
     Shortysnmn2010:
     Challenge:
     9:
     0.540745,0.587309,0.163082,0.154498,0.411996,441.000000,422.000000,19.000000,18.000000,0.000000,0.000000,0.540745,0.587309,0.163082,0.154498,0.411996,441.000000,422.000000,19.000000,18.000000,0.000000,0.000000:
0000
0000
0000
0000
,
0000
0000
0000
0000
,
1000
0010
1000
0002
0000
0103
0010
0100
,
0001
0000
0000
0000
0000
0000
0010
0000
0000
0000
0000
0000
0010
0000
0000
0000
0000
0000
0000
0000
0000
0000
0000
0000
0100
0000
0000
0000
1000
0000
0001
0000
0000
0010
0000
0000
0000
0000
0000
0000
0000
0000
0000
0000
0000
0000
0000
0000
,
0001
0100
0001
2000
0000
3010
0100
0010
,
1000
0000
0000
0000
0000
0000
0100
0000
0000
0000
0000
0000
0100
0000
0000
0000
0000
0000
0000
0000
0000
0000
0000
0000
0010
0000
0000
0000
0001
0000
0010
0000
0000
0001
0000
0000
0000
0000
0000
0000
0000
0000
0000
0000
0000
0000
0000
0000
,
1000
0010
1000
0200
0000
0310
0001
0010
,
0100
0000
0000
0000
0000
0000
0010
0000
0000
0000
0000
0000
0010
0000
0000
0000
0000
0000
0000
0000
0000
0000
0000
0000
0100
0000
0000
0000
1000
0000
0001
0000
0000
0010
0000
0000
0000
0000
0000
0000
0000
0000
0000
0000
0000
0000
0000
0000
,
0001
0100
0010
0200
0000
0310
1000
0010
,
0100
0000
0100
0000
0001
0000
0001
0000
0010
0000
0100
1000
0000
0000
0000
0000
,
0001
0000
0000
0000
0010
0000
0001
0000
0000
0000
0000
0000
1000
0000
0000
0000
0000
0000
0100
0000
0000
0000
0000
0000
0010
0000
0000
0000
0100
0000
1000
0000
0000
0100
0000
0000
0000
0000
0000
0000
0000
0000
0010
0000
0000
0000
0000
0000
,
0000
0000
0000
0000
0000
0000
0001
0000
0000
0000
0000
0000
0010
0000
0000
0000
0000
0000
0001
0000
0000
0000
0000
0000
1000
0000
0100
0000
0000
0000
0000
0000
0000
0010
0000
0000
0000
0000
0000
0000
0000
0000
0001
0000
0000
0000
0000
0000
,
0010
0000
0000
0000
0100
0000
0010
0000
0000
0000
0000
0000
0001
0000
0000
0000
0000
0000
0100
0000
0000
0000
0000
0000
0010
0000
0000
0000
0100
0000
0010
0000
0000
1000
0000
0000
0000
0000
0000
0000
0000
0000
0010
0000
0000
0000
0000
0000
,
0000
0000
0001
0000
0010
0000
1000
0000
0001
0000
0000
1000
0000
0000
0001
0000
,
0100
0000
0000
0000
0010
0000
0100
0000
0000
0000
0000
0000
0001
0000
0000
0000
0000
0000
0010
0000
0000
0000
0000
0000
0100
0000
0000
0000
0010
0000
0100
0000
0000
1000
0000
0000
0000
0000
0000
0000
0000
0000
0100
0000
0000
0000
0000
0000
,
0000
0000
0000
0000
0000
0000
1000
0000
0000
0000
0000
0000
0001
0000
0000
0000
0000
0000
0010
0000
0000
0000
0000
0000
0001
0000
0010
0000
0000
0000
0000
0000
0000
0100
0000
0000
0000
0000
0000
0000
0000
0000
1000
0000
0000
0000
0000
0000
,
0100
0000
0000
0000
0001
0000
0100
0000
0000
0000
0000
0000
1000
0000
0000
0000
0000
0000
0001
0000
0000
0000
0000
0000
0010
0000
0000
0000
0000
0000
0001
0000
0000
1000
0000
0000
0000
0000
0000
0000
0000
0000
0200
0000
0000
0000
0000
0000
,
0000
0310
0001
1000
0020
0000
0030
0000
,
0110
0000
1000
0001
0000
0000
0000
0000
0110
0000
0001
1000
0000
0000
0000
0000
,
0001
0010
0000
0100
0000
0000
1000
0000
0100
0000
0100
1000
0000
0000
0000
0000
,
0001
0000
0000
0000
0100
0000
0010
0000
0000
0000
0000
0000
0100
0000
0000
0000
0000
0000
0001
0000
0000
0000
0000
0000
0010
0000
0000
0000
0000
0000
0000
0000
0000
0100
0000
0000
0000
0000
0000
0000
0000
0000
0100
0000
0000
0000
0000
0000
,
1000
0000
0000
0000
0100
0000
0010
0000
0000
0000
0000
0000
0100
0000
0000
0000
0000
0000
1000
0000
0000
0000
0000
0000
0010
0000
0000
0000
0000
0000
0000
0000
0000
0100
0000
0000
0000
0000
0000
0000
0000
0000
0010
0000
0000
0000
0000
0000
,
1000
0000
0001
0010
0000
0000
0001
0000
1000
0000
0010
1000
0000
0000
0000
0000
,
0100
0000
0010
0200
0000
0000
0001
0000
0010
0000
0010
0000
1300
0000
0001
0000
,
0010
0000
0000
0000
0100
0000
1000
0000
0000
0000
0000
0000
0100
0000
0000
0000
0000
0000
0010
0000
0000
0000
0000
0000
0100
0000
0000
0000
0000
0000
0000
0000
0000
1000
0000
0000
0000
0000
0000
0000
0000
0000
0010
0000
0000
0000
0000
0000
,
0100
0000
0000
0000
0010
0000
1000
0000
0000
0000
0000
0000
0010
0000
0000
0000
0000
0000
0100
0000
0000
0000
0000
0000
0002
0000
0000
0000
0000
0000
0000
0000
0000
0003
0000
0000
2000
0000
0000
0000
0000
0000
0000
0000
0000
3000
0000
0000
,
0110
0000
0001
1000
0000
0000
0000
0000
0110
0000
1000
0001
0000
0000
0000
0000
,
1000
0010
0000
0100
0000
0000
0001
0000
0100
0000
0100
1000
0000
0000
0000
0000
,
0100
0000
0000
0000
0001
0000
1000
0000
0000
0000
0000
0000
0001
0000
0000
0000
0000
0000
0100
0000
0000
0000
0000
0000
1000
0000
0000
0000
0000
0000
0000
0000
0000
0100
0000
0000
0000
0000
0000
0000
0000
0000
0001
0000
0000
0000
0000
0000
,
1000
0000
0000
0000
0001
0000
0010
0000
0000
0000
0000
0000
1000
0000
0000
0000
0000
0000
0010
0000
0000
0000
0000
0000
0001
0000
0000
0000
0000
0000
0000
0000
0000
1000
0000
0000
0000
0000
0000
0000
0000
0000
0010
0000
0000
0000
0000
0000
,
0100
0000
0001
0100
0000
0000
0001
0000
1000
0000
0100
1000
0000
0000
0000
0000
,
0001
0000
1000
0020
0000
0000
0001
0000
0100
0000
0100
0000
1030
0000
0001
0000
,
1000
0000
0000
0000
0001
0000
0100
0000
0000
0000
0000
0000
0001
0000
0000
0000
0000
0000
0010
0000
0000
0000
0000
0000
0001
0000
0000
0000
0000
0000
0000
0000
0000
0100
0000
0000
0000
0000
0000
0000
0000
0000
0010
0000
0000
0000
0000
0000
,
0000
0000
0110
0000
0000
0000
1000
0000
0001
0000
0000
1001
0000
0000
0000
0000
,
1000
0010
0100
0020
0000
1000
1030
0001
,
0010
0000
0000
0000
0000
0000
0100
0000
0000
0000
0000
0000
1100
0000
0000
0000
0000
0000
0000
0000
0000
0000
0000
0000
0010
0000
0000
0000
0001
0000
0010
0000
0000
0001
0000
0000
0000
0000
0000
0000
0000
0000
0000
0000
0000
0000
0000
0000
,
0100
0001
1000
0002
0000
0010
0013
0100
,
1000
0000
0000
0000
0000
0000
0010
0000
0000
0000
0000
0000
1010
0000
0000
0000
0000
0000
0000
0000
0000
0000
0000
0000
1000
0000
0000
0000
0001
0000
1000
0000
0000
0001
0000
0000
0000
0000
0000
0000
0000
0000
0000
0000
0000
0000
0000
0000
,
0100
0010
1000
0020
0000
0001
0031
1000
,
0100
0000
0000
0000
0000
0000
0001
0000
0000
0000
0000
0000
1001
0000
0000
0000
0000
0000
0000
0000
0000
0000
0000
0000
1000
0000
0000
0000
0100
0000
0010
0000
0000
0001
0000
0000
0000
0000
0000
0000
0000
0000
0000
0000
0000
0000
0000
0000
,
1000
0010
1000
0200
0000
0001
0301
1000
,
0010
0000
0000
0000
0000
0000
0001
0000
0000
0000
0000
0000
1001
0000
0000
0000
0000
0000
0000
0000
0000
0000
0000
0000
0001
0000
0000
0000
0100
0000
0010
0000
0000
1000
0000
0000
0000
0000
0000
0000
0000
0000
0000
0000
0000
0000
0000
0000
,
0001
0100
0001
0000
1000
0000
0000
0000
0100
0010
0100
0000
1000
0000
0000
0000
,
0001
0000
0000
0010
0000
0000
0001
0000
0000
0000
0000
0000
0100
0000
0000
0010
0000
1000
0000
0000
0000
0001
0000
0000
,
0010
0000
0100
1000
0000
0000
0010
0000
0100
0000
0001
0100
0000
0000
0001
0000
,
0010
0000
0000
0000
0000
0000
0010
0000
0000
0000
0000
0000
0100
0000
0000
0000
0000
0000
0100
0000
0000
0000
0000
0000
1000
0000
0000
0000
0001
0000
1000
0000
0000
0001
0000
0000
0000
0000
0000
0000
0000
0000
0000
0000
0000
0000
0000
0000
,
0100
0010
1000
0000
0010
0000
0000
0000
0100
0010
1000
0000
0010
0000
0000
0000
,
1000
0000
0000
0000
0000
0000
0100
0000
0000
0000
0000
0000
0010
0000
0000
0000
0000
0000
0000
0000
0000
0000
0000
0000
0001
0000
0000
0000
0010
0000
0001
0000
0000
0010
0000
0000
0000
0000
0000
0000
0000
0000
0000
0000
0000
0000
0000
0000
,
0100
0000
0000
0000
0000
0000
1000
0000
0000
0100
0000
0000
0000
0000
0000
0000
0000
0000
0000
0000
0000
0000
0000
0000
0010
0000
0000
0000
0000
0000
0001
0000
0000
0000
0000
0000
0100
0000
0000
0000
0000
0000
0000
0000
0000
0000
0000
0000
0010
0000
0000
0000
0000
0000
1000
0000
0000
0000
0000
0000
0010
0000
0000
0000
0000
0000
0000
0000
0000
0000
0000
0000
0100
0000
0000
0000
0001
0000
1000
0000
0000
0001
0000
0000
0000
0000
0000
0000
0000
0000
0000
0000
0000
0000
0000
0000
,
1001
0000
0010
0100
0000
0000
0000
0000
1001
0000
0100
0010
0000
0000
0000
0000
,
1000
0100
0000
0010
0000
0000
1000
0000
0010
0000
0001
0100
0000
0000
0001
0000
,
1000
0000
0000
0000
0010
0000
0100
0000
0000
0000
0000
0000
0001
0000
0000
0000
0000
0000
0010
0000
0000
0000
0000
0000
0001
0000
0000
0000
0000
0000
0000
0000
0000
0100
0000
0000
0000
0000
0000
0000
0000
0000
0110
0000
0000
0000
0000
0000
,
0000
0100
0001
0010
0200
0000
1300
0000
,
0100
0000
1000
0010
0000
0000
0100
0000
0010
0000
0001
0010
0000
0000
0000
0000
,
0100
0000
0001
0200
0000
0000
1000
0000
0010
0000
0010
0000
0301
0000
1000
0000
,
0010
0100
0001
0010
0000
0100
1000
0010
,
0000
0000
0100
0000
0001
0000
0010
0000
1001
0000
0000
1001
0000
0000
0000
0000
,
0010
0000
0001
1000
0000
0000
0000
0000
0100
0000
0100
0000
1001
0000
0000
0000
2100
0000
0000
0000
0000
0000
0000
0000
3002
0000
0000
0000
0000
0000
0000
0000
,
0010
0000
0000
0010
0000
0000
1003
0000
0000
0000
0001
0000
0100
0000
0001
0000
,
1000
0000
0010
0000
0000
0000
0000
0000
0000
0100
0000
0000
0000
0000
0000
0000
0000
0000
0110
0000
0000
0000
0000
0000
1001
0000
0000
0000
0000
0000
0000
0000
0000
0000
0000
0000
0000
0000
0000
0000
0000
0000
0000
0000
0000
0000
0000
0000
;
