#TITLE:The House of Tasteful Men;
#SUBTITLE:;
#ARTIST:The Vincent Black Shadow;
#TITLETRANSLIT:;
#SUBTITLETRANSLIT:;
#ARTISTTRANSLIT:;
#GENRE:;
#CREDIT:;
#MUSIC:The House of Tasteful Men.mp3;
#BANNER:;
#BACKGROUND:;
#CDTITLE:;
#SAMPLESTART:85.905;
#SAMPLELENGTH:9.361;
#SELECTABLE:YES;
#OFFSET:-0.119;
#BPMS:0.000=204.230;
#STOPS:;
#BGCHANGES:;
#FGCHANGES:;

//--------------- dance-single - ----------------
#NOTES:
     dance-single:
     Shortysnmn2010:
     Beginner:
     1:
     0.108804,0.20964,0.046159,0.061546,0,99,93,6,8,0,0,0.108804,0.20964,0.046159,0.061546,0,99,93,6,8,0,0:
0000
0000
0000
0000
,
0000
0000
0000
0000
,
0000
0000
0000
0000
,
0000
0000
0000
0000
,
0000
0000
0000
0000
,
1000
0000
0000
0000
,
0000
0000
0000
0000
,
0001
0000
0000
0000
,
0000
0000
0000
0000
,
0010
0000
0000
0000
,
0010
0000
0000
0000
,
0010
0000
0000
0000
,
0000
0000
0000
0000
,
0100
0000
0000
0000
,
0100
0000
0000
0000
,
0100
0000
0000
0000
,
0000
0000
0000
0000
,
1000
0000
0000
0000
,
0001
0000
0000
0000
,
0010
0000
0000
0000
,
0001
0000
0000
0000
,
1000
0000
0000
0000
,
0100
0000
0000
0000
,
0010
0000
0010
0000
,
0010
0000
0000
0000
,
0001
0000
0000
0000
,
0100
0000
0000
0000
,
0010
0000
0000
0000
,
1000
0000
0000
0000
,
0001
0000
0000
0000
,
1000
0000
0000
0000
,
0100
0000
0100
0000
,
0100
0000
0100
0000
,
0100
0000
0000
0000
,
1000
0000
0000
0000
,
0010
0000
0000
0000
,
0100
0000
0000
0000
,
0010
0000
0000
0000
,
0100
0000
0000
0000
,
0010
0000
0010
0000
,
0010
0000
0010
0000
,
0010
0000
0000
0000
,
0000
0000
0000
0000
,
1000
0000
0000
0000
,
0000
0000
0000
0000
,
0001
0000
0000
0000
,
0000
0000
0000
0000
,
0010
0000
0000
0000
,
0000
0000
0000
0000
,
0110
0000
0000
0000
,
0000
0000
0000
0000
,
1001
0000
0000
0000
,
0000
0000
0000
0000
,
0110
0000
0000
0000
,
0000
0000
0000
0000
,
1001
0000
0000
0000
,
0000
0000
0000
0000
,
2000
0000
0000
0000
,
3000
0000
0000
0000
,
0200
0000
0000
0000
,
0300
0000
0000
0000
,
0020
0000
0000
0000
,
0030
0000
0000
0000
,
0002
0000
0000
0000
,
0003
0000
0000
0000
,
0100
0000
0000
0000
,
0001
0000
0000
0000
,
0100
0000
0000
0000
,
0010
0000
0000
0000
,
0100
0000
0000
0000
,
0010
0000
0000
0000
,
1000
0000
0000
0000
,
0010
0000
0000
0000
,
1000
0000
0000
0000
,
0100
0000
0000
0000
,
0010
0000
0000
0000
,
0001
0000
0000
0000
,
1000
0000
0000
0000
,
0001
0000
0000
0000
,
0100
0000
0100
0000
,
0100
0000
0100
0000
,
0100
0000
0000
0000
,
0010
0000
0000
0000
,
1000
0000
0000
0000
,
0010
0000
0000
0000
,
0100
0000
0000
0000
,
0001
0000
0000
0000
,
2000
0000
3000
0000
,
0002
0000
0003
0000
,
2000
0000
3000
0000
,
0002
0000
0003
0000
,
0110
0000
0000
0000
,
0000
0000
0000
0000
,
1001
0000
0000
0000
,
0000
0000
0000
0000
,
0010
0000
0000
0000
,
0100
0000
0000
0000
,
0010
0000
0000
0000
,
0000
0000
0000
0000
,
1000
0000
0000
0000
,
0001
0000
0000
0000
,
1000
0000
0000
0000
,
0000
0000
0000
0000
,
0100
0000
0000
0000
,
0010
0000
0000
0000
,
0100
0000
0000
0000
,
0100
0000
0000
0000
,
0100
0000
0000
0000
,
1000
0000
1000
0000
,
1000
0000
0000
0000
;

//--------------- dance-single - ----------------
#NOTES:
     dance-single:
     Shortysnmn2010:
     Easy:
     3:
     0.18134,0.377351,0.061546,0.115398,0,165,157,8,15,0,0,0.18134,0.377351,0.061546,0.115398,0,165,157,8,15,0,0:
0000
0000
0000
0000
,
0000
0000
0000
0000
,
0000
0000
0000
0000
,
0000
0000
0000
0000
,
0000
0000
0000
0000
,
1000
0000
0000
0000
,
0001
0000
0000
0000
,
0200
0000
0000
0000
,
0300
0000
0000
0000
,
0020
0000
0000
0000
,
0030
0000
1000
0000
,
1000
0000
0000
0000
,
0000
0000
0001
0000
,
0001
0000
0000
0000
,
0010
0000
0000
0000
,
0200
0000
0000
0000
,
0300
0000
0000
0000
,
1000
0000
0001
0000
,
0010
0000
0001
0000
,
1000
0000
0001
0000
,
1000
0000
0100
0000
,
1000
0000
0001
0000
,
1000
0000
0001
0000
,
0100
0000
0010
0000
,
0100
0000
0000
0000
,
0110
0000
0000
0000
,
1000
0000
0000
0000
,
0001
0000
0000
0000
,
0010
0000
0000
0000
,
0110
0000
0000
0000
,
1000
0000
0000
0000
,
0010
0000
0100
0000
,
0010
0000
0100
0000
,
0110
0000
0000
0000
,
0001
0000
0000
0000
,
1000
0000
0000
0000
,
0100
0000
0000
0000
,
1001
0000
0000
0000
,
0010
0000
0000
0000
,
0001
0000
1000
0000
,
0010
0000
0100
0000
,
0001
0000
0001
0000
,
0001
0000
0000
0000
,
1000
0000
1000
0000
,
1000
0000
0000
0000
,
0010
0000
0010
0000
,
0010
0000
0000
0000
,
0100
0000
0100
0000
,
0100
0000
0000
0000
,
1000
0000
0010
0000
,
1000
0000
0010
0000
,
0100
0000
0001
0000
,
0100
0000
0001
0000
,
1000
0000
0100
0000
,
1000
0000
0100
0000
,
0020
0000
0000
0000
,
0030
0000
0000
0000
,
0001
0000
0100
0000
,
0001
0000
0100
0000
,
0010
0000
1000
0000
,
0010
0000
1000
0000
,
0001
0000
0010
0000
,
0001
0000
0010
0000
,
0200
0000
0000
0000
,
0300
0000
0000
0000
,
1000
0000
0100
0000
,
0010
0000
0001
0000
,
1000
0000
0001
0000
,
1000
0000
0001
0000
,
0100
0000
0010
0000
,
1000
0000
0001
0000
,
1000
0000
0001
0000
,
1000
0000
0000
0000
,
0110
0000
0000
0000
,
0001
0000
0000
0000
,
1000
0000
0000
0000
,
0100
0000
0000
0000
,
1001
0000
0000
0000
,
0010
0000
0000
0000
,
0001
0000
0100
0000
,
1000
0000
0100
0000
,
1001
0000
0000
0000
,
0010
0000
0000
0000
,
1000
0000
0000
0000
,
0001
0000
0000
0000
,
1100
0000
0000
0000
,
0010
0000
0000
0000
,
0002
0000
0003
0000
,
2000
0000
3000
0000
,
0200
0000
0300
0000
,
0020
0000
0030
0000
,
0001
0000
0010
0000
,
0001
0000
0010
0000
,
0001
0000
0001
0000
,
0010
0000
0010
0000
,
0001
0000
1000
0000
,
0001
0000
1000
0000
,
0001
0000
1000
0000
,
0001
0000
1000
0000
,
2000
0000
0000
3000
,
0002
0000
0000
0003
,
0020
0000
0000
0030
,
0200
0000
0000
0300
,
2000
0000
0000
3000
,
0002
0000
0000
0003
,
1000
0001
1000
0001
,
1000
0001
1000
0001
,
0100
0010
0100
0010
,
0100
0010
0100
0010
,
0100
0000
0000
0000
;

//--------------- dance-single - ----------------
#NOTES:
     dance-single:
     Shortysnmn2010:
     Medium:
     6:
     0.397848,0.503135,0.161557,0.330807,0.284648,362,341,21,43,0,0,0.397848,0.503135,0.161557,0.330807,0.284648,362,341,21,43,0,0:
0000
0000
0000
0000
,
0000
0000
0000
0000
,
0000
0000
0000
0000
,
0000
0000
0000
0000
,
0000
0000
0000
0000
,
1000
0000
0000
0000
0000
1000
0001
0000
0000
0000
0000
0001
,
1000
0000
0000
0000
0000
1000
0010
0000
0000
0000
0000
0010
,
1000
0100
0020
0030
,
0002
0003
2000
3000
,
0001
0000
0000
0000
0000
0100
0010
0000
0000
0000
0000
0100
,
0010
0000
0000
0000
0000
1000
0100
0000
0000
0000
0000
1000
,
0100
0000
0000
0000
0000
0010
0001
0000
0000
0000
0000
0010
,
0001
0000
0000
0000
0000
0100
0010
0000
0000
0000
0000
0010
,
0100
0000
0000
0000
0000
0001
0100
0000
0000
0000
0000
0001
,
0100
0000
0000
0000
0000
0010
1000
0000
0000
0000
0000
0010
,
1000
0100
2000
3000
,
0020
0030
0200
0300
,
0001
0010
1000
0010
,
0001
0100
1000
0100
,
0010
1000
0100
1000
,
0001
0010
0001
0100
,
0020
0030
2000
3000
,
0200
0300
0002
0003
,
0200
0300
2000
3000
,
2002
0000
3003
0000
,
0110
0001
1000
0100
,
0010
0000
0001
0000
0000
1000
0000
0000
0000
0000
0000
0000
,
1100
0010
0001
0100
,
0010
0000
0000
1000
0000
0001
0000
0000
1001
0000
0000
0110
,
0000
0001
1000
0100
,
0010
0000
0100
0000
0000
1000
0000
0000
0000
0010
0000
0000
,
0100
0001
0010
0100
,
0020
0030
0002
0003
,
1100
1000
0001
0100
,
0010
0000
1000
0000
0000
0100
0000
0000
0000
0000
0000
0000
,
0110
0001
1000
0001
,
0100
0000
0000
0010
0000
1000
0000
0000
1100
0000
0000
0011
,
0000
0001
0100
0010
,
0100
0000
0010
0000
0000
1000
0000
0000
0000
0001
0000
0000
,
1000
0100
0010
0001
,
2000
3000
0002
0003
,
2000
0000
0000
0000
,
0000
0000
0000
3000
0000
0010
0000
0000
0100
0000
0000
0002
,
0000
0000
0000
0000
,
0000
0000
0000
0003
0000
0100
0000
0000
0010
0000
0000
2000
,
0000
0000
3000
0100
,
0020
0000
0030
0001
,
2000
0000
0000
0000
,
0000
0000
3000
0000
,
1001
0000
0000
0000
0000
0001
0100
0000
0000
0000
0000
0100
,
0010
0000
0000
0000
0000
0010
1000
0000
0000
0000
0000
1000
,
0100
0000
0000
0000
0000
0100
0001
0000
0000
0000
0000
0001
,
0100
0000
0000
0000
0000
0100
0010
0000
0000
0000
0000
0010
,
0001
0000
0000
0000
0000
0001
1000
0000
0000
0000
0000
1000
,
0010
0000
0000
0000
0000
0010
0001
0000
0000
0000
0000
0001
,
0010
1000
0200
0300
,
2000
3000
0002
0003
,
0110
0000
0000
0000
0000
0100
1000
0000
0000
0000
0000
1000
,
0001
0000
0000
0000
0000
0001
1000
0000
0000
0000
0000
1000
,
0010
0000
0000
0000
0000
0010
0100
0000
0000
0000
0000
0100
,
1000
0000
0000
0000
0000
1000
0100
0000
0000
0000
0000
0100
,
0010
0000
0000
0000
0000
0010
1000
0000
0000
0000
0000
1000
,
0100
0000
0000
0000
0000
0100
0010
0000
0000
0000
0000
0010
,
0001
0100
0002
0003
,
2000
3000
0020
0030
,
0100
0001
0010
1000
,
0010
0100
0001
0100
,
0010
0001
0100
1000
,
0100
0010
1000
0001
,
0200
0300
2000
3000
,
0002
0003
0020
0030
,
2000
3000
0002
0003
,
0220
0000
0330
0000
,
1001
1000
0010
0001
,
0010
0000
0100
0000
0000
0001
0000
0000
0000
0000
0000
0000
,
1001
1000
0100
0001
,
0100
0000
0000
0010
0000
0001
0000
0000
0101
0000
0000
0101
,
0000
0010
1000
0100
,
0010
0000
0100
0000
0000
1000
0000
0000
0000
0010
0000
0000
,
1000
0100
0001
0100
,
2000
3000
0002
0003
,
1100
1000
0010
0001
,
0010
0000
1000
0000
0000
0001
0000
0000
0000
0000
0000
0000
,
0101
0001
0010
1000
,
0010
0000
0000
0001
0000
0100
0000
0000
0110
0000
0000
0110
,
0000
0010
1000
0001
,
0100
0000
0001
0000
0000
0010
0000
0000
0000
0100
0000
0000
,
2000
0000
3000
0000
,
0002
0000
0003
0000
,
0200
0000
0300
0000
,
0020
0000
0030
0000
,
1000
0100
1000
0100
,
0010
0001
0010
0001
,
0100
0010
0100
0010
,
1000
0001
1000
0000
,
0001
0100
0001
0100
,
0010
1000
0010
1000
,
0001
0010
0001
0010
,
0100
0010
0100
0000
,
1000
0100
1000
0100
,
0010
0001
0100
0001
,
0010
0100
0010
0100
,
1000
0001
1000
0000
,
0001
0100
0001
0100
,
0010
1000
0100
1000
,
0001
0010
0001
1000
,
0001
0100
0001
1000
,
0010
1000
0001
0100
,
0010
1000
0100
0010
,
0110
0000
0000
0000
;

//--------------- dance-single - ----------------
#NOTES:
     dance-single:
     Shortysnmn2010:
     Hard:
     9:
     0.657219,0.716044,0.630842,0.200023,0.669308,598,516,82,26,0,0,0.657219,0.716044,0.630842,0.200023,0.669308,598,516,82,26,0,0:
0000
0000
0000
0000
,
0000
0000
0000
0000
,
0000
0000
0000
0000
,
0000
0000
0000
0000
,
0000
0000
0000
0000
,
0010
0000
0000
0001
0000
1000
0010
0000
0000
1000
0000
0001
,
0100
0000
0000
0010
0000
1000
0100
0000
0000
0010
0000
0001
,
0100
0000
0000
1010
0000
0000
1000
0000
0001
0000
0000
0010
,
0100
0000
1000
0000
0000
0001
0100
0000
0001
0000
0000
1000
,
0100
0000
0000
0010
0000
0001
0100
0000
0000
0001
0000
0100
,
0010
0000
0000
1000
0000
0010
0100
0000
0000
0001
0000
0010
,
0001
0000
0000
1000
0000
0001
0100
0000
0000
0010
0000
1000
,
0001
0000
0000
0010
0000
0001
1000
0000
0000
0100
0000
1000
,
0001
0000
0000
0100
0000
0001
1000
0000
0000
0100
0000
0010
,
0001
0000
0000
0100
0000
0010
1000
0000
0000
0100
0000
0010
,
0001
0000
0000
1100
0000
0000
0010
0000
0001
0000
0000
0100
,
0010
0000
1000
0000
0000
0100
0010
0000
0001
0010
0000
0100
,
1000
0100
0001
0100
,
1000
0000
0000
0010
0000
1000
0001
0000
0000
0010
0000
0000
,
0011
1100
1001
0110
,
1001
0000
0000
0000
0000
0110
0000
0000
0000
0000
0000
0000
,
0001
0100
1000
0100
,
0001
0000
0000
0010
0000
0100
1000
0000
0000
0010
0000
0000
,
0110
0101
1010
1001
,
0110
0000
0000
0000
0000
1001
0000
0000
0000
0000
0000
0000
,
1000
0000
0000
0010
0000
0100
0001
0000
0001
0100
0000
0100
,
0010
0000
1000
0000
0000
2002
0000
0000
3003
0000
0000
0000
,
0010
0000
0000
0001
0000
1000
0100
0000
0100
0010
0000
0010
,
0001
0000
0000
1000
0000
0010
0000
0000
0110
0000
0000
0101
,
0000
0000
0000
0010
0000
0000
1000
0000
0100
0010
0000
0001
,
0010
0000
0100
0000
0000
1000
0000
0000
0000
0010
0000
0000
,
0200
0001
0320
0001
,
2030
0001
3200
0010
,
1300
0000
0000
1001
0000
1000
0001
0000
0001
0100
0000
0100
,
0010
0000
1000
0000
0000
2002
0000
0000
3003
0000
0000
0000
,
0011
0000
0000
0100
0000
1000
0100
0000
0010
0100
0000
1000
,
0001
0000
0000
1000
0000
0100
0000
0000
0110
0000
0000
0011
,
0000
0000
0000
0100
0000
0000
0001
0000
1000
0100
0000
1000
,
0001
0000
0100
0000
0000
0010
0000
0000
0000
1000
0000
0000
,
0002
0010
2003
0100
,
3020
0001
0230
1000
,
0301
0000
1000
0000
0000
0001
0010
0000
0001
0000
0000
1000
,
0100
0000
1000
0000
0000
0010
0100
0000
0010
0000
0000
1000
,
0001
0000
0010
0000
0000
0001
1000
0000
0100
0000
0000
0010
,
0001
0000
1000
0000
0000
0001
0100
0000
0001
0000
0000
1000
,
0010
0000
0100
0000
0000
0010
1000
0000
0100
0000
0000
0010
,
0100
0000
1000
0000
0000
0010
0100
0000
1000
0000
0000
0100
,
0001
0000
0000
1001
0000
0000
0011
0000
0011
0000
0000
0400
,
4000
0000
3300
0000
,
1000
0000
0000
0010
0000
0100
0001
0000
0000
0010
0000
0001
,
0100
0000
0000
0010
0000
1000
0100
0000
0000
0001
0000
0100
,
1000
0000
0000
0001
0000
0100
1000
0000
0000
0100
0000
0001
,
1000
0000
0000
0010
0000
1000
0001
0000
0000
0010
0000
1000
,
0010
0000
0000
0001
0000
1000
0100
0000
0000
0001
0000
0100
,
0010
0000
0000
0001
0000
0100
0010
0000
0000
1000
0000
0001
,
0100
0000
0000
1010
0000
0000
1000
0000
0001
0000
0000
0010
,
0100
0000
1000
0000
0000
0010
0100
0000
0001
0000
0000
1000
,
0100
0000
0000
0010
0000
0001
0010
0000
0000
1000
0000
0010
,
0001
0000
0000
1000
0000
0010
0001
0000
0000
0010
0000
1000
,
0001
0000
0000
0010
0000
1000
0010
0000
0000
0001
0000
1000
,
0100
0000
0000
0001
0000
0100
1000
0000
0000
0001
0000
0100
,
1000
0000
0000
0100
0000
0001
1000
0000
0000
0001
0000
0100
,
1000
0000
0000
0100
0000
0001
1000
0000
0000
0100
0000
0010
,
0001
0000
0000
1100
0000
0000
1000
0000
0001
0000
0000
0010
,
0100
0000
1000
0000
0000
0010
0100
0000
0001
0100
0000
0010
,
1000
0001
0100
1000
,
0100
0000
0000
0001
0000
1000
0100
0000
0000
0010
0000
0000
,
0011
1100
1010
0101
,
0110
0000
0000
0000
0000
1001
0000
0000
0000
0000
0000
0000
,
0010
0001
0100
0001
,
1000
0000
0000
0010
0000
1000
0100
0000
0000
1000
0000
0000
,
1010
0101
0011
1100
,
1001
0000
0000
0000
0000
0110
0000
0000
0000
0000
0000
0000
,
0001
0000
0000
0010
0000
0100
1000
0000
1000
0010
0000
0010
,
0100
0000
0001
0000
0000
2200
0000
0000
3300
0000
0000
0000
,
0010
0000
0000
0001
0000
1000
0010
0000
0010
0100
0000
0100
,
0001
0000
0000
0010
0000
0100
0000
0000
1100
0000
0000
0011
,
0000
0000
0000
0001
0000
0000
0100
0000
0010
1000
0000
0001
,
0010
0000
0100
0000
0000
1100
0000
0000
0000
0010
0000
0000
,
0002
0100
0023
1000
,
0230
0001
2300
0010
,
3001
0000
0000
0101
0000
0001
1000
0000
1000
0100
0000
0100
,
0001
0000
0100
0000
0000
0220
0000
0000
0330
0000
0000
0000
,
1001
0000
0000
0010
0000
1000
0001
0000
0001
1000
0000
1000
,
0001
0000
0000
1000
0000
0100
0000
0000
0110
0000
0000
0011
,
0000
0000
0000
0100
0000
0000
0010
0000
1000
0001
0000
0100
,
0010
0000
1000
0000
0000
0001
0000
0000
0000
0100
0000
0000
,
0010
0000
0000
1000
0000
0001
0000
0000
0001
1000
0000
0000
,
0100
0000
0000
0010
0000
0001
0000
0000
0001
0010
0000
0000
,
0100
0000
0000
1000
0000
0001
0000
0000
0001
1000
0000
0010
,
0100
0000
0004
4000
0000
0000
0000
0000
0000
3003
0000
0000
,
1010
1001
0100
0001
,
0011
1001
0100
1000
,
1010
0110
0001
0010
,
0110
0011
0001
1000
,
1010
0101
0010
1000
,
0011
1100
0010
0100
,
1001
0000
0000
0110
0000
0100
1000
0000
0000
0011
0000
0000
,
1100
0000
0000
0011
0000
0100
1000
0000
0000
1010
0000
0000
,
1000
0000
0000
1100
0000
1000
0001
0000
0000
0010
0000
0000
,
0001
0000
0000
0101
0000
0001
1000
0000
0000
0100
0000
0000
,
0010
0000
0000
0110
0000
0001
1000
0000
0000
1100
0000
0000
,
0010
0000
0000
0001
0000
1000
0010
0000
0000
0101
0000
0000
,
0010
0000
0000
1000
0000
0001
0100
0000
0000
1010
0000
0000
,
1000
0000
0000
0001
0000
0010
0100
0000
0000
1100
0000
0000
,
0012
0100
1000
0013
,
2100
0001
0010
3100
,
1002
0013
2100
3010
,
1001
0110
1001
1001
,
0220
0000
0330
0000
;
