#TITLE:Take Over Control;
#SUBTITLE:feat. Eva Simons;
#ARTIST:Afrojack;
#TITLETRANSLIT:;
#SUBTITLETRANSLIT:;
#ARTISTTRANSLIT:;
#GENRE:;
#CREDIT:;
#BANNER:;
#BACKGROUND:;
#LYRICSPATH:;
#CDTITLE:;
#MUSIC:Take Over Control.mp3;
#OFFSET:-0.416000;
#SAMPLESTART:56.723999;
#SAMPLELENGTH:14.749000;
#SELECTABLE:YES;
#BPMS:0.000000=130.000000
;
#STOPS:
;
#BGCHANGES:;
#KEYSOUNDS:;
#ATTACKS:;

//---------------dance-single - Shortysnmn2010----------------
#NOTES:
     dance-single:
     Shortysnmn2010:
     Beginner:
     1:
     0.103457,0.157892,0.058946,0.000000,0.000000,86.000000,79.000000,7.000000,0.000000,0.000000,0.000000,0.103457,0.157892,0.058946,0.000000,0.000000,86.000000,79.000000,7.000000,0.000000,0.000000,0.000000:
0000
0000
0000
0000
,
0000
0000
0000
0000
,
0000
0000
1000
0000
,
0000
0000
0010
0000
,
0000
0000
1000
0000
,
0000
0000
0001
0000
,
0000
0000
0100
0000
,
0000
0000
0100
0000
,
0000
0000
0010
0000
,
0000
0000
0010
0000
,
0000
0000
1000
0000
,
0000
0000
0001
0000
,
0000
0000
0010
0000
,
0000
0000
0001
0000
,
0000
0000
1000
0000
,
0001
0000
1000
0000
,
0000
0000
0001
0000
,
1000
0000
0001
0000
,
0000
0000
0010
0000
,
0100
0000
0010
0000
,
0000
0000
0100
0000
,
0010
0000
0100
0000
,
0000
0000
1000
0000
,
0000
0000
0001
0000
,
0000
0000
0100
0000
,
0000
0000
0010
0000
,
0000
0000
1000
0000
,
1000
0000
1000
0000
,
0000
0000
0001
0000
,
0001
0000
0001
0000
,
0000
0000
1001
0000
,
0000
0000
0010
0000
,
1000
0000
0001
0000
,
0000
0000
1001
0000
,
0000
0000
1000
0000
,
0100
0000
1000
0000
,
0000
0000
0110
0000
,
0000
0000
0001
0000
,
0100
0000
0001
0000
,
0000
0000
1000
0000
,
0000
0000
0010
0010
,
0010
0000
0010
0000
,
0000
0000
0100
0000
,
0000
0000
0001
0000
,
0000
0000
1000
1000
,
1000
0000
1000
0000
,
0000
0000
1001
0000
,
0000
0000
0010
0000
,
0001
0000
0100
0000
,
0000
0000
0110
0000
,
0000
0000
0100
0000
,
0001
0000
1000
0000
,
0000
0000
1001
0000
,
0000
0000
0001
0000
,
0010
0000
0001
0000
,
0000
0000
0100
0000
,
0000
0000
0010
0000
,
1000
0000
0100
0000
,
0000
0000
1000
0000
,
0000
0000
0001
0000
,
0010
0000
0001
0000
,
0000
0000
0100
0000
,
0000
0000
0110
0000
;

//---------------dance-single - Shortysnmn2010----------------
#NOTES:
     dance-single:
     Shortysnmn2010:
     Easy:
     2:
     0.122705,0.131577,0.033684,0.016842,0.000000,102.000000,98.000000,4.000000,2.000000,0.000000,0.000000,0.122705,0.131577,0.033684,0.016842,0.000000,102.000000,98.000000,4.000000,2.000000,0.000000,0.000000:
0000
0000
0000
0000
,
0000
0000
0000
0000
,
0000
0000
1000
0000
,
1000
0000
0001
0000
,
0000
0000
0001
0000
,
0001
0000
1000
0000
,
0000
0000
0010
0000
,
0010
0000
0010
0000
,
0000
0000
0100
0000
,
0100
0000
0100
0000
,
0000
0000
0001
0000
,
1000
0000
0001
0000
,
0000
0000
1000
0000
,
0001
0000
1000
0000
,
0000
0000
0100
0000
,
0100
0000
0100
0000
,
0000
0000
0010
0000
,
0010
0000
0010
0000
,
0000
0000
0001
0000
,
1000
0000
0001
0000
,
0000
0000
0010
0000
,
0100
0000
0010
0000
,
0000
0000
0001
0000
,
0100
0000
0001
0000
,
0000
0000
1000
0000
,
0010
0000
1000
0000
,
0000
0000
0100
0000
,
1000
0000
0100
0000
,
0000
0000
0010
0000
,
0000
0000
0000
0110
0000
0000
0000
0000
,
0000
0000
0001
0000
,
1000
0000
1000
0000
,
0001
0000
0001
0000
,
1000
0000
0001
0000
,
1000
0000
0001
0000
,
0001
0000
1000
0000
,
1000
0000
0001
0000
,
1000
0000
0001
0000
,
0000
0000
0010
0000
,
0010
0000
0100
0000
,
0000
0000
0010
0000
,
0100
0000
0100
0000
,
0000
0000
1000
0000
,
0001
0000
0001
0000
,
0000
0000
0001
0000
,
0000
0000
0000
1001
0000
0000
0000
0000
,
0000
0000
0010
0000
,
0100
0000
0100
0000
,
0010
0000
0010
0000
,
0100
0000
0010
0000
,
0100
0000
0100
0000
,
0010
0000
0010
0000
,
0100
0000
0010
0000
,
0100
0000
0100
0000
,
0010
0000
1000
0000
,
0000
0001
0001
0000
,
1000
0000
0001
0000
,
0000
1000
1000
0000
,
0001
0000
1000
0000
,
0000
0010
0010
0000
,
0100
0000
0010
0000
,
0000
0000
0000
1001
0000
0000
0000
0000
,
0000
0220
0330
0000
;

//---------------dance-single - Shortysnmn2010----------------
#NOTES:
     dance-single:
     Shortysnmn2010:
     Medium:
     5:
     0.304356,0.317047,0.101051,0.117893,0.000000,253.000000,241.000000,12.000000,14.000000,16.000000,0.000000,0.304356,0.317047,0.101051,0.117893,0.000000,253.000000,241.000000,12.000000,14.000000,16.000000,0.000000:
0000
0000
0000
0000
,
0000
0000
0000
0000
,
0000
0000
0000
0000
1000
0001
1000
0000
,
0001
0010
0100
0010
,
0001
0000
0100
0000
0010
0100
0010
0000
,
1000
0100
0010
0001
,
1000
0000
0010
1000
0000
0000
0001
0010
,
0000
0000
0100
0010
0000
0000
0000
0000
,
0001
0000
0001
0100
0000
0000
0010
1000
,
0000
0100
0000
1000
0000
0000
0000
0000
,
0010
0000
0100
0001
0000
0000
1000
0100
,
0000
0000
0010
0100
0000
0000
0000
0000
,
1000
0000
0001
0010
0000
0000
0001
1000
,
0000
0000
0010
0100
0000
0000
0000
0000
,
0001
0000
1000
0000
0010
0000
0100
0010
,
1000
1000
0100
0010
,
0001
0000
0100
0000
0010
0000
0100
0010
,
1000
0001
0010
0001
,
1000
0000
0000
0000
0001
0000
0100
0001
,
1000
0100
0010
0001
,
0100
0000
0010
0000
0100
0000
0001
0100
,
0010
1000
0100
0010
,
0100
0000
1000
0100
,
0010
0000
0100
0000
1000
0100
1000
0000
,
1100
0000
0000
0000
1000
0001
1000
0000
,
1001
0000
0000
0000
0001
0010
0001
0000
,
0011
0000
0001
0100
,
0010
0000
1000
0000
0001
0100
0001
0000
,
0202
0000
0303
0000
,
1000
0100
0000
0010
0000
0100
0000
0010
,
0000
0010
0001
0000
2000
0000
00M0
0000
,
0100
0010
3002
00M0
,
0100
0010
2003
0M00
,
0010
0100
3002
0M00
,
0010
0000
0100
0000
1003
0000
01M0
1000
,
0100
0000
1000
0000
0100
0000
100M
0100
,
1000
0000
0100
0000
0010
0000
M100
0010
,
0100
0000
0010
0000
0100
0000
001M
0100
,
0010
0001
0010
0001
,
0100
0000
0010
0000
1000
0001
1000
0000
,
1001
0000
0000
0000
0001
0100
0001
0000
,
0101
0000
0000
0000
1000
0010
1000
0000
,
1010
0000
0001
0010
,
0100
0000
1000
0000
0010
0100
0010
0000
,
0110
0000
0001
1000
,
0010
0100
0000
0001
0000
0100
0000
0010
,
0000
0010
1000
0000
0200
0000
00M0
0000
,
0001
1000
0320
M000
,
0001
1000
0230
000M
,
1000
0001
0320
000M
,
1000
0000
0001
0000
0130
0000
M010
0100
,
0010
0000
0100
0000
0010
0000
010M
0010
,
0100
0000
1000
0000
0010
0000
1M00
0010
,
1000
0010
1000
001M
,
1010
1100
0010
0001
,
0100
0000
0010
0000
1000
0001
0100
0000
,
0002
0000
0003
0000
1000
0001
0010
0000
,
0001
0000
1000
0000
0001
1000
0100
0000
,
2000
3000
0001
0100
,
1000
0000
0100
0000
0010
0100
0001
0000
,
2000
3000
0100
0100
,
1000
0001
0000
0010
0000
0110
0000
0110
,
0000
1000
0002
0000
0000
0000
0003
0000
;

//---------------dance-single - Shortysnmn2010----------------
#NOTES:
     dance-single:
     Shortysnmn2010:
     Hard:
     8:
     0.449917,0.585885,0.092630,0.151576,0.147366,374.000000,363.000000,11.000000,18.000000,0.000000,0.000000,0.449917,0.585885,0.092630,0.151576,0.147366,374.000000,363.000000,11.000000,18.000000,0.000000,0.000000:
// measure 0
0000
0000
0000
0000
,  // measure 1
0000
0000
0000
0000
,  // measure 2
0000
0000
0000
0000
1000
0100
1000
0100
,  // measure 3
1000
0010
0100
0001
0010
0100
0010
0100
,  // measure 4
0010
0001
0100
0010
1000
1000
1000
0000
,  // measure 5
0001
0001
0001
0000
0010
0000
0100
0000
,  // measure 6
0010
0000
0100
2000
0000
3000
0001
0200
,  // measure 7
0000
0300
0010
0200
0000
0300
0000
0000
,  // measure 8
0001
0000
0010
0002
0000
0003
0100
0001
,  // measure 9
0000
1001
0000
1010
0000
0000
0000
1000
,  // measure 10
0001
1000
0100
0020
0000
0030
0100
2000
,  // measure 11
0000
3000
0010
0200
0000
0300
0000
0000
,  // measure 12
0001
0010
0100
2000
0000
3000
0001
2000
,  // measure 13
0000
3000
0010
0002
0000
0003
0000
0010
,  // measure 14
0100
0001
0010
0100
1000
0000
2100
0000
,  // measure 15
0001
3100
0001
0012
,  // measure 16
1000
0013
1000
2010
,  // measure 17
0100
3010
0001
0102
,  // measure 18
0010
0000
0103
0000
0010
1000
0010
1000
,  // measure 19
0001
0010
0100
1000
0001
0100
0001
0100
,  // measure 20
0010
1000
0100
0010
0001
1000
0001
1000
,  // measure 21
0100
0010
0001
0100
0010
0100
0010
0100
,  // measure 22
0001
0000
0010
0000
0100
0000
1000
0000
0010
0000
0000
0100
0000
0000
0001
0000
,  // measure 23
0000
1000
0000
0000
0100
0000
0010
0000
0001
0000
0000
1000
0000
0000
0010
0000
,  // measure 24
0000
0001
0000
0000
0010
0000
0100
0000
0001
0000
0000
1000
0000
0000
0100
0000
,  // measure 25
0000
0001
0000
0000
0100
0000
1000
0000
0010
0000
0000
1000
0000
0000
1001
0000
,  // measure 26
0000
0001
0000
0000
0010
0000
0001
0000
0100
0000
0001
0100
0000
0001
0100
0000
,  // measure 27
0001
0100
0000
0001
0100
0000
0001
0100
0001
0000
1000
0001
0000
1000
0001
0000
,  // measure 28
1000
0001
0000
1000
0001
0000
4000
0400
0000
0000
0000
0000
0000
0000
0000
0000
,  // measure 29
0000
0000
0000
3300
0000
0000
0000
0000
,  // measure 30
0000
0000
0000
0000
1001
0000
0010
0001
,  // measure 31
0010
0001
0100
0001
0010
0000
0100
1000
,  // measure 32
0100
1000
0010
1000
0100
0000
0010
0001
,  // measure 33
0010
0001
1000
0001
0010
0000
0100
1000
,  // measure 34
0001
0010
0100
0100
1000
0000
0001
0100
,  // measure 35
0001
0100
1000
0100
0001
0000
1000
0100
,  // measure 36
1000
0100
0001
0100
1000
0000
0010
1000
,  // measure 37
0010
1000
0100
1000
0010
0000
0100
0001
,  // measure 38
1000
0010
0100
0100
0001
0000
1000
0000
,  // measure 39
0100
0000
0010
0000
0001
0001
1000
0100
,  // measure 40
0100
0000
0000
0000
1000
1000
0001
0010
,  // measure 41
0010
0001
0200
0010
0310
1000
0001
0010
,  // measure 42
0001
0000
0000
0000
0000
0000
0000
0000
1000
0000
0000
0100
0000
0000
1000
0000
,  // measure 43
0000
0010
0000
0000
0100
0000
0010
0000
0100
0000
0001
0100
0000
0001
0100
0000
,  // measure 44
0010
0100
0000
0010
1000
0000
0001
0100
0004
4000
0000
0000
0000
0000
0000
0000
,  // measure 45
0000
0000
3003
0000
,  // measure 46
0000
0000
0000
0000
0110
0000
0001
0100
,  // measure 47
0001
0100
1000
0100
0010
0000
1000
0100
,  // measure 48
1000
0100
0001
0100
0010
0000
0001
1000
,  // measure 49
0001
1000
0010
1000
0100
0000
0010
0001
,  // measure 50
0010
0001
1000
0001
0100
0000
0010
1000
,  // measure 51
0010
1000
0100
1000
0001
0000
0100
0001
,  // measure 52
0100
0001
0010
0001
1000
0000
0100
1000
,  // measure 53
0100
1000
0010
1000
0001
0100
0010
1000
,  // measure 54
0001
1000
0000
0000
0001
0000
0010
0000
0001
0000
0000
0000
1000
0000
0010
0000
,  // measure 55
0100
0001
0010
0010
0001
0000
1000
0100
,  // measure 56
0001
0100
0010
0010
0001
0000
1000
0010
,  // measure 57
0100
0010
1000
1000
0100
0010
0001
1000
,  // measure 58
0020
0000
0100
0000
0100
0000
0130
0000
0001
0000
0000
1000
0000
0000
0100
0000
,  // measure 59
0000
0010
0000
0000
0001
0000
0100
0000
0010
0000
0000
1000
0000
0000
0010
0000
,  // measure 60
0000
0100
0000
0000
0001
0000
1000
0000
0001
0000
0010
0001
0000
0010
0100
0000
,  // measure 61
0010
0001
0000
0010
0100
0000
1000
0000
0000
0000
1010
0000
0000
0000
0101
0000
,  // measure 62
0000
0002
2000
0000
0000
0000
0000
0000
,  // measure 63
0000
3003
0000
0000
;
