#TITLE:Sexy and I Know It;
#SUBTITLE:;
#ARTIST:LMFAO;
#TITLETRANSLIT:;
#SUBTITLETRANSLIT:;
#ARTISTTRANSLIT:;
#GENRE:;
#CREDIT:;
#MUSIC:Sexy and I Know It.mp3;
#BANNER:;
#BACKGROUND:;
#CDTITLE:;
#SAMPLESTART:43.195;
#SAMPLELENGTH:15.902;
#SELECTABLE:YES;
#OFFSET:-0.025;
#BPMS:0.000=130.012;
#STOPS:126.000=0.461;
#BGCHANGES:;
#FGCHANGES:;

//--------------- dance-single - ----------------
#NOTES:
     dance-single:
     Shortysnmn2010:
     Beginner:
     1:
     0.098619,0.128936,0.008027,0.008027,0,86,85,1,1,0,0,0.098619,0.128936,0.008027,0.008027,0,86,85,1,1,0,0:
0000
0000
0000
0000
,
0000
0000
0000
0000
,
0000
0000
0000
0000
,
0000
0000
0000
0000
,
0001
0000
0000
0000
,
0010
0000
0000
0000
,
0100
0000
0000
0000
,
1000
0000
0000
0000
,
0001
0000
0000
0000
,
1000
0000
0000
0000
,
0010
0000
0000
0000
,
1000
0000
0001
0000
,
1000
0000
0000
0000
,
0100
0000
0000
0000
,
0001
0000
0000
0000
,
0100
0000
0010
0000
,
0100
0000
0010
0000
,
0100
0000
0000
0000
,
1000
0000
0100
0000
,
1000
0000
0100
0000
,
1000
0000
0100
0000
,
0100
0000
1000
0000
,
1000
0000
0000
0000
,
1001
0000
0000
0000
,
0001
0000
0000
0000
,
0010
0000
0001
0000
,
0010
0000
0000
0000
,
0100
0000
0000
0000
,
1000
0000
0100
0000
,
1000
0000
0000
0000
,
0010
0000
0000
0000
,
0100
0000
0000
1000
,
0000
0001
0000
1000
,
0000
1000
0000
0001
,
0000
0001
0000
1000
,
0000
0000
0000
0010
,
0000
0100
0000
0100
,
0000
0010
0000
0010
,
0000
0100
0000
0010
,
0000
0000
0000
1000
,
0000
0000
0000
0100
,
0000
0000
0000
0010
,
0000
0010
0000
0001
,
0000
0000
0000
0100
,
0000
0000
0000
0010
,
0000
0000
0000
1000
,
0000
1000
0000
0100
,
0000
0000
0000
1000
,
0000
0000
0000
0001
,
0000
0000
0000
0010
,
0000
0000
0000
0100
,
0000
0100
0000
0100
,
0000
0000
0000
1000
,
0000
0000
0000
0010
,
0000
0000
0000
0001
,
0000
0001
0000
0001
,
0000
0010
0000
1000
,
0000
0000
0000
0001
,
0000
1000
0000
0001
,
0000
0000
0000
1000
,
0000
0100
0000
1000
,
0000
0100
0000
1000
,
0000
0000
0000
0001
,
0000
1000
0000
0002
,
0000
0003
0000
0000
;

//--------------- dance-single - ----------------
#NOTES:
     dance-single:
     Shortysnmn2010:
     Easy:
     4:
     0.256869,0.309447,0.297005,0.05619,0.016054,224,187,37,7,0,0,0.256869,0.309447,0.297005,0.05619,0.016054,224,187,37,7,0,0:
0000
0000
0000
0000
,
0000
0000
0000
0000
,
0000
0000
0000
0000
,
0000
0000
0000
0000
,
2000
0000
3000
0000
,
0002
0000
0003
0000
,
0020
0000
0030
0000
,
0200
0000
0300
0000
,
1001
0010
0100
0010
,
1001
0100
0010
0100
,
1001
0010
0100
0010
,
1001
0000
0010
0000
,
0110
1000
0001
1000
,
0110
0001
1000
0001
,
0110
1000
0001
1000
,
0110
0000
0001
0000
,
1000
0100
0010
0001
,
1000
1000
1000
0000
,
0001
0100
0010
1000
,
0001
0001
0001
0000
,
1000
0100
0001
0100
,
1000
0001
0100
1000
,
0100
0000
0001
0000
,
2000
0000
3000
0000
,
0101
0000
0010
1000
,
1100
0010
0001
0100
,
0101
0000
0010
1000
,
1100
1000
0010
0100
,
0101
0000
0010
1000
,
1001
0001
0010
0100
,
0110
0000
0010
0001
,
1100
0000
0000
0000
0010
0000
0000
0000
0001
0000
0000
0000
4000
0004
0000
0000
,
0000
0000
0000
0000
3003
0000
0000
0000
0000
0000
0000
0000
0004
4000
0000
0000
,
0000
0000
0000
0000
3003
0000
0000
0000
0000
0000
0000
0000
4000
0004
0000
0000
,
0000
0000
0000
0000
3003
0000
0000
0000
0000
0000
0000
0000
0004
4000
0000
0000
,
0000
3003
0000
1000
,
0100
1000
0000
0001
,
0010
0001
0000
1000
,
0010
1000
0000
0001
,
0100
0001
0000
1100
,
0010
0001
0010
1100
,
0001
0010
0001
1100
,
0010
0001
0010
1100
,
0000
0010
0000
0101
,
0010
1000
0010
0101
,
1000
0010
1000
0101
,
0010
1000
0010
0101
,
0000
1000
0000
0110
,
0000
0001
0100
1001
,
0000
0010
1000
0011
,
0000
0100
1000
0101
,
0000
0010
0000
1100
,
0000
0010
0001
1001
,
0000
0100
1000
1001
,
0000
1000
0010
0110
,
0000
0001
0000
1001
,
0100
0001
0010
0100
,
1000
0010
1000
0110
,
0001
1000
0100
0001
,
0100
1000
0010
1001
,
0100
0001
0010
0001
,
0100
0010
1000
0110
,
0001
1000
0010
0001
,
0010
1000
0001
2002
,
0000
3003
0000
0000
;

//--------------- dance-single - ----------------
#NOTES:
     dance-single:
     Shortysnmn2010:
     Medium:
     5:
     0.322233,0.358915,0.385304,0.208706,0.016054,281,233,48,26,0,0,0.322233,0.358915,0.385304,0.208706,0.016054,281,233,48,26,0,0:
0000
0000
0000
0000
,
0000
0000
0000
0000
,
0000
0000
0000
0000
,
0000
0000
0000
0000
,
1001
0001
0000
0000
,
1001
1000
0000
0000
,
0110
0010
0000
0000
,
0110
0100
0000
0000
,
0101
0010
1000
0100
,
0011
0100
1000
0010
,
0101
0010
1000
0100
,
0011
0000
0000
0001
2000
0000
3000
0000
,
1010
0100
0001
0010
,
1100
0010
0001
0100
,
1010
0100
0001
0010
,
1100
0000
0000
1000
0001
0000
1000
0000
,
0010
0000
1000
0010
1000
0000
0100
0000
,
0010
0001
0100
0000
0002
0000
0003
0000
,
0010
0000
0100
1000
0100
0000
0010
0000
,
0001
0100
0010
0000
1000
0000
0001
0000
,
0100
1000
0100
0001
,
0010
0000
1000
0000
0010
0001
0000
0010
,
0001
0000
0010
0001
0000
0010
0002
0000
,
0000
0000
0003
0000
,
1000
0000
0100
1000
0100
0000
0010
0000
,
0001
0000
0100
0010
0100
0000
0001
0000
,
0010
0000
0100
1000
0100
0000
0010
0000
,
0001
0000
0100
0010
0100
0000
0001
0000
,
1000
1010
0100
0101
,
0010
0011
0100
1100
,
0010
1001
0100
1001
,
0010
0000
0000
0000
0101
0000
0000
0000
1001
0000
0000
0000
4000
0004
0000
0000
,
0000
0000
0000
0000
3003
0000
0000
0000
1001
0000
0000
0000
0004
4000
0000
0000
,
0000
0000
0000
0000
3003
0000
0000
0000
1001
0000
0000
0000
4000
0004
0000
0000
,
0000
0000
0000
0000
3003
0000
0000
0000
1001
0000
0000
0000
0004
4000
0000
0000
,
0000
3003
1001
0010
,
1000
0100
1000
0000
0002
0000
0003
0000
,
0010
0100
1000
0000
0020
0000
0030
0000
,
0100
0001
1000
0000
0020
0000
0030
0000
,
1000
0001
0010
0000
0100
0000
1100
0000
,
0010
0001
0100
1010
,
0100
0001
1000
0110
,
0001
0010
0100
0011
,
0100
1000
0001
0110
,
1000
0001
0100
1010
,
0100
0001
1000
0110
,
0001
1000
0100
0011
,
0100
1000
0001
2200
,
3300
0000
0001
0100
0001
0000
0220
0000
,
0330
0000
1000
0100
1000
0000
0202
0000
,
0303
0000
0010
1000
0010
0000
2002
0000
,
3003
1000
0001
0022
,
0033
0000
0001
1000
0001
0000
0220
0000
,
0330
0000
1000
0001
1000
0000
0022
0000
,
0033
0000
1000
0001
1000
0000
0220
0000
,
0330
0001
0000
2100
,
0001
3010
0101
1020
,
0100
1030
1001
0021
,
0100
0031
1100
2010
,
0001
3100
0110
0001
,
1000
0100
0000
0000
1000
0001
0000
0000
,
0010
0001
0000
0000
0100
0010
0000
0000
,
1000
0001
0000
0000
0001
1000
0000
0000
,
0000
0010
0100
0010
0100
0010
0100
0010
;

//--------------- dance-single - ----------------
#NOTES:
     dance-single:
     Shortysnmn2010:
     Hard:
     8:
     0.410532,0.435825,0.216733,0.064217,0.280951,358,331,27,8,0,0,0.410532,0.435825,0.216733,0.064217,0.280951,358,331,27,8,0,0:
0000
0000
0000
0000
,
0000
0000
0000
0000
,
0000
0000
0000
0000
,
0000
0000
0000
0000
,
0000
0000
0000
0000
0000
0000
1000
0000
0000
0000
0000
0001
0000
0000
0000
0000
,
0010
0000
0000
0000
0001
0000
0100
0000
0001
0000
0000
1000
0000
0000
0000
0000
,
0000
0000
0100
0000
0010
0000
0000
0000
0001
0000
0000
0001
0000
0000
0000
0000
,
1000
0000
0001
0000
0100
0000
0000
0000
0010
0000
0000
0100
0000
0000
0000
0000
,
1001
0000
0000
0000
1000
0000
0000
0000
0001
0100
0010
0000
0100
0000
0000
0000
,
1001
0000
0000
0000
0010
0000
0000
0000
0100
1000
0001
0000
0010
0000
0000
0000
,
1001
0000
0000
0000
1000
0000
0000
0000
0001
0100
0010
0000
0100
0000
0000
0000
,
1001
0000
0000
1000
0000
1000
0001
0000
0010
0000
0000
0000
0100
0000
0000
0000
,
0110
0000
0000
0000
0001
0000
0000
0000
1000
0010
0100
0000
0001
0000
0000
0000
,
0110
0000
0000
0000
1000
0000
0000
0000
0001
0100
0010
0000
1000
0000
0000
0000
,
0110
0000
0000
0000
1000
0000
0000
0000
0001
0010
0001
0000
0100
0000
0000
0000
,
0000
0000
0000
0100
0000
0100
0010
0000
0200
0000
0000
0000
0301
0000
0000
0000
,
1000
0100
0001
0100
1000
0010
0100
0010
,
1000
0001
0100
0010
0100
0000
0001
0000
,
0010
0100
1000
0100
0010
0001
1000
0010
,
0100
0010
1000
0001
0100
0000
0010
0000
,
4000
0400
0000
0000
0000
0000
0000
0000
0000
0000
0000
0000
3300
0000
0000
0000
,
0040
0004
0000
0000
0000
0000
0000
0000
0000
0000
0000
0000
0033
0000
0000
0000
,
0400
0040
0000
0000
0000
0000
0000
0000
0000
0000
0000
0000
0000
0000
0330
0000
,
0000
0000
0000
0000
,
1000
0000
0000
0001
0010
0000
0001
0000
0100
0000
0000
0010
0000
0000
0100
0000
,
0001
0000
0000
1000
0010
0000
0100
0000
0010
0000
0000
1000
0000
0000
0001
0000
,
0100
0000
0000
0001
0100
0000
0001
0000
0010
0000
0000
0001
0000
0000
0010
0000
,
0100
0000
0000
0010
0100
0000
1000
0000
0100
0000
0000
1000
0000
0000
0010
0000
,
1000
0000
0000
0001
1000
0000
0001
0000
0100
0000
0000
0010
0100
0000
0001
0000
,
0010
0000
0000
0001
0010
0000
0100
0000
1000
0000
0000
0010
1000
0000
0100
0000
,
0010
0000
0000
0100
0010
0000
0100
0000
1000
0000
0000
0001
0100
0000
0001
0000
,
1000
0000
0000
0010
0100
0000
0001
0100
0000
0000
0000
0000
0400
0004
0000
0000
,
0000
0000
0000
0000
0303
0000
0000
1010
0000
0000
0000
0000
4000
0400
0000
0000
,
0000
0000
0000
0000
3300
0000
0000
0011
0000
0000
0000
0000
0004
4000
0000
0000
,
0000
0000
0000
0000
3003
0000
0000
0110
0000
0000
0000
0000
0040
0400
0000
0000
,
0000
0000
0000
0000
0330
0000
0000
1001
0000
0000
0000
0000
1000
0000
0000
0100
,
1000
0000
0100
0000
0010
0000
0000
0001
0000
0000
0100
0000
0001
0000
0000
0100
,
0001
0000
0100
0000
0010
0000
0000
1000
0000
0000
0001
0000
0010
0000
0000
0001
,
0010
0000
0001
0000
1000
0000
0000
0100
0000
0000
0001
0000
0100
0000
0000
1000
,
0100
1000
0001
0010
0100
1000
0001
0000
,
0101
0000
0000
0000
0010
0000
0000
0001
0000
0000
1000
0000
0100
0000
0000
0000
,
0110
0000
0000
0000
0001
0000
0000
0100
0000
0000
0010
0000
1000
0000
0000
0000
,
0101
0000
0000
0000
1000
0000
0000
0100
0000
0000
0010
0000
0100
0000
0000
0000
,
1100
0000
0000
0000
1000
0000
0000
0010
0000
0000
0100
0000
0001
0000
0000
0000
,
0011
0000
0000
0000
0001
0000
0000
1000
0000
0000
0010
0000
0100
0000
0000
0000
,
1100
0000
0000
0000
0001
0000
0000
0010
0000
0000
0001
0000
0010
0000
0000
0000
,
0110
0000
0000
0000
0001
0000
0000
1000
0000
0000
0100
0000
0010
0000
0000
0000
,
0110
0000
0000
0000
1000
0000
0000
0001
0000
0000
0000
0000
1100
0000
0000
0000
,
0010
0000
0000
0000
0001
0100
0010
0000
1000
0000
0000
0000
1100
0000
0000
0000
,
1000
0000
0000
0000
0100
0010
0001
0000
1000
0000
0000
0000
1100
0000
0000
0000
,
0010
0000
0000
0000
0001
0100
0001
0000
0010
0000
0000
0000
1100
0000
0000
0100
,
0000
0100
1000
0000
0100
0000
0000
0000
0000
0000
0000
0000
0011
0000
0000
0000
,
0001
0000
0000
0000
1000
0010
0100
0000
0001
0000
0000
0000
0011
0000
0000
0000
,
0100
0000
0000
0000
0001
0100
0010
0000
0001
0000
0000
0000
0011
0000
0000
0000
,
1000
0000
0000
0000
0100
0001
1000
0000
0100
0000
0000
0000
0011
0000
0000
0001
,
0000
0001
0010
0000
0001
0000
0000
0000
0000
0000
0000
0000
1000
0000
0000
0000
,
0100
0000
0010
0000
0001
0000
0000
0001
0000
0000
0010
0000
0100
0000
0000
0000
,
1000
0000
0100
0000
1000
0000
0000
1000
0000
0000
0010
0000
0100
0000
0000
0000
,
0001
0000
0100
0000
0001
0000
0000
0001
0000
0000
0010
0000
0001
0000
0000
0000
,
1000
0000
0100
0000
0010
0000
0000
0010
0000
0000
0001
0000
0100
0000
0000
0000
,
0010
2000
0001
3000
0001
0200
0010
0300
,
0010
2000
0001
3000
0100
0020
0001
0030
,
1000
0200
0010
0300
0001
2000
0010
3000
,
0100
0002
1000
1003
0100
0010
0001
1000
;

//--------------- dance-single - ----------------
#NOTES:
     dance-single:
     Shortysnmn2010:
     Challenge:
     10:
     0.645613,0.854291,0.184625,0.11238,0.622105,563,540,23,14,0,0,0.645613,0.854291,0.184625,0.11238,0.622105,563,540,23,14,0,0:
0000
0000
0000
0000
,
0000
0000
0000
0000
,
0000
0000
0000
0000
,
0000
0000
0000
0000
,
0000
0000
0000
0000
0000
0000
1000
0001
0010
0001
0000
1000
0000
0000
0000
0000
,
0100
0010
0100
0000
1000
0000
0001
0000
0100
0000
0001
0100
0000
0000
0000
0000
,
0000
0010
1000
0000
0001
0000
0010
0001
1000
0100
0000
0010
0000
0000
0000
0001
,
0010
0000
0001
0000
1000
0000
0001
0000
0100
0000
0010
0100
0000
0000
0001
0000
,
1100
0000
0010
0000
0001
0000
0100
0000
0010
0100
0010
0000
0100
0000
0001
0000
,
1010
0000
0100
0000
0001
0000
0010
0000
0100
1000
0001
0000
0100
0000
0010
0000
,
1001
0000
0100
0000
0010
0000
1000
0000
0001
0010
0100
0000
0010
0000
0001
0000
,
1100
0000
0010
0001
0000
0001
0010
0000
0200
0000
0000
0000
0310
0000
0000
0000
,
0011
0000
0100
0000
1000
0000
0001
0000
0100
0010
1000
0000
0010
0000
0100
0000
,
1010
0000
0001
0000
0010
0000
0100
0000
1000
0001
0010
0000
0100
0000
1000
0000
,
0101
0000
0010
0000
1000
0000
0001
0000
0010
1000
0010
0000
0100
0000
1000
0000
,
0011
0000
1000
0100
0000
0100
1000
0000
0002
0000
0000
0000
0103
0010
0100
0000
,
0001
0010
0001
0010
1000
0010
1000
0010
,
1000
0100
1000
0100
0001
0100
0001
0100
,
0010
1000
0100
0001
0100
0010
0001
0100
,
1000
0100
0010
1000
0001
0010
0100
1000
,
0001
0100
0001
0100
0010
1000
0010
1000
0001
0010
0001
0010
0100
1000
0100
1000
,
0001
0100
0001
0100
0010
1000
0001
1000
0100
0010
0001
1000
0001
0100
0010
1000
,
0001
1000
0100
0010
0001
1000
0010
0100
0001
0010
0100
1000
0001
0100
0010
2000
,
0000
0000
0000
0000
3000
0000
0001
0000
0010
0000
0000
0100
1000
0100
0010
0000
,
0001
0000
0000
0010
0001
0000
2000
0000
0100
0000
0000
3001
0010
0000
0100
0000
,
1000
0000
0000
0010
0100
0000
0002
0000
0010
0000
0000
1003
0100
0000
0010
0000
,
0001
0000
0000
0100
0010
0000
2000
0000
0001
0000
0000
3100
0010
0000
0001
0000
,
0100
0000
0000
0001
0100
0000
0020
0000
0001
0000
0000
0130
0001
0000
1000
0000
,
0100
0000
0000
0010
1000
0000
0020
0000
0100
0000
0000
0031
1000
0000
0100
0000
,
0010
0000
0000
0001
0100
0000
2000
0000
0100
0000
0000
3001
0010
0000
1000
0000
,
0001
0000
0000
0010
1000
0000
0002
0000
0100
0000
0000
1003
0010
0000
0001
0000
,
0110
0000
0000
0001
1000
0000
0010
0100
0000
0000
0000
0000
0001
1000
0001
1000
,
0001
1000
0001
1000
0001
1000
0000
0110
0000
0000
0000
0000
1000
0001
1000
0001
,
1000
0001
1000
0001
1000
0001
0000
0110
0000
0000
0000
0000
0001
1000
0001
1000
,
0001
1000
0001
1000
0001
1000
0000
0110
0000
0000
0000
0000
1000
0001
1000
0001
,
1000
0001
1000
0000
0110
0000
0000
0110
0000
0000
0000
0000
0001
0000
0000
0010
,
0001
0000
1000
0100
0010
0001
0000
1000
0001
0000
1000
0000
0010
0000
0000
0100
,
0001
1000
0001
0100
0010
1000
0000
0001
1000
0000
0100
0000
0010
0000
0000
0001
,
0010
0000
0001
0000
1000
0000
0000
0010
0100
0000
0001
0000
0010
0000
0000
0100
,
0010
0000
0001
0000
1000
0000
0100
0000
0010
0000
0001
0000
1000
0000
0100
1000
,
0100
0000
0010
0000
0001
0010
0000
0010
0001
0000
1000
0000
0010
0000
0100
0010
,
0100
0000
0001
0000
1000
0010
0000
0010
1000
0000
0001
0000
0100
0000
0010
0100
,
0010
0000
0100
0000
0001
0010
0000
0010
0001
0000
0100
0000
0010
0000
1000
0001
,
1000
0000
0100
0000
0010
0100
0000
0010
0100
0000
1000
0000
0001
0000
0010
0001
,
0010
0000
1000
0000
0010
0100
0000
0010
0100
0000
1000
0000
0001
0000
0100
0010
,
0100
0000
0010
0000
1000
0001
0000
1000
0001
0000
0010
0000
0100
0000
1000
0100
,
1000
0000
0100
0000
0010
0100
0000
0010
0100
0000
0010
0000
0001
0000
1000
0001
,
1000
0000
0001
0000
0100
0010
0000
1000
0001
0100
0010
0000
1001
0000
0010
0000
,
0100
0000
0010
0000
0001
0100
0010
0000
0100
0000
0010
0000
1001
0000
0100
0000
,
0010
0000
0100
0000
0010
1000
0100
0000
0010
0000
0100
0000
1001
0000
0100
0000
,
1000
0000
0010
0000
0100
0010
1000
0000
0100
0000
0010
0000
1001
0000
0010
0001
,
0000
0001
0010
0000
0200
0000
0000
0000
0310
0000
0000
0000
0110
0000
0001
0000
,
1000
0000
0001
0000
0100
0010
1000
0000
0001
0000
1000
0000
0110
0000
1000
0000
,
0001
0000
1000
0000
0100
0010
0001
0000
1000
0000
0001
0000
0110
0000
1000
0000
,
0001
0000
0010
0000
1000
0010
0001
0000
0100
0000
0001
0000
0110
0000
1000
0001
,
0000
0001
1000
0000
0200
0000
0000
0000
0300
0000
0000
0000
0011
0000
0000
0100
,
1000
0000
0010
0000
1000
0001
0000
0100
0000
0000
0010
0000
1000
0000
0000
0001
,
0100
0000
0010
0000
1000
0001
0000
0010
0000
0000
0100
0000
0010
0000
0000
0001
,
0100
0000
0010
0000
0001
0010
0000
0100
0000
0000
0001
0000
1000
0000
0000
0100
,
0001
0000
0100
0000
0010
0100
0000
1000
0000
0000
0010
0000
1000
0000
0000
0001
,
0100
0000
0001
0000
0010
0001
0000
0010
0000
0000
0001
0000
0100
0000
0000
1000
,
0100
0000
0010
0000
1000
0010
0000
0100
0000
0000
1000
0000
0100
0000
0000
0001
,
0100
0000
0001
0000
1000
0001
0000
0010
0000
0000
0001
0000
1000
0000
0000
0100
,
0010
0001
0100
1000
0100
0001
0020
2000
,
0000
0000
3030
0000
;
