#TITLE:S.O.S.;
#SUBTITLE:;
#ARTIST:Rihanna;
#TITLETRANSLIT:;
#SUBTITLETRANSLIT:;
#ARTISTTRANSLIT:;
#GENRE:;
#CREDIT:;
#MUSIC:S.O.S..mp3;
#BANNER:;
#BACKGROUND:;
#CDTITLE:;
#SAMPLESTART:42.245;
#SAMPLELENGTH:13.995;
#SELECTABLE:YES;
#OFFSET:-0.181;
#BPMS:0.000=137.000;
#STOPS:;
#BGCHANGES:;
#FGCHANGES:;

//--------------- dance-single - ----------------
#NOTES:
     dance-single:
     Shortysnmn2010:
     Beginner:
     1:
     0.093226,0.139929,0,0.01004,0,65,65,0,1,0,0,0.093226,0.139929,0,0.01004,0,65,65,0,1,0,0:
0000
0000
0000
0000
,
0000
0000
0000
0000
,
0000
0000
0000
0000
,
0000
0000
0000
0000
,
1000
0000
0000
0000
,
0001
0000
0000
0000
,
0010
0000
0000
0000
,
0010
0000
0000
0000
,
0100
0000
0100
0000
,
0100
0000
0000
0000
,
1000
0000
0000
0000
,
0100
0000
0000
0000
,
0010
0000
0010
0000
,
0010
0000
0000
0000
,
0001
0000
0000
0000
,
1000
0000
0000
0000
,
0001
0000
0001
0000
,
0001
0000
0000
0000
,
0100
0000
0000
0000
,
0010
0000
0000
0000
,
1000
0000
1000
0000
,
1000
0000
0000
0000
,
0001
0000
0000
0000
,
0010
0000
0000
0000
,
1000
0000
0001
0000
,
1000
0000
0000
0000
,
0001
0000
1000
0000
,
0001
0000
0000
0000
,
0100
0000
0000
0000
,
0010
0000
0000
0000
,
0100
0000
0000
0000
,
0001
0000
0000
0000
,
0010
0000
0010
0000
,
0010
0000
0000
0000
,
0100
0000
0000
0000
,
1000
0000
0000
0000
,
0100
0000
0100
0000
,
0100
0000
0000
0000
,
1000
0000
0000
0000
,
0001
0000
0000
0000
,
0010
0000
0000
0000
,
0001
0000
0000
0000
,
0200
0000
0000
0000
,
0000
0000
0300
0000
,
0010
0000
0010
0000
,
0010
0000
0000
0000
,
1000
0000
0000
0000
,
0001
0000
0000
0000
,
1000
0000
0000
0000
,
0100
0000
0000
0000
,
0010
0000
0100
0000
,
0010
0000
0100
0000
,
0010
0000
0000
0000
,
0001
0000
0000
0000
,
1000
0000
0001
0000
,
1000
0001
0000
0001
;

//--------------- dance-single - ----------------
#NOTES:
     dance-single:
     Shortysnmn2010:
     Easy:
     4:
     0.248125,0.309225,0.060239,0.070278,0,173,167,6,7,0,0,0.248125,0.309225,0.060239,0.070278,0,173,167,6,7,0,0:
0000
0000
0000
0000
,
0000
0000
0000
0000
,
0000
0000
0000
0000
,
0000
0000
0000
0000
,
1000
0001
0001
1000
,
1000
0010
0010
1000
,
0001
0000
0000
1000
,
0002
1000
0000
1003
,
0001
0000
0100
0000
,
0010
1000
0100
0001
,
0100
0000
0010
0000
,
0001
0100
1000
0100
,
0010
0000
1000
0000
,
0100
0010
0100
1000
,
0010
0010
0100
0100
,
0001
0001
0010
0010
,
0100
0000
1000
0000
,
0010
1000
0100
0010
,
0001
0000
1000
0000
,
0001
0100
0010
0100
,
1000
0000
0100
0000
,
0001
0010
0001
1000
,
0100
1000
1000
0010
,
0010
0100
0001
0000
,
1000
0100
1000
0001
,
1000
0000
0010
0000
,
1000
0001
0100
0000
,
0001
0000
1000
0000
,
0001
0010
0001
1000
,
0001
0000
0100
0010
,
1000
0001
1000
0100
,
0010
0000
0100
0100
,
1000
0010
0100
0001
,
1000
0010
1000
1000
,
0002
0000
1000
0000
,
0010
0010
0013
0000
,
0001
0100
0010
1000
,
0001
0100
0010
1000
,
0200
0000
1000
0000
,
0010
0010
0310
0000
,
0100
0000
1000
0000
,
0010
0100
0010
0100
,
0002
0000
1000
0000
,
0100
1000
0103
0000
,
0010
0000
1000
0000
,
0100
0010
0001
1000
,
0020
0000
0100
0000
,
1000
0100
1030
0000
,
0001
0010
0001
0001
,
0100
0010
1000
1000
,
1001
0000
0010
0100
,
0001
1100
0001
1100
,
0010
0001
0001
0100
,
0001
0010
0100
0100
,
1100
0000
0010
0001
,
0100
1001
0100
2002
,
3003
0000
0000
0000
;

//--------------- dance-single - ----------------
#NOTES:
     dance-single:
     Shortysnmn2010:
     Medium:
     6:
     0.367168,0.365447,0.090358,0.110437,0.341352,256,247,9,11,0,0,0.367168,0.365447,0.090358,0.110437,0.341352,256,247,9,11,0,0:
0000
0000
0000
0000
,
0000
0000
0000
0000
,
0000
0000
0000
0000
,
0000
0000
0000
0000
,
1000
0000
0000
0001
0000
1000
0001
0000
0000
1000
0000
0001
,
1000
0000
0000
0001
0000
1000
0001
0000
1000
0001
0000
2000
,
0000
0100
0000
3100
,
0000
0101
0000
1100
,
0010
0010
0001
0001
,
1000
0000
1000
0100
0000
0100
0010
0000
0010
0001
0000
0000
,
1000
1000
0010
0010
,
1000
0000
1000
0001
0000
0001
1000
0000
1000
0001
0000
0000
,
0010
0000
0000
0001
0000
0000
1000
0000
0100
0000
0000
0100
,
1000
0000
0000
0001
0000
0000
0010
0000
0000
0001
0000
0100
,
0000
0000
0001
0000
0000
0010
0100
0000
0000
1000
0000
0000
,
0010
1000
0001
0100
,
0010
0010
0100
0100
,
0001
0000
0001
0010
0000
0010
0100
0000
0000
1100
0000
0000
,
1000
0001
0010
0010
,
0001
0000
0001
1000
0000
1000
0001
0000
0000
0010
0000
0000
,
0100
1000
0010
1010
,
0100
0000
0000
0001
0000
0000
0010
0000
0000
0001
0000
1000
,
0000
0000
0001
1000
0000
0000
0000
0000
0001
1000
0000
0000
,
0010
0010
0010
1001
,
0100
0001
0010
0001
,
1000
0100
1000
0010
,
1000
0001
0100
1000
,
0000
0000
0100
0001
0000
0001
1000
0000
0010
0000
0000
0000
,
0100
0001
0010
1000
,
0010
0001
0100
1000
,
0000
0000
1000
0100
0000
0100
0001
0000
0100
0000
0000
0001
,
0000
0000
0100
0001
0000
0000
0010
0000
0001
0000
0000
0000
,
1000
0100
0010
0001
,
0010
0000
0100
1000
0000
0100
0010
0000
0001
0000
0000
0000
,
1000
0000
0000
0010
0000
0000
0100
0000
0100
0001
0000
0010
,
0000
0000
0010
0001
0000
0000
0100
0000
0100
0010
0000
0000
,
1000
0001
1000
0010
,
1000
0000
0001
0100
0000
0001
1000
0000
0010
0000
0000
0000
,
0100
0000
0000
0010
0000
0000
1000
0000
0100
0000
0000
0000
,
0010
0000
0010
0001
0000
0001
1000
0000
1000
0001
0000
0000
,
0100
0010
1000
0001
,
0010
0000
0100
1000
0000
0100
1000
0000
0100
0000
0000
0000
,
0010
0000
0000
0000
0000
0001
0100
0000
0001
0100
0000
0001
,
0000
0000
0100
0001
0000
0001
0100
0000
0100
0001
0000
0000
,
1000
0100
0010
0001
,
1000
0000
1000
0010
0000
0010
1000
0000
0010
0000
0000
0000
,
1000
0000
0000
0001
0000
0000
0010
0000
0001
0000
0000
0000
,
0100
0000
0000
0010
0000
0000
0100
0000
0001
0100
0000
0000
,
0010
0000
0000
1000
0000
0010
1000
0000
0000
0100
0000
1000
,
0100
0000
0000
0010
0000
0100
0010
0000
0000
0001
0000
2000
,
0000
0010
0001
3010
,
0100
2002
3003
2002
,
3003
0000
0000
0010
0000
0001
0010
0000
0000
0100
0000
0010
,
0100
0000
0000
1000
0000
0100
1000
0000
0000
0001
0000
0200
,
0000
0010
1000
0310
,
1000
0202
0303
0202
,
0303
0000
0000
0000
;

//--------------- dance-single - ----------------
#NOTES:
     dance-single:
     Shortysnmn2010:
     Hard:
     8:
     0.497685,0.562226,0.371471,0.220875,0.657604,347,310,37,22,21,0,0.497685,0.562226,0.371471,0.220875,0.657604,347,310,37,22,21,0:
0000
0000
0000
0000
,
0000
0000
0000
0000
,
0000
0000
0000
0000
,
0000
0000
0000
0000
,
1000
0000
0000
0001
0000
0100
0001
0000
0000
1000
0000
0010
,
1000
0000
0000
0001
0000
0010
0100
0000
1000
0100
0000
0010
,
0002
0100
1000
0103
,
MMMM
1100
MMMM
0011
,
1000
0000
0000
0001
0000
0010
0001
0000
0200
0000
0000
0310
,
1000
0000
1000
0001
0000
0001
0010
0000
0010
0100
0000
0000
,
1000
0000
0000
0010
0000
1000
0100
0000
0020
0000
0000
0030
,
0001
0000
0001
1000
0000
1000
0010
0000
0010
0100
0000
0000
,
0001
0000
0010
0001
0000
1000
0100
0000
0020
0000
0000
0031
,
1000
0000
0010
0100
0000
0001
0100
0000
0010
1000
0000
0200
,
0000
0000
0010
0000
0000
0310
0001
0000
0001
0010
0000
0010
,
0100
0000
0100
0010
0000
0010
0001
1000
0100
0010
0001
1000
,
0001
0000
0000
0101
0000
0010
1000
0000
0200
0000
0000
0310
,
0001
0000
0001
0100
0000
0100
1000
0000
0000
0110
0000
0000
,
0001
0000
0010
0001
0000
1000
0100
0000
2000
0000
0000
3010
,
0100
0000
0100
0001
0000
0001
0010
0000
0000
1001
0000
0000
,
0110
0000
1000
0001
0000
0001
1000
0000
0001
2000
0000
0000
,
3MMM
0000
0100
0010
0000
0001
0010
0000
0100
1000
0000
1010
,
0000
0000
0100
0001
0000
1001
0000
0000
1000
0100
0000
0000
,
0010
0000
0010
0001
0000
0001
0100
0010
1000
0010
0100
0001
,
2000
0100
3001
1001
,
0012
0000
0000
0100
0000
0000
1003
0000
0010
1000
0000
0000
,
0012
1000
0013
0110
,
0100
0000
1000
0010
0000
0001
0010
0000
1000
0000
0000
0000
,
0012
0100
0013
1001
,
2100
0000
0000
0010
0000
0000
3100
0000
0010
0001
0000
0000
,
0100
0000
0010
1000
0000
0100
2000
0000
0010
0000
0000
3001
,
0000
0000
0001
0010
0000
0000
0100
1000
0001
0010
0100
1000
,
0001
0100
1000
0100
,
0001
0000
0010
1000
0000
0010
0100
0000
1000
0000
0000
0000
,
2002
0000
3MM3
0000
0000
0010
1000
0000
0001
0010
0000
0200
,
0000
0000
1300
0001
0000
0001
1000
0000
0001
1000
0000
0000
,
0110
0000
0000
0100
0000
0000
0001
0000
0010
0100
0000
0001
,
0100
0000
1000
0100
0000
0010
0100
0000
1000
0000
0000
0000
,
2010
0000
3000
0001
0000
0010
0100
0000
1000
0000
0000
0000
,
0102
0000
1003
0100
0000
0010
0001
0010
0100
1000
0001
1000
,
0100
0010
0001
0100
,
1000
0000
1000
0100
0000
0100
0001
0000
1000
0000
0000
0000
,
0011
0000
0000
0011
0000
1000
0100
0000
0010
0100
0000
2000
,
0000
0000
3010
0100
0000
0100
0001
0000
0001
0010
0000
0000
,
1100
0000
0000
1100
0000
0000
0010
0000
0001
0100
0000
0010
,
1000
0000
1000
0001
0000
0010
0001
0000
0100
0000
0000
0000
,
0110
0000
0000
0110
0000
1000
0001
0000
0001
0000
0000
0000
,
0011
0000
0100
1000
0000
1000
0100
0010
0001
0010
1000
0010
,
0100
0000
0000
1100
0000
0100
1000
0000
0000
1100
0000
1000
,
0100
0000
0000
0110
0000
0100
0010
0000
0010
0100
0000
1001
,
0000
0010
0001
0100
,
0010
0000
0000
0101
0000
0000
0010
0000
0100
1000
0000
0000
,
0001
0000
0000
0101
0000
0001
0100
0000
0000
0101
0000
0100
,
0001
0000
0000
0110
0000
0100
0010
0000
0010
0100
0000
1001
,
0000
0010
1000
0100
,
MMMM
0011
MMMM
2200
,
3300
0000
0000
0000
;
