#TITLE:Roses Are Red;
#SUBTITLE:;
#ARTIST:Aqua;
#TITLETRANSLIT:;
#SUBTITLETRANSLIT:;
#ARTISTTRANSLIT:;
#GENRE:;
#CREDIT:;
#MUSIC:Aqua - Roses Are Red.mp3;
#BANNER:;
#BACKGROUND:;
#CDTITLE:;
#SAMPLESTART:44.487;
#SAMPLELENGTH:13.698;
#SELECTABLE:YES;
#OFFSET:-0.332;
#BPMS:0.000=139.963;
#STOPS:;
#BGCHANGES:;
#FGCHANGES:;

//--------------- dance-single - ----------------
#NOTES:
     dance-single:
     Shortysnmn2010:
     Beginner:
     1:
     0.105251,0.194057,0.045108,0.060144,0,98,92,6,8,0,0,0.105251,0.194057,0.045108,0.060144,0,98,92,6,8,0,0:
0000
0000
0000
0000
,
0000
0000
0000
0000
,
0000
0000
0000
0000
,
0000
0000
0000
1000
,
0000
0000
0000
0100
,
0000
0000
0000
0010
,
0000
0000
0000
0001
,
0000
0000
0000
0200
,
0000
0300
0000
0200
,
0000
0300
0000
1001
,
0000
0000
0000
1000
,
0000
0000
0000
1001
,
0000
0000
0000
0001
,
0000
0000
0000
0110
,
0000
0000
0000
0100
,
0000
0000
0000
0110
,
0000
0000
0000
0010
,
0000
0000
0000
1000
,
0000
0001
0000
1000
,
0000
0001
0000
1000
,
0000
1000
0000
0001
,
0000
0001
0000
1000
,
0000
1000
0000
0001
,
0000
0001
0000
1000
,
0000
0001
0000
1000
,
0001
1000
0001
1000
,
0000
0000
0000
0100
,
0000
0000
0000
0010
,
0000
0001
0000
0100
,
0000
0000
0000
0010
,
0000
0000
0000
1000
,
0000
0000
0000
0001
,
0000
0000
0000
0010
,
0000
0100
0000
2000
,
0000
0000
0000
0000
,
0000
3000
0000
0002
,
0000
0000
0000
0000
,
0000
0003
0000
0100
,
0000
0100
0000
0100
,
0000
0000
0000
0010
,
0000
0010
0000
0010
,
0000
0000
0000
1000
,
0000
0000
0000
0001
,
0000
0000
0000
0010
,
0000
0000
0000
0100
,
0000
0000
0000
1000
,
0000
0000
0000
0001
,
0000
0000
0000
0010
,
0000
0000
0000
0110
,
0000
0000
0000
0100
,
0000
0100
0000
0010
,
0000
0010
0000
0100
,
0000
0010
0000
0100
,
0000
0010
0000
0100
,
0000
0100
0000
0010
,
0000
0010
0000
0100
,
0000
0100
0000
0010
,
0000
0010
0000
0100
,
0000
0000
0000
1000
,
0000
0000
0000
0010
,
0000
0000
0000
0100
,
0000
0000
0000
0001
,
0000
0000
0000
1000
,
0000
0000
0000
0010
,
0000
0000
0000
0100
,
0000
0000
0000
0002
,
0000
0000
0000
1003
,
0000
0000
0000
2000
,
0000
0000
0000
3001
,
0000
0000
0000
0020
,
0000
0000
0000
0130
,
0000
0000
0000
0200
,
0000
0000
0000
0310
,
0000
0010
0000
1001
;

//--------------- dance-single - ----------------
#NOTES:
     dance-single:
     Shortysnmn2010:
     Easy:
     3:
     0.176135,0.249502,0.015036,0,0,164,162,2,0,0,0,0.176135,0.249502,0.015036,0,0,164,162,2,0,0,0:
0000
0000
0000
0000
,
0000
0000
0000
0000
,
0000
0000
0000
0000
,
0000
0000
0000
1000
,
0000
0000
0000
0010
,
0000
0100
0000
0010
,
0000
0000
0000
0100
,
0000
0001
0000
0100
,
0000
0000
0000
0010
,
0000
0000
0000
1000
,
0000
1000
0000
1000
,
0000
0000
0000
0001
,
0000
0001
0000
0001
,
0000
0000
0000
0010
,
0000
0010
0000
0010
,
0000
0000
0000
0100
,
0000
0100
0000
1001
,
0000
0000
0000
1000
,
0001
1000
1000
0001
,
1000
0001
0001
1000
,
0001
1000
1000
0001
,
1000
0001
0000
0010
,
0100
0010
0010
0100
,
0010
0100
0100
0010
,
0100
0010
0010
0100
,
0010
0100
0000
1000
,
0000
0010
0100
0001
,
0000
1000
0000
0001
,
0000
0010
0000
0001
,
0000
0000
0000
1000
,
0000
0001
0100
0010
,
0000
1000
0000
0001
,
0000
0010
0000
0001
,
0000
0000
0000
1000
,
0000
0001
0000
0010
,
0000
0001
0000
1000
,
0001
1000
0000
0001
,
1000
0001
0000
1000
,
0000
0010
0000
0100
,
0000
0010
0000
1000
,
0000
0000
0000
0001
,
0000
0000
0000
0010
,
0000
0000
0000
0100
,
0000
0000
0000
1000
,
0000
0000
0000
0010
,
0000
0000
0000
0100
,
0000
0000
0000
0001
,
0000
0000
0000
0010
,
0000
0000
0000
0100
,
0000
0000
0000
1000
,
0100
1000
1000
0100
,
1000
0100
0100
1000
,
0100
1000
1000
0100
,
1000
0100
0000
0010
,
0001
0010
0010
0001
,
0010
0001
0001
0010
,
0001
0010
0010
0001
,
0010
0001
0000
0100
,
0000
0001
0000
1000
,
0010
0100
0000
0001
,
0000
1000
0000
0001
,
0010
0100
0000
1000
,
0000
0001
0000
1000
,
0100
0010
0000
0001
,
0000
1000
0000
0001
,
0000
0000
1000
0000
0000
0001
0000
0001
,
0000
0000
1000
0000
0000
0010
0000
0010
,
0000
0000
1000
0000
0000
0100
0000
0100
,
0000
0010
0000
0001
,
0000
0000
0100
0000
0000
0010
0000
0010
,
0000
0000
1000
0000
0000
0001
0000
0001
,
0000
0000
0100
0000
0000
0010
0000
0010
,
0000
1000
0000
0100
,
0000
0010
0000
0110
;

//--------------- dance-single - ----------------
#NOTES:
     dance-single:
     Shortysnmn2010:
     Medium:
     5:
     0.283534,0.362835,0.090215,0.052626,0,264,252,12,7,0,0,0.283534,0.362835,0.090215,0.052626,0,264,252,12,7,0,0:
0000
0000
0000
0000
,
0000
0000
0000
0000
,
0000
0000
0000
0000
,
0000
0000
0000
1000
,
0000
0000
0000
0001
,
0000
0010
0000
0100
,
0000
0000
0000
1000
,
0000
0001
0000
2000
,
0000
0000
3000
0002
,
0003
2000
3000
0010
,
0010
0010
0000
0100
,
0100
0100
0000
0001
,
0001
0001
0000
1000
,
0000
0010
0000
1000
,
1000
1000
0000
0100
,
0100
0100
0000
0010
,
0000
0001
0000
1001
,
0000
0000
0000
1000
,
0100
0010
0001
0001
,
1000
0010
1000
1000
,
0001
0100
0010
1000
,
0100
0000
0010
0001
0100
0000
0010
0000
,
0010
1000
0100
0010
,
0010
0001
1000
0100
,
0100
0010
0001
1000
,
1000
0000
0010
0100
0001
0000
1000
0000
,
0100
1000
0100
0000
1000
0000
0010
0000
,
0100
0101
0000
0001
,
0010
0001
0010
0000
0100
0000
1000
0000
,
0001
0011
0000
1000
,
0100
1000
0100
0000
0001
0000
0100
0000
,
1000
0100
1000
0000
0000
0000
0001
0000
,
0010
0000
1000
0000
0010
0000
0001
1000
,
0001
1000
0001
0000
0000
1000
0000
0100
,
0000
0010
0000
0001
1000
0001
0000
1000
,
0000
0010
0000
1000
0001
0000
0100
0000
,
0010
0000
1000
0000
0001
0010
0000
0001
,
0100
0001
0000
0100
0001
0000
0000
0100
,
0010
2000
0100
3010
,
0002
0000
0100
0000
0013
0000
0000
0100
,
0000
0100
1000
0000
0001
0000
0110
0000
,
0110
0000
1000
0001
1000
0000
0001
0100
,
0000
0100
0001
0000
1000
0000
0000
0000
,
0010
0000
0000
0000
1000
0000
0100
0010
,
0000
0010
0001
0000
0100
0000
0000
0000
,
0010
0000
0000
0000
1000
0000
0001
0100
,
0000
0100
0010
0000
1000
0000
0000
0000
,
0001
0000
0000
0000
0010
0000
0100
0010
,
0000
0010
0100
0000
1000
0000
0000
0000
,
0001
0000
0100
0010
,
1000
0001
0001
0100
,
0010
1000
1000
0001
,
0010
1000
0010
0001
,
1000
0000
0001
0100
0001
0000
1000
0000
,
1000
0010
0100
0010
,
0010
0100
0001
0010
,
0100
0010
1000
0010
,
0001
0000
1000
0001
1000
0000
0001
0100
,
0000
0100
0001
0000
1000
0000
0000
0010
,
0000
0010
1000
0000
0001
0000
0000
0100
,
0000
0100
0001
0000
1000
0000
0000
0100
,
1000
0000
0001
0000
0010
0000
0000
1000
,
0000
1000
0010
0000
0001
0000
0000
1000
,
0000
1000
0010
0000
0100
0000
0000
0001
,
0000
0001
0100
0000
1000
0000
0100
0000
,
0001
0000
1001
0000
0000
0010
0000
0101
,
0000
0000
0000
0000
0000
0010
0000
1100
,
0000
0000
0000
0000
0000
1000
0000
0110
,
0000
0000
0000
0000
0000
0000
0000
0001
,
0010
0000
0100
0000
1000
0010
0000
0110
,
0000
0000
0000
0000
0000
0001
0000
0011
,
0000
0000
0000
0000
0000
1000
0000
1100
,
0000
0000
0100
0010
0100
0000
1000
0000
,
0001
0100
0002
0000
0000
0000
2000
0000
,
0000
3003
0000
0000
;

//--------------- dance-single - ----------------
#NOTES:
     dance-single:
     Shortysnmn2010:
     Hard:
     9:
     0.526256,0.582171,0.187949,0.090215,0.432282,490,465,25,12,0,0,0.526256,0.582171,0.187949,0.090215,0.432282,490,465,25,12,0,0:
0000
0000
0000
0000
,
0000
0000
0000
0000
,
0000
0000
0000
0000
,
0000
0000
0000
1000
,
0100
0000
0010
0000
0001
0000
1000
0010
,
1000
0010
2000
0000
3000
0000
0001
0000
,
0010
0001
0100
0000
0001
0000
0010
0000
,
0100
1000
0010
0000
0000
0000
0100
0000
,
0001
1000
0001
1000
0001
0000
0010
0000
,
0100
0000
0010
0000
0100
0000
0010
0000
0100
0000
0000
0000
1000
0000
0001
0100
,
0001
0000
1000
0010
1000
0000
0001
0100
0001
0000
0000
0000
1000
0000
0100
0010
,
0100
0000
0010
0001
0010
0000
0100
0010
0100
0000
0000
0000
1000
0000
0100
1000
,
0100
0000
1000
0001
1000
0000
0001
0100
0001
0000
0000
0000
1000
0000
0010
1000
,
0010
0000
0100
0001
0100
0000
0010
0100
0010
0000
0000
0000
4000
0004
0000
0000
,
0000
0000
0000
0000
0000
0000
0000
0000
3003
0000
0000
0000
0400
0040
0000
0000
,
0000
0000
0000
0000
0000
0000
0000
0000
0330
0000
0000
0000
0004
4000
0000
0000
,
0000
0000
3003
0110
,
0000
0000
0000
0000
0000
0000
1000
0001
,
0100
0000
0001
0000
1000
0010
0000
0100
0000
0010
1000
0000
0001
0000
0010
0000
,
0100
0000
0010
0000
0001
1000
0000
0100
0000
0010
0100
0000
0010
0000
0001
0000
,
1000
0000
0100
0000
0001
0100
0000
0010
0000
0100
1000
0000
0001
0000
0010
0000
,
1000
0000
0010
0000
0001
1000
0000
0010
0000
0100
0001
0000
1000
0000
0010
0000
,
0001
0000
0010
0000
0100
0001
0000
1000
0000
0010
0001
0000
0010
0000
1000
0000
,
0001
0000
0010
0000
0100
1000
0000
0001
0000
0010
1000
0000
0010
0000
0100
0000
,
1000
0000
0100
0000
0010
0001
0000
0100
0000
0001
0010
0000
0100
0000
1000
0000
,
0010
0000
1000
0000
0001
0100
0000
1000
0000
0100
0001
0000
1000
0000
0100
0010
,
0100
0000
1000
0000
0001
0000
0010
0000
0001
0000
0000
0000
0100
0000
0010
0100
,
0010
0000
1000
0000
0001
0000
0010
0000
0100
0000
0000
0000
1000
0000
0100
1000
,
0100
0000
1000
0000
0001
0000
0010
0000
0100
0000
1000
0000
0001
0000
0100
0001
,
0100
0000
0010
0000
2000
0000
0000
0000
3000
0000
0000
0000
0001
0000
0010
0100
,
1000
0000
0001
0000
0010
0000
0001
0000
1000
0000
0000
0000
0010
0000
1000
0001
,
0100
0000
0001
0000
1000
0000
0010
0000
0100
0000
0000
0000
0001
0000
0010
0001
,
1000
0000
0100
0000
1000
0000
0010
0000
0100
0000
0001
0000
1000
0000
0100
0010
,
0001
1000
0020
0000
0030
0000
0000
1100
,
0000
0010
0000
0000
0001
0000
0000
0100
0000
0000
1010
0000
0000
0000
1001
0000
,
0000
0010
0000
0000
0100
0000
0000
1000
0000
0000
0110
0000
0000
0000
0101
0000
,
0000
0010
0000
0000
1000
0000
0000
0001
0000
0000
1100
0000
0000
0000
0011
0000
,
0000
0100
0000
0000
1000
0000
0000
0010
0000
0000
0101
0000
0000
0000
1000
0000
,
0100
0020
0001
0030
0100
0020
1000
0030
,
0100
0020
0001
0031
1100
0000
0000
1001
,
0000
0000
0001
0000
0100
0000
1000
0000
0100
0000
0001
0000
0040
0400
0000
0000
,
0000
0000
0000
0000
0000
0000
0330
0000
0000
0000
0000
0000
0001
0000
1000
0100
,
0010
0000
0100
0010
0001
0000
0010
0001
1000
0000
0000
0000
0001
0000
0100
0010
,
1000
0000
0001
0100
0010
0000
1000
0001
0010
0000
0000
0000
0100
0000
1000
0100
,
0010
0000
0001
0010
0100
0000
1000
0100
0010
0000
0000
0000
0001
0000
0100
0010
,
1000
0000
0100
0010
0001
0000
0100
0010
1000
0000
0000
0000
0004
0400
0000
0000
,
0000
0000
0000
0000
0000
0000
0000
0000
0303
0000
0000
0000
0040
4000
0000
0000
,
0000
0000
0000
0000
0000
0000
0000
0000
3030
0000
0000
0000
4000
0004
0000
0000
,
0000
0000
0000
0000
0000
0000
0000
0000
3003
0000
0000
0000
0040
0400
0000
0000
,
0000
0000
0000
0000
0330
0000
0001
1000
,
0010
0000
1000
0000
0001
0100
0000
1000
0000
0100
0001
0000
1000
0000
0010
0000
,
0100
0000
0001
0000
0010
0100
0000
0010
0000
1000
0010
0000
0001
0000
1000
0000
,
0100
0000
0001
0000
0100
0010
0000
0001
0000
0100
0010
0000
1000
0000
0010
0000
,
0001
0000
1000
0000
0100
0001
0000
1000
0000
0010
1000
0000
0001
0000
0100
0000
,
1000
0000
0001
0000
0010
1000
0000
0001
0000
0010
0001
0000
0100
0000
0010
0000
,
0100
0000
0001
0000
0010
0100
0000
1000
0000
0010
0100
0000
0001
0000
0100
0000
,
0010
0000
1000
0000
0100
0010
0000
0001
0000
0010
0001
0000
0100
0000
1000
0000
,
0100
0000
0001
0000
1000
0010
0000
0100
0000
0001
1000
0000
0000
0000
2010
0000
,
0000
0001
0000
0000
0100
0000
0000
0100
0000
0000
3010
0000
0000
0000
0102
0000
,
0000
1000
0000
0000
0010
0000
0000
1000
0000
0000
1003
0000
0000
0000
0210
0000
,
0000
0001
0000
0000
1000
0000
0000
0010
0000
0000
0310
0000
0000
0000
1000
0000
,
0001
0010
0100
1000
0001
0100
0000
1020
,
0000
0001
0000
0000
0100
0000
0000
0100
0000
0000
1030
0000
0000
0000
1002
0000
,
0000
0010
0000
0000
0100
0000
0000
1000
0000
0000
0013
0000
0000
0000
2100
0000
,
0000
0010
0000
0000
0100
0000
0000
0100
0000
0000
3001
0000
0010
0000
0000
0000
,
0100
1000
0010
0000
0000
0101
0000
1001
,
0000
0000
1000
0000
0010
0100
0010
0000
1000
0000
0001
0000
0000
0000
0011
0000
,
0000
0000
0100
0000
1000
0001
0010
0000
0001
0000
1000
0000
0000
0000
1010
0000
,
0000
0000
0100
0000
0001
0010
0001
0000
1000
0000
0100
0000
0000
0000
0010
0000
,
0001
1000
0100
0010
0100
1000
0000
1001
,
0000
0000
0001
0000
0100
0010
1000
0000
0001
0000
0010
0000
0000
0000
1100
0000
,
0000
0000
0010
0000
0001
1000
0010
0000
0100
0000
0001
0000
0000
0000
0110
0000
,
0000
0000
1000
0000
0001
0010
0001
0000
1000
0000
0100
0000
0040
0400
0000
0000
,
0000
0000
0330
1001
;
