#TITLE:Ooh Aah (Just A Little Bit);
#SUBTITLE:;
#ARTIST:Gina G;
#TITLETRANSLIT:;
#SUBTITLETRANSLIT:;
#ARTISTTRANSLIT:;
#GENRE:;
#CREDIT:;
#MUSIC:Ooh Aah (Just A Little Bit).mp3;
#BANNER:;
#BACKGROUND:;
#CDTITLE:;
#SAMPLESTART:42.907;
#SAMPLELENGTH:13.694;
#SELECTABLE:YES;
#OFFSET:-0.056;
#BPMS:0.000=140.000
,99.000=143.000
,100.000=140.001
;
#STOPS:;
#DISPLAYBPM:140.000;
#BGCHANGES:;
#FGCHANGES:;

//--------------- dance-single - ----------------
#NOTES:
     dance-single:
     Shortysnmn2010:
     Beginner:
     1:
     0.109701,0.142557,0.030412,0,0,101,97,4,0,0,0,0.109701,0.142557,0.030412,0,0,101,97,4,0,0,0:
0000
0000
0000
0000
,
0000
0000
0000
0000
,
0000
0000
0000
0000
,
0000
0000
0000
0000
,
0000
0000
0000
0000
,
0001
0000
1000
0000
,
0001
0000
1000
0000
,
0001
0000
0000
0000
,
1001
0000
0000
0000
,
1000
0000
0000
0000
,
0010
0000
0000
0000
,
0100
0000
0000
0000
,
0001
0000
0000
0000
,
1000
0000
0000
0000
,
0010
0000
1000
0000
,
0001
0000
0000
0000
,
0010
0000
0000
0000
,
0100
0000
0100
0000
,
0100
0000
0000
0000
,
0010
0000
0000
0000
,
0001
0000
0000
0000
,
0100
0000
0100
0000
,
0100
0000
0000
0000
,
0010
0000
0000
0000
,
1000
0000
0000
0000
,
0001
0000
1000
0000
,
0001
0000
0001
0000
,
0001
0000
1000
0000
,
1000
0000
0001
0000
,
0001
0000
1000
0000
,
1000
0000
0001
0000
,
1000
0000
1000
0000
,
0001
0000
0000
0000
,
0010
0000
0100
0000
,
0100
0000
0000
0000
,
0010
0000
0100
0000
,
0010
0000
0000
0000
,
0001
0000
0001
0000
,
0001
0000
0000
0000
,
1000
0000
1000
0000
,
1000
0000
0000
0000
,
0010
0000
0000
0000
,
1000
0000
0000
0000
,
0001
0000
0000
0000
,
0100
0000
0000
0000
,
0010
0000
0000
0000
,
1000
0000
0000
0000
,
0001
0000
0000
0000
,
0010
0000
0000
0000
,
0100
0000
0000
0000
,
0100
0000
0000
0000
,
1000
0000
0100
0000
,
0100
0000
1000
0000
,
0100
0000
0000
0000
,
1100
0000
0000
0000
,
0010
0000
0001
0000
,
0001
0000
0010
0000
,
0010
0000
0000
0000
,
0011
0000
0000
0000
,
0001
0000
1000
0000
,
1000
0000
0000
0000
,
0010
0000
0100
0000
,
0100
0000
0000
0000
,
0010
0000
0100
0000
,
0010
0000
0000
0000
,
1000
0000
1000
0000
,
0001
0000
0000
0000
,
1000
0000
0100
0000
,
1000
0000
0000
0000
,
0001
0000
0000
0000
,
0010
0000
0000
0000
,
0001
0000
0001
0000
,
0010
0000
0000
0000
,
0001
0000
0000
0000
,
0100
0000
0000
0000
,
0110
0000
0000
0000
;

//--------------- dance-single - ----------------
#NOTES:
     dance-single:
     Shortysnmn2010:
     Easy:
     4:
     0.235695,0.256603,0.083634,0.053221,0,217,206,11,7,0,0,0.235695,0.256603,0.083634,0.053221,0,217,206,11,7,0,0:
0000
0000
0000
0000
,
0000
0000
0000
0000
,
0000
0000
0000
0000
,
0000
0000
0000
0000
,
0000
0000
0000
0000
,
1000
0001
0010
0001
,
1000
0100
1000
0000
,
0002
0003
2000
3000
,
0002
1003
2000
3001
,
1001
0000
1000
0100
,
0010
0010
0000
0001
,
0001
0000
0100
0010
,
0010
0000
0000
0000
,
1000
0000
0001
0100
,
0010
0010
0000
1000
,
1000
0000
0100
0010
,
0010
0000
0000
0000
,
0001
0100
1000
0100
,
0001
1000
0001
0010
,
0001
0000
1000
0000
,
0010
0000
0100
0000
,
0010
1000
0010
1000
,
0100
1000
0010
0100
,
0010
0000
0100
0000
,
0010
0000
0000
0100
0020
0000
0030
0000
,
1000
0100
1000
0000
,
0001
0010
0001
0100
,
0001
0010
0001
0000
,
1000
0000
0100
0000
,
0010
0100
0010
0000
,
0100
1000
0010
1000
,
0100
0010
0100
0000
,
0010
0000
0001
0000
,
0100
0001
1000
0010
,
1000
0001
0100
0000
,
0001
1000
0100
1000
,
0001
0010
1000
0000
,
0010
0001
0100
1000
,
0100
0010
1000
0000
,
0100
0000
0010
0000
,
0200
0310
0020
0130
,
0110
0000
0001
0000
,
1001
0000
1000
0000
,
0110
0000
0010
0000
,
0101
0000
0001
0000
,
1010
0000
1000
0000
,
1100
0000
0100
0000
,
0011
0000
0010
0000
,
1001
0000
1000
0000
,
1001
0000
0001
0000
,
1000
0001
1000
0001
,
0010
0100
1000
0000
,
0010
0100
0001
0000
,
1000
0100
1000
0000
,
0001
0100
0001
0001
,
0010
0001
0010
0000
,
0100
1000
0100
0000
,
1000
0010
1000
0000
,
0010
0100
0010
0100
,
0100
0001
0100
0000
,
0010
1000
0001
0000
,
0010
0001
0100
0000
,
0010
1000
0100
0001
,
0100
1000
0100
0000
,
0010
0001
1000
0000
,
0010
1000
0100
0000
,
0001
0100
1000
0100
,
0001
0000
0100
0000
,
1000
0000
0010
0001
,
0010
0000
1000
0000
,
0100
0010
0100
1000
,
0010
0000
0001
0000
,
0010
1000
0100
0000
,
0010
0000
0100
0000
,
1000
1000
0001
0001
,
0110
0000
0000
0000
;

//--------------- dance-single - ----------------
#NOTES:
     dance-single:
     Shortysnmn2010:
     Medium:
     6:
     0.350827,0.399161,0.243298,0.136855,0,323,291,32,18,0,0,0.350827,0.399161,0.243298,0.136855,0,323,291,32,18,0,0:
0000
0000
0000
0000
,
0000
0000
0000
0000
,
0000
0000
0000
0000
,
0000
0000
0000
0000
,
0000
0000
0000
0000
,
1000
0100
1000
0000
0001
0000
0100
0000
,
0001
0010
0001
0000
1000
0000
0001
0000
,
1001
0000
0110
0000
,
1001
0110
2002
3003
,
1000
0000
0001
0010
0001
0000
0100
0010
,
0100
0000
0010
0000
1000
0000
0100
0010
,
0100
0000
0010
0000
0001
0000
0100
0010
,
0100
0010
1000
0000
,
0001
0000
0010
0001
0100
0000
0100
0001
,
0010
0001
0100
0010
,
2000
0000
3000
0000
0000
0001
0000
0010
,
0100
0000
0000
1000
0010
0000
0000
0100
,
0010
0000
0100
0001
0010
0000
0010
0001
,
0100
0020
0030
1000
,
0002
0000
0003
0000
0000
0010
0000
0110
,
0000
2200
0000
0000
0000
0000
3300
0000
,
0010
0000
0001
0100
0010
0000
1000
0100
,
0020
0000
0030
0001
1000
0000
0001
0000
,
0101
0000
1010
0000
,
1100
0011
1001
0110
,
1000
0000
0001
0000
0010
0001
0100
0000
,
0001
0000
1000
0000
0100
0001
0100
0000
,
1000
0000
0001
0000
0010
0001
0100
0000
,
0010
0100
0010
0100
0010
0000
0110
0000
,
0010
0000
1000
0000
0100
1000
0010
0000
,
1000
0000
0001
0000
0100
1000
0100
0000
,
0001
0000
0010
0000
0100
1000
0010
0000
,
1000
0001
1000
0001
1000
0000
1001
0000
,
0001
0000
0100
0000
0010
0100
0010
0000
,
1000
0001
0011
0000
,
0001
0000
1000
0000
0100
0010
0100
0000
,
0001
0100
1100
0000
,
1000
0000
0010
0000
0100
1000
0100
0000
,
0010
1000
1100
0000
,
0010
0000
0001
0000
0100
0010
0100
0000
,
0001
0010
0011
0000
,
0012
0000
1000
0000
,
0100
0000
0010
0000
,
2003
0000
0100
0000
,
0010
0000
0001
0000
,
3200
0000
0001
0000
,
0010
0000
0010
0000
,
2300
0000
0010
0000
,
0100
0000
0001
0000
,
3010
0000
0110
0000
,
0001
1000
0001
1000
,
0010
0000
0100
0000
0010
1000
0200
0000
,
0300
0000
0010
0000
0001
0100
0020
0000
,
0030
0000
0100
0000
0010
1000
0200
0000
,
0310
0110
0110
0110
,
0001
0000
1000
0000
0100
1000
0002
0000
,
0003
0000
0100
0000
0010
1000
0200
0000
,
0300
0000
0010
0000
0001
1000
0200
0000
,
1300
1010
1001
1010
,
0100
0000
0001
0000
1000
0100
1000
0000
,
0001
0100
0010
0010
,
1000
0000
0001
0000
0010
0100
0010
0000
,
0001
0100
0001
0100
0001
0000
1001
0000
,
1000
0000
0010
0000
1000
0001
1000
0000
,
0100
0001
0100
1000
,
0010
0000
0100
0000
0010
1000
0100
0000
,
0010
0100
0010
0100
0010
0000
0110
0000
,
0100
0000
1000
0000
0010
1000
0010
0000
,
1000
0100
0010
0001
,
0100
0000
0010
0000
0100
0001
0100
0000
,
0010
1000
0001
1000
0010
0000
1010
0000
,
1000
0000
0001
0000
0010
1000
0010
0000
,
0001
0100
1000
0100
,
0010
0000
1000
0000
0100
0010
0100
0000
,
0010
0001
0010
0001
0010
0000
0110
0000
,
1001
0000
0000
0000
;

//--------------- dance-single - ----------------
#NOTES:
     dance-single:
     Shortysnmn2010:
     Hard:
     7:
     0.42903,0.484695,0.250901,0.144458,0.144458,395,362,33,19,0,0,0.42903,0.484695,0.250901,0.144458,0.144458,395,362,33,19,0,0:
0000
0000
0000
0000
,
0000
0000
0000
0000
,
0000
0000
0000
0000
,
0000
0000
0000
0000
,
0000
0000
0000
0000
,
0001
0000
0100
0000
0001
0000
1000
0000
0010
0000
0100
0001
0000
0000
0000
0000
,
0010
0000
0001
0000
1000
0000
0001
0000
0100
0000
0010
0100
0000
0000
0000
0000
,
0001
0000
0010
0000
0001
0000
1000
0000
0100
0000
0010
0001
0000
0000
0000
0000
,
1000
0000
0010
0000
0100
0000
0001
0000
1000
0000
0001
1000
0000
0000
0000
0000
,
0010
0001
0010
0001
1000
0100
1000
0100
,
0010
0001
0200
0000
0300
0010
1000
0000
,
2002
0000
3003
0000
0000
0100
1000
0000
,
0220
0330
0000
0000
,
1000
0010
1000
0010
0100
0001
0100
0001
,
0010
0100
2000
0000
3000
0010
0100
0000
,
2020
0000
3030
0000
0000
0100
0000
0001
,
0100
0001
0000
1000
0010
1000
0000
0100
,
0010
0001
1000
0001
1000
0100
0010
0001
,
1000
0001
0100
0010
1000
0001
1000
0100
,
0020
0000
0000
0030
0000
0001
1000
0001
,
0000
0220
0000
0000
0000
0330
0000
0000
,
0100
0001
0010
0001
0100
0010
0100
0001
,
2000
0000
0000
0100
0000
0000
3001
0000
0020
0000
0000
0000
0030
0000
0000
0000
,
1100
0000
0011
0000
,
0110
1001
0110
0110
,
1000
0000
0001
0000
0010
0100
1000
0010
,
0001
0000
0010
0000
0100
0002
0010
0000
,
1003
0000
0100
0000
1000
0010
0100
0001
,
1000
0100
0000
0010
0000
0001
0000
0010
0000
0100
0000
1000
0000
0000
0000
0000
,
0010
0000
0100
0000
0001
0010
1000
0010
,
0100
0000
1000
0000
0010
0200
0001
0000
,
0310
0000
1000
0000
0001
0010
1000
0010
,
0001
1000
0000
0001
0000
0100
0000
0001
0000
0010
0000
0001
0000
0000
0000
0000
,
1000
0100
0010
0001
0100
0000
1001
0000
,
0010
1000
0001
1000
0100
0010
0002
0000
,
1003
0010
0100
0010
1000
0000
0110
0000
,
0001
1000
0100
0001
0100
1000
0020
0000
,
0130
0001
1000
0001
0100
0000
1010
0000
,
0100
0001
0010
1000
0010
0100
2000
0000
,
3001
0100
0010
1000
0001
0000
0110
0000
,
1000
0000
0001
0000
1000
0000
0000
0000
4000
0004
0000
0000
0000
0000
0000
0000
,
3003
0000
0010
0000
,
1001
0000
0100
0000
,
1010
0000
0001
0000
,
0110
0000
0001
0000
,
1100
0000
0010
0000
,
1001
0000
0100
0000
,
0011
0000
0001
0000
,
1010
0000
0100
0000
,
0001
0000
1000
0000
,
0004
4000
0000
0000
0000
0000
0000
0000
0000
0000
0000
0000
3003
0000
0000
0000
,
1000
0000
0001
0000
0010
0100
1000
0000
,
0001
0000
1000
0000
0010
0100
0001
0000
,
1000
0000
0100
0000
0010
0001
0100
0000
,
0010
0100
0010
0100
0010
0100
0010
0100
,
0010
0000
1000
0000
0100
0010
0001
0000
,
1000
0000
0001
0000
0100
0001
1000
0000
,
0010
0000
0001
0000
0010
1000
0100
0000
,
0001
0100
0001
0100
1000
0100
1000
0100
,
0010
0000
0001
0000
0100
0001
0010
0001
,
0100
0000
0010
0000
1000
0001
1000
0000
,
0100
0000
0010
0000
0001
1000
0100
1000
,
0001
0100
0000
0010
0000
0100
0000
0001
0000
1000
0000
0001
0000
0000
0000
0000
,
0010
0000
0100
0000
1000
0010
0001
0010
,
1000
0000
0001
0000
0100
0001
0010
0000
,
0001
0000
1000
0000
0001
0100
1000
0100
,
0001
0010
0000
0001
0000
1000
0000
0100
0000
0010
0000
0100
0000
0000
0000
0000
,
1100
0000
1100
0000
0010
0001
0100
0000
,
0101
0000
0101
0000
0010
1000
0100
0000
,
0011
0000
0011
0000
0100
1000
0010
0000
,
0100
0001
0000
0100
0000
0010
0000
0100
0000
0001
0000
0100
0000
0000
0000
0000
,
1001
0000
1001
0000
0010
0100
1000
0000
,
0110
0000
0110
0000
0001
0100
0010
0000
,
1001
0000
1001
0000
0010
0001
0100
0000
,
0001
0000
0010
0000
0100
0000
0010
0000
0001
0000
1000
0002
0000
0000
0000
0000
,
1003
0000
0000
0000
;

//--------------- dance-single - ----------------
#NOTES:
     dance-single:
     Shortysnmn2010:
     Challenge:
     9:
     0.583263,0.570229,0.258504,0.159664,0.47139,537,503,34,21,0,0,0.583263,0.570229,0.258504,0.159664,0.47139,537,503,34,21,0,0:
0000
0000
0000
0000
,
0000
0000
0000
0000
,
0000
0000
0000
0000
,
0000
0000
0000
0000
,
0000
0000
0000
0000
,
1000
0000
0001
0000
0100
0000
0001
0000
1000
0000
0010
0100
0000
0010
0100
0010
,
0100
0000
0001
0000
1000
0000
0001
0000
0010
0000
0100
2000
0000
0000
3000
0000
,
0001
0000
0010
0000
0001
0000
0100
0000
0010
0000
0100
0001
0000
1000
0001
1000
,
0001
0000
0010
0000
0100
0000
1000
0000
0010
0000
0100
0020
0000
0000
0030
0000
,
1000
0001
1000
0001
0010
0001
1000
0100
,
0010
0100
0000
0100
1000
0000
0001
0000
0010
0000
1000
0000
0010
0000
0100
1000
,
0100
0000
0010
0000
0001
0000
0100
0000
0010
0000
1000
0000
0010
0000
0100
0001
,
0100
0010
0000
1000
0000
0001
0000
0010
,
0100
1000
0100
1000
0010
0100
0010
0100
,
0001
0000
0010
0001
1000
0000
0010
0000
1000
0000
0001
0000
0010
0000
0001
1000
,
0100
1000
0001
0100
0010
0100
0000
0001
,
1000
0001
0000
0010
0100
0010
0000
0001
,
0100
1000
0100
0010
1000
0001
0100
0010
,
1000
0001
0000
0001
0010
0000
0100
0000
0010
0000
0001
0000
0100
0000
0010
1000
,
0001
0100
0001
1000
0100
0001
0100
2000
,
0000
0002
0000
0000
0000
3003
0000
0000
,
1000
0010
0001
0010
0100
1000
0100
0001
,
2000
0000
0000
0100
0000
0000
3001
0000
0020
0000
0000
0000
0030
0000
0000
0000
,
0011
0000
1100
0000
,
1001
1000
0001
1000
,
1100
0000
0000
0000
1001
0000
0000
0000
0010
0000
0001
0100
0000
0100
0001
0000
,
1000
0000
0000
0000
1100
0000
0000
1000
0001
0010
0001
0000
0100
0000
0000
0000
,
1010
0000
0000
0000
1001
0000
0000
0000
0100
0000
0001
1000
0000
1000
0001
0000
,
1000
0100
0000
0010
0000
0001
0000
0010
0000
0100
0000
2000
0000
0000
3000
0000
,
0010
0000
0000
0000
1001
0000
0000
0000
0100
0000
0010
1000
0000
0010
1000
0000
,
0001
0000
0000
0000
0110
0000
0000
1000
0001
0010
0001
0000
0100
0000
0000
0000
,
0010
0000
0000
0000
0101
0000
0000
0000
0010
0000
1000
0100
0000
1000
0100
0010
,
0001
0010
0000
0100
0000
1000
0000
0100
0000
0001
0000
0100
0000
0000
0000
0000
,
0010
0000
0001
0000
1000
0000
0100
0000
0001
0000
0100
1000
0000
0100
0010
0001
,
0010
0000
0100
0000
1000
0000
0001
0000
0010
0000
0001
0200
0000
0000
0300
0000
,
0001
0000
1000
0000
0010
0000
0100
0000
0010
0000
0001
0010
0000
0100
0010
1000
,
0001
0000
0100
0000
1000
0000
0100
0000
0001
0000
1000
0020
0000
0000
0030
0000
,
1000
0000
0001
0000
0100
0000
0001
0000
0010
0000
0001
1000
0000
0100
1000
0001
,
0010
0000
1000
0000
0010
0000
0001
0000
1000
0000
0010
0200
0000
0000
0300
0000
,
0001
0000
1000
0000
0010
0000
1000
0000
0001
0000
0100
0001
0000
1000
0010
1000
,
0010
0000
0001
0000
0010
0000
1000
0000
0001
0000
1000
0002
0000
0000
0003
0000
,
1000
0000
0000
0000
1100
0000
0000
0000
0010
0000
0000
0010
0000
0000
0001
0000
,
1000
0000
0000
0000
0110
0000
0000
0000
0001
0000
0000
0001
0000
0000
1000
0000
,
0010
0000
0000
0000
0101
0000
0000
0000
1000
0000
0000
1000
0000
0000
0010
0000
,
1000
0000
0000
0000
0011
0000
0000
0000
0100
0000
0000
0100
0000
0000
0000
0000
,
1100
0000
0000
0000
1001
0000
0000
0000
0010
0000
0000
0001
0000
0000
0100
0000
,
0010
0000
0000
0000
0101
0000
0000
0000
0010
0000
0000
1000
0000
0000
0100
0000
,
0010
0000
0000
0000
1001
0000
0000
0000
0010
0000
0000
0001
0000
0000
0100
0000
,
0010
0000
0000
0000
0110
0000
0000
0000
0100
0000
0000
0001
0000
0000
1000
0000
,
0100
0010
1100
0010
,
0101
0011
1001
1001
,
1000
0000
0010
0000
1000
0000
0100
0000
1000
0000
0010
0100
0000
0010
0100
0010
,
0100
0000
0010
0000
1000
0000
0100
0000
0010
0000
0100
1000
0000
0000
0000
0000
,
0001
0000
0100
0000
0010
0000
0100
0000
0001
0000
0010
0100
0000
0010
0100
0010
,
0200
0000
0000
0300
0022
0000
0000
0033
0200
0000
0000
0300
0022
0000
0000
0033
,
0100
0000
1000
0000
0001
0000
0100
0000
1000
0000
0100
0001
0000
1000
0001
1000
,
0001
0000
1000
0000
0100
0000
0001
0000
0100
0000
1000
0001
0000
0000
0000
0000
,
1000
0000
0001
0000
0010
0000
1000
0000
0010
0000
0001
1000
0000
0010
1000
0010
,
1000
0000
0001
0000
0010
0000
1000
0000
0010
0000
0001
0020
0000
0000
0030
0000
,
0100
0000
0000
0000
1100
0000
0000
0000
0010
0000
0001
0100
0000
0100
0010
0000
,
1000
0000
0000
0000
0011
0000
0000
0100
1000
0001
0010
0000
0200
0000
0000
0300
,
0010
0000
0000
0000
1100
0000
0000
0000
1000
0000
0001
0100
0000
0100
0001
0000
,
1000
0010
0000
0001
0000
0010
0000
1000
0000
0100
0000
0001
0000
0000
0000
0000
,
0100
0000
0000
0000
0110
0000
0000
0000
0001
0000
1000
0010
0000
1000
0100
0000
,
0010
0000
0000
0000
1100
0000
0000
0010
0001
0100
0010
0000
0200
0000
0000
0300
,
0001
0000
0000
0000
1010
0000
0000
0000
0100
0000
0001
1000
0000
0001
1000
0001
,
1000
0100
0000
0010
0000
0001
0000
0100
0000
1000
0000
0100
0000
0000
0000
0000
,
0001
0000
0010
0000
0001
0000
0010
0000
0100
0000
1000
0100
0000
0100
1000
0000
,
0010
0000
0100
0000
0010
0000
0100
0000
0001
1000
0001
0000
0010
0000
0000
0000
,
0100
0000
1000
0000
0100
0000
1000
0000
0001
0000
0100
0001
0000
0001
0100
0000
,
0010
1000
0000
0010
0000
0100
0000
0001
0000
0010
0000
0010
0000
0000
0000
0000
,
0001
0000
1000
0000
0001
0000
1000
0000
0100
0000
0001
0100
0000
0100
1000
0000
,
0001
0000
0100
0000
0010
0000
0100
0000
0001
0100
0001
0000
1000
0000
0000
0000
,
0010
0000
0100
0000
0001
0000
1000
0000
0010
0000
0100
0010
0000
0010
1000
0000
,
0001
0000
0100
0000
0010
0000
0100
0000
0001
0000
1000
0200
0000
0000
0300
0000
,
1001
0000
0000
0000
;
