#TITLE:Last Goodbye;
#SUBTITLE:Hyleo Happy Hardcore Remix;
#ARTIST:GameChops;
#TITLETRANSLIT:;
#SUBTITLETRANSLIT:;
#ARTISTTRANSLIT:;
#GENRE:;
#CREDIT:;
#MUSIC:Last Goodbye.mp3;
#BANNER:;
#BACKGROUND:;
#CDTITLE:;
#SAMPLESTART:23.335;
#SAMPLELENGTH:10.969;
#SELECTABLE:YES;
#OFFSET:-0.025;
#BPMS:0.000=175.035
,60.000=87.518
,61.000=88.518
,62.000=87.519
,64.000=175.035
,77.000=175.000
,188.000=87.518
,190.000=87.788
,191.000=175.035
,249.000=175.000
,316.000=178.000
;
#STOPS:188.000=2.057;
#DISPLAYBPM:87.517998:175.000;
#BGCHANGES:;
#FGCHANGES:;

//--------------- dance-single - ----------------
#NOTES:
     dance-single:
     Shortysnmn2010:
     Beginner:
     1:
     0.104167,0.138021,0,0.026042,0,84,84,0,3,0,0,0.104167,0.138021,0,0.026042,0,84,84,0,3,0,0:
0000
0000
0000
0000
,
0000
0000
0000
0000
,
0000
0000
0000
0000
,
0000
0000
0000
0000
,
1000
0000
0000
0000
,
0001
0000
0000
0000
,
1000
0000
0001
0000
,
1000
0000
0000
0000
,
0010
0000
0000
0000
,
0100
0000
0000
0000
,
0010
0000
0000
0000
,
0100
0000
0000
0000
,
0001
0000
1000
0000
,
0001
0000
0000
0000
,
1000
0000
0002
0000
,
0003
0000
0000
0000
,
1000
0000
0000
0000
,
0100
0000
0000
0000
,
0010
0000
0000
0000
,
0001
0000
0000
0000
,
0100
0000
0000
0000
,
0001
0000
0000
0000
,
0010
0000
0000
0000
,
0100
0000
0000
0000
,
1000
0000
0000
0000
,
0010
0000
0000
0000
,
1000
0000
0000
0000
,
0001
0000
0000
0000
,
0100
0000
0000
0000
,
1000
0000
0000
0000
,
0100
0000
0000
0000
,
0001
0000
0000
0000
,
1000
0000
0000
0000
,
0001
0000
1000
0000
,
0001
0000
0000
0000
,
1000
0000
0000
0000
,
0001
0000
0000
0000
,
1000
0000
0001
0000
,
1000
0000
0000
0000
,
0001
0000
0000
0000
,
0010
0000
0000
0000
,
0100
0000
0000
0000
,
0010
0000
0100
0000
,
0010
0000
0000
0000
,
0100
0000
0000
0000
,
0010
0000
0000
0000
,
0200
0000
0000
0000
,
0300
0000
0000
1000
,
0000
0000
0000
0010
,
0000
0000
0000
1000
,
0000
0000
0000
0100
,
0000
0000
0000
0010
,
0000
0000
0000
0001
,
0000
0000
0000
0100
,
0000
0000
0000
0001
,
0000
0001
0000
0001
,
0000
0000
0000
1000
,
0000
0000
0000
0010
,
0000
0000
0000
0100
,
0000
0000
0000
0001
,
0000
0000
0000
0010
,
0000
0000
0000
1000
,
0000
1000
0000
1000
,
0000
0000
0000
0010
,
0000
0000
0000
0001
,
0000
0000
0000
0010
,
0000
0000
0000
0001
,
0000
0000
0000
1000
,
0000
0000
0000
0100
,
0000
0000
0000
1000
,
0000
1000
0000
1000
,
0000
0000
0000
0010
,
0000
0000
0000
1000
,
0000
0000
0000
0010
,
0000
0000
0000
1000
,
0000
0000
0000
0001
,
0000
0000
0000
0100
,
0000
0000
0000
0001
,
0000
0001
0000
0002
,
0000
0000
0003
0000
;

//--------------- dance-single - ----------------
#NOTES:
     dance-single:
     Shortysnmn2010:
     Easy:
     4:
     0.265377,0.310547,0.034722,0.078125,0,214,210,4,9,0,0,0.265377,0.310547,0.034722,0.078125,0,214,210,4,9,0,0:
0000
0000
0000
0000
,
0000
0000
0000
0000
,
0000
0000
0000
0000
,
0000
0000
0000
0000
,
1000
0000
0000
0001
,
0010
0000
0000
0100
,
0010
0000
0001
0000
,
0100
0000
0100
0000
,
0000
0010
0000
0000
0000
1000
0000
0000
,
0000
0001
0000
0000
0000
0010
0000
0000
,
0100
1000
0100
0000
,
0000
0011
0100
0100
,
1000
0001
0000
0010
,
0001
0000
0100
0010
,
0100
0000
0001
2000
,
0000
0000
0010
3100
,
0010
0001
0100
0001
,
1000
0000
0000
1000
,
0001
0010
0100
0000
,
0000
0010
0001
0100
,
0010
0100
0001
0010
,
0100
0000
0000
1000
,
0010
0001
0010
0000
,
0000
1000
0000
0001
,
0010
0100
0010
0100
,
1000
0000
0000
0001
,
0100
1000
0100
0000
,
0000
0010
1000
0100
,
1000
0001
1000
0001
,
0010
0000
0000
0100
,
0010
0000
0001
0000
1000
0000
0000
2002
,
0000
0000
0000
3003
0000
0000
0000
0000
,
2000
3000
0001
0001
,
0010
0001
0100
0001
,
1000
1000
0010
0010
,
0001
0001
0010
0010
,
2000
3000
0100
0100
,
0010
0001
1000
0001
,
0100
0001
0001
1000
,
0020
0000
0030
0000
,
1000
0100
1000
0001
,
0010
0000
0000
0001
,
0100
0010
0100
0000
,
0000
0001
1000
1000
,
0010
1000
0100
0001
,
0100
0000
0000
0010
,
0001
2000
0000
0000
,
3001
0000
0000
1000
,
0000
0100
0010
0100
,
1000
0010
0100
0000
,
0000
0001
0000
2000
,
0000
3000
0000
0100
,
0000
0010
0001
1000
,
0001
0100
0001
1000
,
0000
0100
0000
0010
,
0001
0100
0001
1000
,
0000
0100
0100
0010
,
0001
1000
0010
0000
,
0000
1000
0000
0002
,
0000
0003
0000
1000
,
0000
0100
0010
0100
,
1000
0001
1000
0100
,
0000
0010
0000
0001
,
0000
0000
0000
1000
,
0100
0001
0100
1000
,
0000
0000
0001
0010
,
1000
0010
0001
1000
,
0000
0000
0010
0100
,
0001
0010
0001
0100
,
0000
0000
0010
1000
,
0001
1000
0000
0000
,
0001
0000
0010
0100
,
0010
0001
0010
0100
,
0000
0000
1000
0010
,
0100
0010
0000
0000
,
0100
0001
0100
0010
,
1000
0100
1000
0010
,
0000
0000
0100
0001
,
0010
0000
0010
0000
0000
1001
0000
0000
,
0000
0100
1001
0000
;

//--------------- dance-single - ----------------
#NOTES:
     dance-single:
     Shortysnmn2010:
     Medium:
     6:
     0.375744,0.379557,0.086806,0.173611,0,303,293,10,20,0,0,0.375744,0.379557,0.086806,0.173611,0,303,293,10,20,0,0:
0000
0000
0000
0000
,
0000
0000
0000
0000
,
0000
0000
0000
0000
,
0000
0000
0000
0000
,
1000
0000
0001
0100
0001
0000
1000
0000
,
0001
0000
1000
0100
1000
0000
0001
0000
,
1000
0010
1000
0001
,
1000
0000
0001
0000
,
0000
0100
0000
0100
0000
0001
0000
0001
,
0000
1000
0000
1000
0000
0010
0000
0010
,
1000
0000
0001
0000
0010
0001
0000
1000
,
0000
0100
1000
0000
0010
0000
0010
0000
,
0100
0000
0001
0100
0001
0000
0010
0000
,
0100
0000
1000
0100
1000
0000
0010
0000
,
1000
0001
1000
0002
,
0000
0000
0000
0100
0013
0000
0000
0000
,
1000
0100
0010
0100
,
1000
0100
0000
0010
0000
0100
1000
0000
,
0010
0000
0100
0000
0001
0100
0000
0010
,
0000
0100
0001
0000
0010
0000
0001
0000
,
0100
1000
0100
0001
,
0100
0001
0000
0010
0000
0001
1000
0000
,
0100
0000
0001
0000
0100
1000
0000
0001
,
0000
1000
0000
1000
0000
0001
0000
0001
,
0100
1000
0100
0010
,
0100
0010
0000
0100
0000
0010
0100
0000
,
0001
0000
0010
0000
0100
0010
0000
0100
,
0000
0010
0100
0000
1000
0000
1000
0000
,
0001
0010
1000
0010
,
0001
0010
0000
0001
0000
0010
0001
0000
,
1000
0000
0100
0000
0010
0100
0000
2000
,
0000
0000
3000
0000
,
0002
0000
0003
1000
0000
1000
0100
0000
,
0010
0001
0001
0000
,
1000
0000
1000
0000
0010
0000
0010
0100
,
0002
0003
2000
3000
,
0001
0000
0010
0000
0010
0000
0001
1000
,
0001
0100
0100
0020
,
1030
0001
1000
0000
0100
0000
0100
0000
,
0010
0000
0000
0000
,
0001
0100
1000
0100
,
0001
1000
0000
0010
0000
0020
0000
0030
,
1000
0000
0001
0000
0010
0001
0000
2000
,
0000
0010
0001
3001
,
0010
0100
1000
0100
,
0010
0001
0000
0100
0000
0200
0000
0300
,
0010
2002
0000
3003
,
0110
0000
0000
2000
,
0000
3000
0001
0000
0010
0000
0001
0000
,
0100
0000
0001
0000
1000
0100
0000
0000
,
0000
0000
0110
0000
0000
0010
0002
0000
,
0000
0100
0103
0020
,
0030
1000
0001
1000
,
0100
0000
0000
0110
0000
1100
0000
0000
,
0000
1000
0001
0000
0000
0000
0010
0000
,
0001
0100
0001
0020
,
0030
0100
1000
0010
,
1000
0000
0100
0000
0010
0100
0000
0000
,
0000
0000
1100
0000
0000
1000
0002
0000
,
0000
0020
0033
0200
,
0300
1000
0010
1000
,
0001
0000
0000
0101
0000
0110
0000
0000
,
0000
0010
1000
0001
0000
0002
0000
0000
,
0003
0000
1100
0010
,
0001
0000
1000
0000
0001
0000
0010
0001
,
0000
1000
0000
0001
0010
0000
0100
0000
,
1000
0000
0001
1000
0000
0100
0000
1000
,
0001
0010
0010
0100
,
1000
0000
0010
0000
1000
0000
0100
1000
,
0000
0010
0000
1000
0100
0000
0010
0000
,
0001
0000
1000
0001
0000
1000
0000
0100
,
0000
0100
0000
0010
0000
0010
0001
0000
,
0100
0000
0001
0000
1001
0000
1000
0100
,
0000
0001
0000
0100
0001
0000
0100
0000
,
0010
0000
0001
0010
0000
0100
0000
1000
,
0010
0100
0100
0001
,
0010
0000
1000
0000
0010
0000
0100
0010
,
0000
0100
0000
1000
0100
0000
0010
0000
,
0001
0000
0100
0001
0000
2000
0000
0000
,
0000
0100
3001
0000
;

//--------------- dance-single - ----------------
#NOTES:
     dance-single:
     Shortysnmn2010:
     Hard:
     9:
     0.596478,0.796116,0.121528,0.269097,0.238715,481,467,14,31,0,0,0.596478,0.796116,0.121528,0.269097,0.238715,481,467,14,31,0,0:
0000
0000
0000
0000
,
0000
0000
0000
0000
,
0000
0000
0000
0000
,
0000
0000
0000
0000
,
1000
0000
0010
0100
0010
0000
1000
0000
,
0001
0000
0010
0100
0010
0000
0001
0000
,
2000
0100
0001
3020
,
0002
0003
2000
3030
,
0000
0100
0001
0010
0000
0010
0001
0100
,
0000
0010
1000
0100
0000
0100
1000
0010
,
0100
0000
0001
0000
1000
0100
0000
0110
,
0000
0000
0001
1000
0002
0000
0000
0000
0100
0000
0000
0000
0103
0000
0000
0000
,
0010
0000
1000
0001
1000
0000
0100
0000
,
0010
0000
0001
1000
0001
0000
0100
0000
,
0004
4000
0000
0000
0000
0000
0000
0000
0000
0000
0000
0000
3003
0000
0000
0000
,
0001
0000
0000
0100
0000
0000
0010
0000
0000
0100
0000
0000
0001
0000
0000
0000
0000
0000
1100
0000
0000
0000
0000
0000
0001
0000
0000
0000
0000
0000
0010
0000
0001
0000
0010
0000
0001
0000
0000
0000
0000
0000
1000
0000
0000
0000
0000
0000
,
0100
0010
0001
1000
0100
0010
0100
1000
,
0001
0000
0100
0000
0000
0000
0010
0000
0000
0000
1000
0001
1000
0000
0000
0000
,
0001
0010
0001
0010
0100
1000
0000
0010
,
0000
0000
0100
0001
0100
0000
0010
0000
1000
0000
0001
0000
0010
0000
0000
0000
,
0100
1000
0010
1000
0001
0100
0001
0010
,
0100
0000
0010
0000
0000
0000
0001
0000
0000
0000
0100
0010
1000
0000
0000
0000
,
0100
0010
0001
0010
0100
1000
0000
0010
,
0000
1000
0001
0100
0000
0001
0010
0001
,
0100
0010
1000
0010
0001
0010
0100
0001
,
1000
0000
0100
0000
0000
0000
0010
0000
0000
0000
0001
0010
0100
0000
0000
0000
,
0010
0001
1000
0100
0001
0100
0000
0010
,
0000
0000
0001
0100
0010
0000
1000
0000
0001
0000
0100
0000
0001
0000
0000
0000
,
1000
0010
0001
0010
0100
1000
0100
0001
,
1000
0000
0100
0000
0000
0000
0010
0000
0000
0000
0100
1000
0001
0000
0000
0000
,
0010
0001
0100
0001
1000
0010
0000
0200
,
0000
0000
0300
0000
,
2002
0000
3003
0010
0000
0010
0001
0000
,
1000
0000
0000
0000
0001
0100
0001
0100
0000
0010
0100
0010
0000
0000
1000
0000
,
0001
0010
0001
0010
0000
0100
0010
0100
0000
1000
0100
1000
0000
0000
0002
0000
,
0010
1000
0200
0303
,
0010
1000
0001
0000
0100
0000
0000
0000
0001
0000
0010
0000
0100
0000
1000
0000
,
0001
0100
0001
0100
0001
0000
1000
0010
1000
0000
0100
0000
0010
0000
0000
0000
,
0001
0000
0010
0000
0100
1000
0100
1000
0100
0000
0010
0100
0010
0000
0001
0000
,
1000
0010
0100
0001
0000
1000
0100
0010
,
0001
0000
1000
0200
0000
1000
1300
0000
,
0001
0000
0010
0000
0100
0010
0100
0000
1000
0100
1000
0000
0001
0010
0001
0000
,
1000
0000
0100
0010
0000
0000
0100
0010
0000
0000
0100
0010
0000
0000
0002
0000
,
0100
1000
0020
0033
,
0100
1000
0100
1000
0100
0000
1000
0001
1000
0000
0001
0000
0200
0000
0010
0000
,
0310
1000
0001
1000
0010
0000
0100
0001
0100
0000
0001
0000
1000
0000
0100
0000
,
0010
0000
2002
0000
0000
0000
0000
3003
,
0220
0330
0000
0000
0000
0000
0000
0000
0001
0000
0010
0000
0100
0000
1000
0000
0100
0000
0010
0000
0001
0000
0010
0000
0200
0000
0000
0000
0000
0000
0000
0000
,
0300
0000
1000
0001
0010
0001
1000
0100
,
1000
0001
0100
0000
0010
0200
0000
0000
,
0300
0000
0000
0000
2002
0000
0000
0000
3003
0000
0010
1000
0001
0000
0000
0000
,
0000
0000
0100
0010
0100
0000
0002
0000
,
0003
0000
1000
0010
0001
0010
1000
0001
,
0100
0000
0000
1010
0000
1001
0000
0000
,
0000
0000
0010
0100
1000
0000
0000
0000
0000
0000
0000
0000
0001
0000
0100
0000
,
0001
0000
1000
0010
1000
0000
0200
0000
,
0300
0000
0010
0001
0100
0001
0010
0100
,
1000
0010
1000
0000
0100
0020
0000
0000
,
0030
0000
0000
0000
2200
0000
0000
0000
3300
0000
0001
0010
0100
0000
0000
0000
,
0000
0000
1000
0001
1000
0000
0020
0000
,
0030
0000
0100
0001
1000
0100
0010
0001
,
1000
0000
0000
0000
0000
0000
1010
0000
0000
0000
1000
0001
0000
0000
0000
0000
,
0000
0010
0100
1000
0000
1001
0000
0000
,
0000
0000
0000
0000
0110
0000
0001
0100
,
0001
0100
0010
1000
0100
1000
0001
0010
,
0000
0000
0100
0000
0000
0000
0010
0100
0010
0000
0000
0000
0001
0000
1000
0000
,
0100
0000
0010
0000
0001
0000
1000
0000
0000
0000
0010
0000
0000
0000
1000
0001
,
0100
0001
1000
0010
1000
0000
0001
1000
,
0100
1000
0001
0010
0100
1000
0001
1000
,
0000
0000
0100
0000
0000
0000
0010
0001
1000
0000
0000
0000
0010
0000
0100
0000
,
0001
0100
0010
1000
0000
0100
0000
0010
,
0001
0100
0000
0001
0100
0001
1000
0100
,
1000
0100
0010
0001
0100
0001
0010
0100
,
0000
0000
1000
0000
0000
0000
0010
0100
0010
0000
0000
0000
1000
0000
0001
0000
,
0100
0000
0001
0000
0010
0000
0001
0000
0000
0000
1000
0000
0000
0000
0100
0010
,
0001
1000
0100
0010
0100
0000
1000
0010
,
0100
0001
1000
0010
0001
0010
0100
0001
,
0000
0000
1000
0000
0000
0000
0010
0100
0001
0000
0000
0000
1000
0000
0000
0000
,
0100
0000
0010
0001
0000
2000
0000
0000
,
3010
0101
2002
3003
;

//--------------- dance-single - ----------------
#NOTES:
     dance-single:
     Shortysnmn2010:
     Challenge:
     11:
     0.897817,1.142253,0.355903,0.355903,0.811632,724,683,41,41,7,0,0.897817,1.142253,0.355903,0.355903,0.811632,724,683,41,41,7,0:
0000
0000
0000
0000
,
0000
0000
0000
0000
,
0000
0000
0000
0000
,
0000
0000
0000
0000
,
1100
0000
0010
0001
0100
0000
1010
0000
,
1010
0000
0100
0002
0010
0000
0103
0000
,
2010
3002
0203
1000
,
0002
0003
2000
3300
,
0000
0100
0001
0011
0000
0100
1000
1010
,
0000
1000
0001
0011
0000
0001
1000
0100
,
1100
0000
0011
0000
0110
0110
0000
1001
,
0000
0000
0010
1000
0200
0000
0000
0000
0010
0000
0000
0000
0310
0000
0000
0000
,
0100
1000
0010
0001
0010
0001
1000
0100
,
0001
0010
0001
0010
1000
0001
0100
1000
,
0001
0100
0010
1000
0001
0100
0010
1000
0001
0010
0100
1000
0001
0010
0100
1000
,
0002
0000
0000
0000
0000
0000
0000
0000
0000
0000
0000
0000
0013
0000
0000
0000
0000
0000
0100
0000
0000
0000
0000
0000
1000
0000
0000
0000
0000
0000
0000
0000
0000
0000
0000
0000
0101
0000
0000
0000
0000
0000
0000
0000
0000
0000
0000
0000
0010
0000
0000
0000
0000
0000
0000
0000
0000
0000
0000
0000
0010
0000
0000
0000
0100
0000
0000
0000
0001
0000
0000
0000
1000
0000
0000
0000
0000
0000
0000
0000
0000
0000
0000
0000
0100
0000
0000
0010
0000
0000
0100
0000
0000
0010
0000
0000
,
0100
1000
0010
1000
0100
0010
0100
1000
,
0010
0000
0100
0000
0001
0000
0011
0000
0000
0000
0001
2000
0100
0000
0001
0000
,
3001
0010
0100
1000
0010
0100
0001
1001
,
0000
0000
1000
0020
0100
0000
1000
0000
1030
0000
0001
0000
0100
0000
0010
0000
,
1000
0001
0100
1000
0100
0001
0010
0100
,
1000
0000
0001
0000
0010
0000
0011
0000
0000
0000
0001
2000
0100
0000
0001
0000
,
3001
0010
0001
0100
0020
1000
0000
0001
,
0000
0130
0001
0100
0000
0001
1000
0001
,
1000
0100
1000
0100
0010
0001
1000
0100
0010
0100
0010
0100
1000
0001
0100
0010
,
1000
0001
1000
0001
0100
0010
1000
0001
0010
0001
0010
0001
1000
0100
0010
0001
,
1000
0010
1000
0010
0100
0001
1000
0100
0010
0100
0010
0100
1000
0001
0100
0010
,
1000
0001
1000
0001
0200
0000
0000
0000
1000
0000
0000
0000
0301
0000
0000
0000
,
0010
1000
0010
0100
0001
0100
0010
1000
0001
0010
0001
1000
0100
1000
0001
0100
,
0001
1000
0010
0100
0001
1000
0001
0010
0100
1000
0001
1000
0100
0010
0001
1000
,
0010
0000
0000
1000
0000
0000
0001
0000
0000
0100
0000
0000
0010
0000
0000
0100
0000
0000
0001
0000
0000
1000
0000
0000
0200
0000
0000
0000
0000
0000
0010
0000
0000
0000
0000
0000
0000
0000
0000
0000
0000
0000
2300
0000
0000
0000
000M
0000
,
0000
0000
0000
0000
0000
0000
0000
0000
0000
0000
0000
0000
00M0
0000
000M
0000
0000
0000
0000
0000
0000
0000
0000
0000
0M00
0000
0000
0000
0000
0000
3000
0000
0000
0000
0000
0000
0001
0000
0000
0100
0000
0000
0010
0000
0000
2000
0000
0000
,
0002
0000
0MM0
0000
3003
0000
0110
0000
0000
0000
0110
0000
2002
0000
0000
3003
,
0110
0000
0000
0000
1000
0001
0100
0010
0000
1000
0001
2000
0000
0000
0100
0000
,
3001
0010
0100
0010
0000
0010
0001
0010
0000
0001
0100
0002
0000
0000
1000
0000
,
0013
0101
0011
1100
,
1000
0001
0100
0000
0110
0000
0000
0000
0110
0000
0010
0000
1000
0001
1000
0000
,
0001
0010
0100
1000
0001
0000
1000
0100
0010
0001
1000
0000
0020
0000
0000
0000
,
0100
0000
1030
0000
0001
0100
0010
0100
1000
0000
0100
0001
1000
0100
0010
0000
,
0002
0010
0010
2003
0000
0100
0100
3001
,
0010
0000
0100
1001
0000
0011
1100
0000
,
0001
0000
1000
0000
0010
0100
0001
0000
0010
0100
1000
0000
0010
0100
0002
0000
,
00M0
0003
1000
0100
0000
0000
0010
0001
0000
0000
1000
0010
0000
0000
0100
0000
,
0001
0000
1000
0100
0010
0000
0000
0000
0011
0000
0000
0000
0011
0000
0000
0000
,
0100
0000
0000
1000
0000
0000
0001
0000
0000
0010
0000
0000
0100
0000
0000
0000
0000
0000
1000
0000
0000
0001
0000
0000
0100
0000
0000
0010
0000
0000
1000
0000
0000
0000
0000
0000
0001
0000
0000
0000
0000
0000
1000
0000
0100
0000
1000
0000
,
0100
0000
0000
0010
0000
0000
0001
0000
0000
0100
0000
0000
0010
0000
0000
0000
0000
0000
0100
0000
0000
0001
0000
0000
0010
0000
0000
0001
0000
0000
0010
0000
0000
0000
0000
0000
0100
0000
0000
0000
0000
0000
1000
0000
0001
0000
1000
0000
,
0001
0000
0000
0000
4000
0004
0000
0000
0000
0000
0000
0000
0000
0000
0000
0000
0000
0000
0000
0000
0000
0000
0000
0000
0000
0000
0000
0000
0000
0000
0000
0000
,
0000
3003
0000
0000
0000
0000
0000
0000
0001
0000
0010
0000
1000
0000
0010
0000
0001
0000
1000
0000
0100
0010
0001
0010
0100
0000
0000
0000
1000
0000
0100
0000
,
1000
0000
0010
0000
0100
0000
0001
0100
0001
0000
0010
0000
0100
0000
1000
0001
,
0100
0000
0010
0000
0100
0000
0001
1000
0010
0000
0100
0000
0001
0000
0010
0001
,
0100
0000
0001
0000
1000
0000
0100
1000
0010
0000
0100
0002
1000
0000
0000
0000
,
0013
0000
0100
0000
1100
0000
0010
0000
2002
0000
0000
3003
0010
0000
0100
0001
,
1000
0000
0010
0000
1000
0000
0100
1000
0001
0000
0010
0000
0100
0000
0010
0001
,
1000
0010
0200
0010
0000
0002
0000
0303
,
0000
0000
1000
0100
0010
0000
0001
0000
0100
0000
0000
0000
0001
0000
1000
0000
,
0001
0000
1000
0000
0010
0000
0100
0000
0010
0000
0100
0000
0001
0000
0010
0100
,
1000
0000
0010
0000
0100
0000
0010
1000
0100
0000
0010
0000
0100
0000
0010
0001
,
1000
0000
0100
0000
0010
0000
0100
1000
0010
0000
0100
0000
0001
0000
1000
0001
,
0100
0000
0010
0000
0100
0000
0001
1000
0001
0000
0010
0200
1000
0000
0000
0000
,
0310
0000
0001
0000
1001
0000
0000
0000
0110
0000
0000
0000
1000
0000
0001
0100
,
0001
0000
1000
0000
0001
0000
0010
0001
0010
0000
0001
0000
0100
0000
0010
0100
,
0010
0000
1000
0000
0200
0000
0001
0000
0000
0000
0310
0001
0000
0000
0000
0000
,
0000
0000
1000
0000
0010
0000
0100
0000
0000
0000
1001
0000
0001
0000
0010
0100
,
1000
0010
0100
0101
1001
0000
1000
0100
,
0001
0100
0010
0100
1000
0001
0010
0100
,
0010
0000
0011
0000
0000
0000
0001
2000
0010
0000
0001
0000
3001
0000
0100
0000
,
0010
0000
1000
0000
0100
0000
1000
0000
0010
0000
0110
0000
0000
0000
0100
0002
,
1000
0010
0013
0100
1000
0010
0001
0010
,
0100
0001
0010
0100
1000
0001
0100
0010
,
0100
0000
0110
0000
0000
0000
0010
2000
0001
0000
0010
0000
3010
0000
0100
0000
,
0001
0010
0002
0010
0000
1000
0000
0103
,
0010
0000
0100
0000
0000
0000
0010
0000
0100
0000
0010
0000
1000
0001
0100
0001
,
1000
0010
0100
0001
1000
0100
0010
0001
1000
0001
0010
0100
1000
0001
1000
0010
,
0100
0001
1000
0001
0010
0100
1000
0001
0100
0001
1000
0010
0100
0001
0010
0100
,
1000
0001
0010
0001
1000
0100
0010
0001
1000
0010
1000
0001
0100
0010
0100
0001
,
2000
0000
0000
0000
0100
0000
0000
0000
3010
0000
0000
0000
0100
0001
1000
0010
,
0100
0001
1000
0100
0010
0001
1000
0010
1000
0001
0010
0001
1000
0100
1000
0001
,
0100
0001
0010
0100
0010
0001
1000
0001
0100
0010
0100
1000
0001
1000
0100
0010
,
0100
0001
1000
0001
0010
0100
0020
0000
0000
0000
0001
0000
0000
0000
0130
0000
,
2000
3010
2002
3003
;
