#TITLE:In The Dark;
#SUBTITLE:;
#ARTIST:Dev;
#TITLETRANSLIT:;
#SUBTITLETRANSLIT:;
#ARTISTTRANSLIT:;
#GENRE:;
#CREDIT:;
#MUSIC:In The Dark.mp3;
#BANNER:;
#BACKGROUND:;
#CDTITLE:;
#SAMPLESTART:49.521;
#SAMPLELENGTH:15.777;
#SELECTABLE:YES;
#OFFSET:-0.050;
#BPMS:0.000=125.024
,175.000=124.004
,176.000=125.025
;
#STOPS:;
#DISPLAYBPM:125.000;
#BGCHANGES:;
#FGCHANGES:;

//--------------- dance-single - ----------------
#NOTES:
     dance-single:
     Shortysnmn2010:
     Beginner:
     1:
     0.097821,0.154069,0.048335,0.024168,0,85,79,6,3,0,0,0.097821,0.154069,0.048335,0.024168,0,85,79,6,3,0,0:
0000
0000
0000
0000
,
0000
0000
0000
0000
,
0000
0000
0000
0000
,
0000
0000
0000
0000
,
0001
0000
0000
0000
,
1000
0000
0000
0000
,
0010
0000
0000
0000
,
0100
0000
0000
0000
,
0010
0000
0010
0000
,
0010
0000
0000
0000
,
0100
0000
0000
0000
,
1000
0000
0000
0000
,
0100
0000
0100
0000
,
0100
0000
0000
0000
,
0001
0000
0000
0000
0000
0000
0000
1001
,
0000
0000
0000
0000
,
0010
0000
0010
0000
,
0010
0000
0000
0000
,
1000
0000
0100
0000
,
0100
0000
0000
0000
,
0010
0000
0001
0000
,
0001
0000
0000
0000
,
1000
0000
0010
0000
,
0100
0000
0000
0000
,
0001
0000
0100
0000
,
0010
0000
0000
0000
,
1000
2000
0000
3000
,
0001
0000
0000
0000
,
0010
0020
0000
0030
,
0001
0000
0000
0000
,
0100
0100
0000
0000
,
0010
0010
0000
0000
,
1000
0000
0000
0000
,
0001
0000
0000
0000
,
1001
0000
0000
0000
,
0110
0000
0000
0000
,
0110
0000
0000
0000
,
1001
0000
0000
0000
,
1000
0000
0000
0000
,
0100
0000
0000
0000
,
0100
0000
0000
0000
,
0010
0000
0000
0000
,
0001
0000
0000
0000
,
1000
0000
0000
0000
,
0010
0000
0000
0000
0000
0000
0000
0110
,
0000
0000
0000
0000
,
1000
0000
1000
0000
,
1000
0000
0000
0000
,
0001
0000
0010
0000
,
0001
0000
0000
0000
,
0100
0000
0100
0000
,
0001
0000
0000
0000
,
1000
0000
0100
0000
,
1000
0000
0000
0000
,
0100
0000
0100
0000
,
0010
0000
0000
0000
,
0001
0000
0100
0000
,
0001
0000
0000
0000
,
1000
0000
0010
0000
,
1000
0000
0000
0000
,
0100
0000
0000
0000
,
0010
0000
0000
0000
,
0001
0000
0000
0000
,
1000
0000
0002
0003
;

//--------------- dance-single - ----------------
#NOTES:
     dance-single:
     Shortysnmn2010:
     Easy:
     2:
     0.108179,0.154069,0,0.056391,0,94,94,0,7,0,0,0.108179,0.154069,0,0.056391,0,94,94,0,7,0,0:
0000
0000
0000
0000
,
0000
0000
0000
0000
,
0000
0000
0000
0000
,
0000
0000
0000
0000
,
0010
0000
0100
0000
,
1000
0000
0000
0000
,
0010
0000
0100
0000
,
0001
0000
0000
0000
,
1000
0000
0001
0000
,
1000
0000
0001
0000
,
1000
0000
1000
0000
,
0001
0000
0000
0000
,
0010
0000
0001
0000
,
0010
0000
0001
0000
,
0010
0010
0010
0000
,
0000
0000
0200
0000
,
0000
0000
0010
0000
,
0310
0000
0100
0000
,
1000
0000
0100
0000
,
1000
0000
0100
0000
,
1000
0000
0000
0000
,
0001
0000
0000
0000
,
0100
0000
0001
0000
,
0100
0000
0001
0000
,
0100
0000
0000
0000
,
0010
0000
0000
0000
,
1000
1000
0000
0000
,
0001
0000
0010
0000
,
0001
0001
0000
0000
,
1000
0000
0100
0000
,
2000
3000
0002
0003
,
2000
3000
0002
0003
,
1000
0000
0000
0000
,
0010
0000
0000
0000
,
0100
0000
0010
0000
,
0100
0000
0010
0000
,
0010
0000
0000
0000
,
1000
0000
0000
0000
,
0001
0000
0000
0000
,
0010
0000
0000
0000
,
1000
0000
0010
0000
,
0001
0000
0000
0000
,
1000
0000
0000
0000
,
0001
0000
0000
0000
,
1000
1000
1000
0000
,
0000
0000
0002
0000
,
0000
0000
1000
0000
,
1003
0000
0001
0000
,
0100
0000
0001
0000
,
0100
0000
0001
0000
,
0001
0000
0000
0000
,
0010
0000
0000
0000
,
0100
0000
1000
0000
,
0100
0000
1000
0000
,
1000
0000
0000
0000
,
0010
0000
0000
0000
,
1000
0000
0001
0000
,
1000
0000
0001
0000
,
1000
0000
0000
0000
,
0001
0000
0000
0000
,
0100
0000
1000
0000
,
0100
0000
0100
0000
,
0001
0000
0000
0000
,
2000
0000
0000
3000
;

//--------------- dance-single - ----------------
#NOTES:
     dance-single:
     Shortysnmn2010:
     Medium:
     5:
     0.284257,0.407627,0.193341,0.104726,0.004028,247,223,24,13,0,0,0.284257,0.407627,0.193341,0.104726,0.004028,247,223,24,13,0,0:
0000
0000
0000
0000
,
0000
0000
0000
0000
,
0000
0000
0000
0000
,
0000
0000
0000
0000
,
1000
0000
0001
0010
0001
0000
0000
0000
,
1000
0100
1000
0000
0000
0000
0000
0000
,
0010
0000
0100
0001
0100
0000
0000
0010
,
0000
0010
1000
0000
0002
0000
0003
0000
,
1000
0001
1000
0010
,
1000
0001
0100
0001
,
1000
0000
0100
1000
0100
0000
1000
0000
,
0001
0010
0002
0000
0000
0000
0003
0000
,
1000
0000
0100
0010
0100
0000
1000
0000
,
0010
0100
0020
0000
0000
0000
0030
0000
,
1000
0000
0001
0000
0100
0001
0000
1000
,
0000
1000
0100
0000
0020
0000
0000
0000
,
0000
0000
0001
0000
,
1000
0000
0130
0000
,
1000
0000
0001
0000
0100
0000
0000
0010
,
1000
0000
0001
0000
0010
0000
0000
0001
,
0100
0000
0010
0000
1000
0000
0000
0100
,
0000
0010
0100
0000
1001
0000
0000
0000
,
0010
0000
0001
0000
0100
0000
0000
1000
,
0100
0000
0001
0000
0010
0000
0000
0100
,
1000
0000
0001
0000
0100
0000
0000
1000
,
0000
0100
0001
0000
1001
0000
0000
0000
,
0010
1000
0002
0000
0000
0003
0000
1000
,
0100
0000
0010
0000
0001
0000
0010
1000
,
0010
0000
0022
0000
0033
1000
0000
0100
,
1000
0000
0010
0000
0100
0000
0001
0010
,
0001
0101
0010
0101
,
0010
1000
1100
0011
,
0100
0000
1000
0000
0010
0000
0001
0010
,
0000
1000
0000
0000
0010
0000
0000
0000
,
1100
1001
1100
0010
,
0011
1001
0011
0100
,
1100
1010
1100
0010
,
0101
1100
0202
0303
,
1000
1000
0100
0100
,
0001
0001
0010
0010
,
1000
0000
1000
0100
0001
0000
0001
0100
,
1000
2002
0000
3003
,
0010
0010
0001
0001
,
0100
0100
1000
1000
,
0010
0000
0010
0000
0001
0100
0000
0110
,
0000
0010
1000
0000
2002
0000
0000
0000
,
3003
0000
0010
0000
,
0400
0040
0000
0000
0000
0000
0000
0000
0330
0000
0000
0000
0000
0000
0000
0000
,
1000
0000
0001
0000
0100
0000
0000
0001
,
0100
0000
1000
0000
0100
0000
0000
0010
,
1000
0000
0010
0000
0001
0000
0000
0010
,
0000
0010
1000
0000
1100
0000
0000
0000
,
0010
0000
0001
0000
0010
0000
0000
1000
,
0010
0000
0100
0000
1000
0000
0000
0100
,
0010
0000
0100
0000
0001
0000
0000
0100
,
0000
0100
1000
0000
1010
0000
0000
0000
,
1000
0000
0001
0000
0010
0000
0000
0001
,
0100
0000
0010
0000
1000
0000
0000
0100
,
0010
0000
0001
0000
0100
0000
0000
0010
,
0100
0001
1000
0010
,
1000
0000
0100
0000
0010
0000
0000
0010
,
0100
0000
1000
0000
0010
0000
0000
0010
,
0100
0000
1000
0000
0100
0000
0000
0100
,
0001
0010
0000
0000
;

//--------------- dance-single - ----------------
#NOTES:
     dance-single:
     Shortysnmn2010:
     Hard:
     7:
     0.407397,0.433104,0.104726,0.161118,0.076531,354,341,13,20,0,0,0.407397,0.433104,0.104726,0.161118,0.076531,354,341,13,20,0,0:
0000
0000
0000
0000
,
0000
0000
0000
0000
,
0000
0000
0000
0000
,
0000
0000
0000
0000
,
1000
0000
0010
0100
0001
0000
0010
0000
,
0100
1000
0200
0000
0000
0000
0300
0000
,
1000
0000
0001
0100
0001
0000
1000
0010
,
0000
0010
1000
0001
0200
0010
0310
0000
,
0101
0000
0010
1000
0100
1000
0001
0000
,
0010
0001
0200
0000
0000
0000
0300
0000
,
0001
1000
0010
1000
0001
0000
0010
0100
,
1000
0100
0010
0000
0002
1000
1003
0000
,
0110
0000
0001
0010
0001
0000
1000
0100
,
0010
0001
2000
0000
0000
0000
3000
0000
,
0101
0000
1001
0000
0010
1000
0000
1100
,
0000
0010
0001
0100
0020
0000
0100
0000
,
0100
1000
0100
0100
,
0001
0000
0000
0000
0130
0000
0000
0000
0001
0000
0000
1000
0000
0000
0001
0000
,
0010
0000
0100
0000
1000
0000
0100
0000
0010
0000
0000
0001
0000
0000
1000
0000
,
0001
0000
0100
0000
0010
0000
1000
0000
0001
0000
0000
0010
0000
0000
0001
0000
,
0100
0000
1000
0000
0100
0000
0010
0000
1000
0000
0000
0001
0000
0000
0200
0000
,
0000
0310
1000
0001
0020
0000
0030
0000
,
0100
0000
1000
0000
0100
0000
1000
0000
0010
0000
0000
0010
0000
0000
1000
0000
,
0001
0000
0010
0000
0001
0000
0010
0000
0100
0000
0000
0100
0000
0000
1000
0000
,
0010
0000
0100
0000
0010
0000
0100
0000
0001
0000
0000
0001
0000
0000
2000
0000
,
0000
3010
0100
0001
0020
0000
0030
0000
,
0001
0100
0002
0000
0003
0000
0000
1000
,
1000
0010
0100
0010
1001
0100
0010
0100
,
1000
0001
2000
0000
3000
0001
0000
0001
,
0010
0100
1000
0001
1000
0100
0010
0001
,
1000
0000
0101
0000
0010
0000
0101
1000
,
0100
0010
0001
1000
0010
0000
0110
0000
,
0001
0000
1000
0000
1000
0100
1000
0010
,
0000
0000
0100
0000
0000
0100
0000
0000
0001
0000
1000
0001
0000
0000
0000
0000
,
1000
0100
0010
0001
1000
0001
0100
0010
,
1000
0010
0100
0001
0010
0001
0100
0010
,
1000
0100
1000
0100
0010
0001
0100
1000
,
0100
0001
1000
0001
0020
0000
0030
0000
,
0001
0000
0001
0000
0100
0000
1000
0100
,
0001
1000
1000
0010
,
0100
0000
0100
0000
0001
0000
0010
0001
,
0100
0000
0100
0000
0001
1000
0100
0010
,
0001
0000
0001
0000
1000
0000
0010
1000
,
0100
1000
1000
0010
,
0100
0000
0100
0000
1000
0100
0000
0101
,
0000
0001
0010
0001
0200
0000
0010
0000
,
0010
1000
0010
0010
,
0301
0000
0000
0000
1000
0000
0000
0000
0010
0000
0000
1000
0000
0000
0001
0000
,
0100
0000
0001
0000
1000
0000
0100
0000
0010
0000
0000
0010
0000
0000
0001
0000
,
1000
0000
0001
0000
0100
0000
0010
0000
1000
0000
0000
1000
0000
0000
0100
0000
,
1000
0000
0010
0000
0100
0000
0001
0000
0100
0000
0000
0100
0000
0000
0002
0000
,
0000
0013
0100
1000
0002
0000
0003
0000
,
1000
0000
0100
0000
0010
0000
0100
0000
1000
0000
0000
0010
0000
0000
0100
0000
,
0001
0000
0010
0000
0100
0000
0010
0000
0001
0000
0000
0100
0000
0000
0010
0000
,
1000
0000
0001
0000
1000
0000
0100
0000
0010
0000
0000
0001
0000
0000
2000
0000
,
0000
3010
0100
0001
0200
0000
0300
0000
,
0010
1000
0001
0100
1000
0100
0001
0000
,
1000
0100
0010
0001
0010
1000
0010
0000
,
0001
0100
0010
0100
0001
1000
0100
0000
,
0110
2002
3003
0010
,
1000
0000
0001
0000
0100
0000
0001
0000
1000
0000
0000
0001
0000
0000
0010
0000
,
0100
0000
1000
0000
0010
0000
0100
0000
0001
0000
0000
1000
0000
0000
0001
0000
,
0010
0000
0100
0000
1000
0000
0010
0000
1000
0000
0000
0100
0000
0000
0001
0000
,
0100
1001
0000
0000
;

//--------------- dance-single - ----------------
#NOTES:
     dance-single:
     Shortysnmn2010:
     Challenge:
     9:
     0.524783,0.560488,0.354459,0.153062,0.342375,456,412,44,19,0,0,0.524783,0.560488,0.354459,0.153062,0.342375,456,412,44,19,0,0:
0000
0000
0000
0000
,
0000
0000
0000
0000
,
0000
0000
0000
0000
,
0000
0000
0000
0000
,
1000
0100
0010
0000
0001
0000
1000
0000
0001
0000
0000
0000
0101
0000
0100
0000
,
0010
2000
0100
0000
0001
0000
3001
0000
,
1001
0000
1000
0002
1000
0000
0013
0100
,
0000
0000
1000
0000
0100
0000
0010
0000
0001
0000
0010
0100
1000
0100
0010
0000
,
0001
0000
0101
0001
1000
0100
1000
0010
,
0100
0020
1000
0000
1000
0000
0130
0000
,
0001
1000
0001
0010
1000
0000
0010
0100
,
1000
0000
0010
0000
0100
0000
0000
0000
0010
0000
1000
0100
0010
0100
1000
0000
,
0001
0000
0010
0002
0100
0000
0013
0100
,
1000
0010
2000
0000
0100
0000
3100
0000
,
1001
0000
0101
0000
0110
0110
0000
1001
,
0000
1000
0100
0001
0100
0000
1100
0000
,
0101
0110
1100
1001
,
0001
0100
0010
1000
0001
0100
0010
1000
0001
0000
0000
0010
0000
0000
0100
0000
,
1001
0000
0001
0010
0100
0000
1000
0000
0010
0000
0000
0100
0000
0000
0001
0000
,
1000
0000
0100
0010
0001
0000
2000
0000
0010
0000
0000
0010
0000
0000
3001
0000
,
1001
0000
1000
0100
0010
0000
0001
0000
0100
0000
0000
0010
0000
0000
1000
0000
,
0100
0000
1000
0100
0010
0000
0001
0000
0100
0000
0000
0010
0100
0010
0100
0000
,
0001
0000
1000
0010
0100
0000
0002
0000
0010
0000
0000
0013
0000
0000
0000
0000
,
0100
0000
1000
0001
0010
0000
0200
0000
1000
0000
0000
1300
0000
0000
0000
0000
,
0010
0000
1000
0001
1000
0000
0200
0000
0010
0000
0000
0310
0000
0000
0011
0000
,
0000
0000
0001
0000
0100
0000
1000
0000
0100
0000
0000
0010
1000
0010
0100
0000
,
0001
0010
0200
0000
0000
0300
0000
1100
,
1100
0010
0001
0100
0010
0100
1001
1001
,
0010
0000
1000
0000
0200
0000
0000
0000
0300
0000
0010
0001
0000
0001
0010
0000
,
0100
0000
1000
0000
0010
0000
1000
0000
0001
0000
0100
1000
0100
1000
0100
0000
,
0001
0000
1001
0000
1000
0000
1001
0001
,
0010
1000
0010
0100
0110
0000
0220
0000
,
0330
0000
0000
0000
0010
0001
0010
0001
1000
0100
1000
0000
0001
0000
0010
0001
,
0000
0000
1000
0000
0000
0010
0000
0000
0100
0000
0001
0100
0000
0010
0100
0010
,
0000
0000
1000
0000
0000
1001
0000
0000
0001
0000
0000
0011
0000
0000
0000
0000
,
1100
0000
0000
0000
0000
0000
1001
0000
0000
0000
0000
0000
0000
0000
0000
0101
0000
0000
0000
0000
0000
0000
0000
0000
0110
0000
0000
0000
0000
0000
1000
0000
0000
0001
0000
0000
0000
0000
0000
0000
0000
0000
0100
0000
0010
0000
0100
0000
,
0010
0000
1000
0000
0000
0100
0000
0000
0010
0000
0000
0011
0000
0001
1000
0001
,
0000
0000
0100
0000
0000
0010
0000
0000
1000
0000
0000
1001
0000
0000
0000
0000
,
1000
0000
1000
0000
0010
0000
0010
0001
,
0001
0001
1000
1000
,
0100
0000
0100
0000
0001
0000
0001
0010
,
0010
0000
0000
0000
0010
0000
0000
0000
0100
1000
0001
0010
0100
1000
0100
0000
,
0010
0000
0001
0000
1000
0000
0010
0000
0000
0000
0000
0000
0001
0000
0000
0000
0000
0000
0001
0000
0000
1000
0000
0000
,
1000
1000
0100
0100
,
0101
0000
0011
0000
1100
1001
0000
0101
,
0000
0110
0110
0000
1000
0000
0100
0000
,
0001
0010
1000
0001
,
0010
0100
0010
0100
1000
0001
1000
0001
0010
0000
0000
0100
0000
0000
1000
0000
,
0001
0000
0100
0010
1000
0000
0002
0000
0100
0000
0000
0103
0000
0000
0010
0000
,
1000
0000
0001
0010
0001
0000
2000
0000
0100
0000
0000
3100
0000
0000
0010
0000
,
0100
0000
1000
0010
0100
0000
0020
0000
1000
0000
0000
1030
0000
0000
1001
0000
,
0000
0000
0010
0000
0001
0000
0100
0000
0010
0000
0000
1000
0001
0010
0001
0000
,
1000
0000
0010
0100
0001
0000
2000
0000
0100
0000
0000
3001
0000
0000
0010
0000
,
0100
0000
1000
0001
0100
0000
0002
0000
0010
0000
0000
1003
0000
0000
0010
0000
,
0100
0000
1000
0100
0010
0000
2000
0000
0001
0000
0000
3100
0000
0000
0110
0000
,
0000
0000
0010
0000
0001
0000
0100
0000
0010
0000
0000
0100
0001
0100
0010
0000
,
1000
0000
0001
0000
0100
0000
0010
0000
0100
0000
0000
0001
0000
0000
1000
0000
,
0100
0000
0010
0000
1000
0000
0010
0000
0001
0000
0000
1000
0000
0000
0010
0000
,
0001
0000
0010
0000
0100
0000
0001
0000
0010
0000
0000
0100
0000
0000
0010
0000
,
0001
0000
0000
0000
0101
0000
0000
0000
0000
0000
1000
0010
0100
0001
1000
0000
,
0001
0000
0010
0000
0001
0000
0010
0000
1000
0000
0000
1000
0000
0000
0010
0000
,
0001
0000
0100
0000
0001
0000
0100
0000
1000
0000
0000
1000
0000
0000
0100
0000
,
0001
0000
0010
0000
0001
0000
0010
0000
0100
0000
0000
1000
0000
0000
0010
0000
,
1001
1001
0000
0000
;
