#TITLE:I Need Your Love;
#SUBTITLE:feat Ellie Goulding;
#ARTIST:Calvin Harris;
#TITLETRANSLIT:;
#SUBTITLETRANSLIT:;
#ARTISTTRANSLIT:;
#GENRE:;
#CREDIT:;
#MUSIC:I Need Your Love.mp3;
#BANNER:;
#BACKGROUND:;
#CDTITLE:;
#SAMPLESTART:57.771;
#SAMPLELENGTH:15.360;
#SELECTABLE:YES;
#OFFSET:-0.171;
#BPMS:0.000=125.000
,112.000=62.500
,116.000=125.000
;
#STOPS:;
#BGCHANGES:;
#FGCHANGES:;

//--------------- dance-single - ----------------
#NOTES:
     dance-single:
     Shortysnmn2010:
     Beginner:
     1:
     0.090354,0.125178,0,0.024326,0,78,78,0,3,0,0,0.090354,0.125178,0,0.024326,0,78,78,0,3,0,0:
0000
0000
0000
0000
,
0000
0000
0000
0000
,
0000
0000
0000
0000
,
0000
0000
0000
0000
,
0010
0000
0000
0000
,
0100
0000
0000
0000
,
1000
0000
0000
0000
,
0001
0000
0100
0000
,
0001
0000
0000
0000
,
0010
0000
0000
0000
,
0100
0000
0000
0000
,
1000
0000
0001
0000
,
1000
0000
0000
0000
,
0010
0000
0000
0000
,
0100
0000
0000
0000
,
0010
0000
0000
0000
,
0010
0000
0000
0000
,
1000
0000
0000
0000
,
0001
0000
0000
0000
,
0100
0000
0000
0000
,
0010
0000
0010
0000
,
0010
0000
0000
0000
,
1000
0000
0000
0000
,
0100
0000
0000
0000
,
0010
0000
0010
0000
,
0010
0000
0000
0000
,
0001
0000
0000
0000
,
1000
0000
0000
0000
,
0020
0030
0200
0300
,
0001
0000
0001
0000
,
0010
0000
0000
0000
,
0100
0000
0100
0000
,
1000
0000
0000
0000
,
0010
0000
1000
0000
,
1000
0000
0000
0000
,
0100
0000
0010
0000
,
0100
0000
0010
0000
,
0100
0000
0000
0000
,
1000
0000
0000
0000
,
0010
0000
0000
0000
,
0100
0000
0000
0000
,
0001
0000
1000
0000
,
0001
0000
0000
0000
,
1000
0000
0001
0000
,
1000
0000
0000
0000
,
0100
0000
0100
0000
,
0010
0000
0010
0000
,
0100
0000
0100
0000
,
0010
0000
0000
0000
,
0001
0000
0001
0000
,
1000
0000
1000
0000
,
0001
0000
0001
0000
,
1000
0000
0000
0000
,
0010
0000
0000
0000
,
0100
0000
0000
0000
,
0001
0000
0000
0000
,
0010
0000
0100
0000
,
1000
0000
0000
0000
,
0010
0000
0000
0000
,
0100
0000
0000
0000
,
0001
0000
1000
0000
,
0020
0000
0000
0030
;

//--------------- dance-single - ----------------
#NOTES:
     dance-single:
     Shortysnmn2010:
     Easy:
     2:
     0.11468,0.17454,0,0.040544,0,99,99,0,5,0,0,0.11468,0.17454,0,0.040544,0,99,99,0,5,0,0:
0000
0000
0000
0000
,
0000
0000
0000
0000
,
0000
0000
0000
0000
,
0000
0000
0000
0000
,
1000
0000
0000
0000
,
0001
0000
0000
0000
,
0010
0000
0000
0000
,
0100
0000
1000
0000
,
0001
0000
0000
0000
,
0100
0000
0000
0000
,
0010
0000
0000
0000
,
1000
0000
0001
0000
,
1000
0000
0000
0000
,
0010
0000
0000
0000
,
0100
0000
0000
0000
,
0001
0000
0000
0000
,
1000
0000
0000
0000
,
0010
0000
0000
0000
,
1000
0000
0000
0000
,
0001
0000
0000
0000
,
1000
0000
0100
0000
,
1000
0000
0001
0000
,
1000
0000
0001
0000
,
1000
0000
0000
0000
,
0001
0000
0100
0000
,
0001
0000
1000
0000
,
0001
0000
0100
0000
,
0001
0000
0000
0000
,
2000
3000
0002
0003
,
1000
0000
0100
0000
,
0010
0000
0000
0000
,
0001
0000
1000
0000
,
0100
0000
0000
0000
,
1000
0000
0010
0000
,
1000
0000
0000
0000
,
0001
0000
0100
0000
,
0002
0003
2000
3000
,
0001
0000
0010
0000
,
0100
0000
0000
0000
,
0001
0000
0100
0000
,
1000
0000
0000
0000
,
0010
0000
1000
0000
,
0100
0000
0000
0000
,
1000
0000
0001
0000
,
1000
0000
0000
0000
,
0001
0001
0001
0000
,
1000
1000
1000
0000
,
0001
0001
0001
0000
,
1000
1000
1000
0000
,
0010
0010
0010
0000
,
0100
0100
0100
0000
,
0010
0010
0010
0000
,
0100
0100
0100
0000
,
0001
0000
0000
1000
,
1000
0000
0000
0010
,
0010
0000
0000
0100
,
0100
0000
0000
0001
,
0001
0000
0000
0010
,
0100
0000
0000
1000
,
0100
0000
0000
1000
,
0001
0000
0000
0020
,
0000
0000
0030
0000
;

//--------------- dance-single - ----------------
#NOTES:
     dance-single:
     Shortysnmn2010:
     Medium:
     5:
     0.243262,0.299212,0.186501,0.267588,0.008109,210,187,23,33,0,0,0.243262,0.299212,0.186501,0.267588,0.008109,210,187,23,33,0,0:
0000
0000
0000
0000
,
0000
0000
0000
0000
,
0000
0000
0000
0000
,
0000
0000
0000
0000
,
1000
0000
0000
0000
,
0101
0000
0000
0000
,
0001
0000
0000
0000
,
1100
0000
0010
0000
,
1001
0000
0000
0000
,
0100
0000
0000
0000
,
1010
0000
0000
0000
,
0001
0000
1000
0000
,
0010
0000
0000
0100
0000
0100
0001
0000
,
0010
0000
0000
0001
0000
0001
1000
0000
,
0100
0000
0000
0010
0000
0010
0001
0000
,
1000
0000
0000
0100
0000
0100
1000
0000
,
0001
0000
0000
0100
0000
0001
0100
0000
,
0001
0000
0000
0010
0000
0100
0010
0000
,
0100
0000
0000
1000
0000
0100
1000
0000
,
0010
0000
0000
2000
0000
0000
3000
0000
,
0001
0010
0022
0033
,
1000
0100
2200
3300
,
0010
0100
0220
0330
,
0001
1000
2002
3003
,
0100
0001
2020
3030
,
0100
1000
0220
0330
,
0001
0010
2002
3003
,
0010
0100
0022
0033
,
1000
0000
0000
0001
1000
0000
0000
1000
,
0001
0100
0010
1000
,
0100
0000
0001
0100
1000
0000
0000
0000
,
0010
0000
0100
0000
0001
0000
1000
0001
,
1000
0100
0001
0000
,
0100
0010
0002
0003
,
0100
0010
2000
3000
,
0001
0010
0200
0300
,
1000
0000
0000
0001
0000
0000
1000
0000
0000
0001
0000
0000
1000
0000
0000
0000
,
0010
0000
1000
0000
0100
0000
0010
0001
,
0000
2200
0000
0000
0000
3300
0000
0000
,
0010
0000
1000
0000
0001
0000
0100
0010
,
0000
0202
0000
0000
0000
0303
0000
0000
,
0010
0000
1000
0000
0100
0000
0010
0001
,
0000
1001
0000
0000
0000
0000
0000
0000
,
1000
0000
0010
0100
0001
0000
0010
0100
,
1000
0000
0000
0010
0100
0000
0001
0000
,
1100
1000
2000
3000
,
0101
0001
0002
0003
,
1010
1000
2000
3000
,
0011
0001
0002
0003
,
0110
0100
0200
1300
,
1010
0010
0020
0130
,
0101
0001
0002
0013
,
0110
0100
0200
1300
,
0001
0000
0000
0010
0000
0100
0010
0000
,
0001
0000
0000
0100
0000
0010
0100
0000
,
0010
0000
0000
1000
0000
0001
0010
0000
,
0100
0000
0000
0010
0000
0001
1000
0000
,
0010
0000
0000
0100
0000
0001
0100
0000
,
0010
0000
0000
1000
0000
0100
0010
0000
,
0001
0000
0000
1000
0000
0010
1000
0000
,
0100
0000
0000
0010
0000
0001
0010
0200
,
0000
0000
0300
0000
;

//--------------- dance-single - ----------------
#NOTES:
     dance-single:
     Shortysnmn2010:
     Hard:
     7:
     0.370684,0.398949,0.429762,0.105413,0.089196,320,267,53,13,0,0,0.370684,0.398949,0.429762,0.105413,0.089196,320,267,53,13,0,0:
0000
0000
0000
0000
,
0000
0000
0000
0000
,
0000
0000
0000
0000
,
0000
0000
0000
0000
,
0110
0000
0000
0010
0001
0000
0100
0000
,
0110
0000
0000
0000
0000
0000
0010
0000
1000
0000
0000
0100
0000
0000
0010
0000
,
0110
0000
0000
0010
0001
0000
0010
0000
,
0110
0000
0000
0100
1000
0000
0001
0000
,
1001
0000
0000
1000
0010
0000
0100
0000
,
1001
0000
0000
0000
0000
0000
0001
0000
0010
0000
0000
0100
0000
0000
1000
0000
,
1001
0001
0100
1000
,
1001
0000
0110
0000
,
0001
0000
0000
1000
0000
0000
0100
0000
0000
0000
0010
0000
0100
0000
0000
0000
,
1000
0000
0000
0010
0000
0000
0100
0000
0000
0000
0001
0000
0100
0000
0000
0000
,
0001
0000
0000
0010
0000
0000
0001
0000
0000
0000
1000
0000
0100
0000
0000
0000
,
0010
0000
0000
0100
0000
0000
1000
0000
0000
0000
0001
0000
0100
0000
0000
0000
,
0001
0000
0000
0010
0000
0000
0001
0000
0000
0000
0010
0000
0100
0000
0000
0000
,
1000
0000
0000
0100
0000
0000
1000
0000
0000
0000
0010
0000
1000
0000
0000
0000
,
0100
0000
0000
0010
0000
0000
0100
0000
0000
0000
0010
0000
0100
0000
0000
0000
,
0010
0000
0000
0001
0000
0000
2000
0000
0000
0000
3000
0000
0000
0000
0000
0000
,
0100
0000
0101
0000
1001
0000
0010
1000
,
0100
0000
1100
0000
1001
0000
0010
0001
,
1000
0000
1010
0000
1100
0000
0001
0010
,
0001
0000
0101
0000
0011
0000
0100
1000
,
0001
0000
1100
0000
1001
0000
0010
0001
,
0100
0000
1010
0000
1001
0000
0010
0100
,
1000
0000
1010
0000
1001
0000
0100
0001
,
0010
0000
0110
0000
1001
0000
0100
0010
,
1000
0000
0000
0001
0000
0000
0010
0000
0100
0000
0000
1000
0000
0000
0010
0000
,
0100
0001
0100
0001
0000
1000
0100
0010
,
0001
1000
0220
0330
,
0001
0010
0100
1000
0000
0001
0100
0001
,
1000
0100
0220
0330
,
1000
0001
0100
0001
0000
1000
0000
0000
,
0010
0100
0001
0020
0000
0000
0030
0000
,
0100
1000
0001
1000
0100
0010
0001
0100
,
0010
0000
0000
1000
0000
0000
0001
0000
0000
0100
0000
0000
1001
0000
0000
0000
,
0001
0000
0010
0100
1000
0000
0010
0100
,
0001
2000
0001
0000
0002
0000
3003
0000
,
1000
0000
0010
1000
0100
0000
0010
0001
,
1000
0002
1000
0000
2000
0000
3003
0000
,
0010
0000
1000
0100
0010
0000
0001
0010
,
0000
0220
0000
0000
0000
0330
0000
0000
,
1000
0001
0100
0001
1000
0000
0100
0000
,
0010
0001
1000
0001
0010
0000
0100
0000
,
1100
1001
1100
0000
,
0011
1001
0011
0000
,
0110
1100
0110
0000
,
0011
0110
1100
0000
,
1010
0110
0101
0000
,
0011
0110
1100
0000
,
1001
0110
1001
0010
,
1001
0110
1001
0100
,
0010
0000
0000
0001
0000
0000
0100
0000
0000
0000
0001
0000
0100
0000
0000
0000
,
0010
0000
0000
0100
0000
0000
0001
0000
0000
0000
0010
0000
0001
0000
0000
0000
,
1000
0000
0000
0100
0000
0000
0001
0000
0000
0000
0100
0000
0010
0000
0000
0000
,
0001
0000
0000
1000
0000
0000
0010
0000
0000
0000
0100
0000
0001
0000
0000
0000
,
1000
0000
0000
0100
0000
0000
0010
0000
0000
0000
0100
0000
1000
0000
0100
0000
,
0010
0000
0000
0001
0000
0000
0100
0000
0000
0000
0010
0000
1000
0000
0001
0000
,
1000
0000
0000
0100
0000
0000
0010
0000
0000
0000
0001
0000
0010
0000
0100
0000
,
1000
0000
0000
0010
0000
0000
0100
0000
0000
0000
0001
0000
1000
0000
0002
0000
,
0000
0000
0003
0000
;

//--------------- dance-single - ----------------
#NOTES:
     dance-single:
     Shortysnmn2010:
     Challenge:
     9:
     0.498107,0.576986,0.275697,0.162174,0.502741,430,396,34,20,31,0,0.498107,0.576986,0.275697,0.162174,0.502741,430,396,34,20,31,0:
0000
0000
0000
0000
,
0000
0000
0000
0000
,
0000
0000
0000
0000
,
0000
0000
0000
0000
,
1001
0000
0000
0010
0001
0000
0100
0000
,
1010
0000
0000
0000
0000
0000
1000
0000
0100
0000
0000
0010
0000
0000
0001
0000
,
0100
0000
0000
0010
1000
0000
0100
0000
,
2200
3300
0022
0033
,
0110
0000
0000
1000
0010
0000
0100
0000
,
1010
0000
0000
0000
0000
0000
0001
0000
0010
0000
0000
0100
0000
0000
0001
0000
,
0200
2300
3020
0032
,
2003
3000
0220
0330
,
0001
1000
0000
0001
1000
0000
0001
1000
0000
0001
1000
0000
0100
0000
0010
0000
,
0001
0100
0000
0001
0100
0000
0001
0100
0000
0001
0100
0000
0010
0000
1000
0000
,
0100
0010
0000
0100
0010
0000
0100
0010
0000
0100
0010
0000
0001
0000
1000
0000
,
0001
0010
0000
0001
0010
0000
0001
0010
0000
0001
0010
0000
0100
0000
1000
0000
,
0010
0100
0000
0100
0001
0000
0001
0010
0000
0010
0001
0000
1000
0000
0100
0000
,
0010
0100
0000
0100
1000
0000
1000
0010
0000
0010
0100
0000
0001
0000
1000
0000
,
0010
0001
0000
0001
0010
0000
0010
1000
0000
1000
0001
0000
0100
0000
1000
0000
,
0100
0001
0000
0001
0010
0000
0010
0200
0000
0000
0000
0000
0300
0000
0000
0000
,
1000
0100
0000
1000
0100
0000
0010
0001
0000
0010
0001
0000
1000
0000
0010
0000
,
0100
0001
0000
0100
0001
0000
1000
0100
0000
1000
0100
0000
0010
0000
0001
0000
,
0100
0010
0000
0100
0010
0000
1000
0001
0000
1000
0001
0000
0010
0000
0100
0000
,
1000
0010
0000
1000
0010
0000
0100
0001
0000
0100
0001
0000
0010
0000
0100
0000
,
1000
0010
0000
0100
0001
0000
1000
0100
0000
0010
0001
0000
1000
0000
0010
0000
,
0100
0001
0000
0010
0001
0000
0100
0001
0000
0010
0100
0000
1000
0000
0010
0000
,
1000
0100
0000
1000
0010
0000
1000
0001
0000
1000
0100
0000
0010
0000
0001
0000
,
0100
0010
0000
0100
0001
0000
0100
0010
0000
0100
0001
0000
0010
0000
0100
0000
,
1000
0000
0000
1000
0000
0000
1000
0000
0000
0010
0000
0000
0100
0000
0001
0000
0010
0000
0000
0010
0000
0000
0010
0000
0000
0100
0000
0000
1000
0000
0010
0000
,
0100
0000
0001
0000
0010
0000
0001
1000
0000
0000
0100
0000
1000
0000
0010
0000
,
1000
0000
0001
0100
0000
0001
0000
0010
0000
0000
0000
0000
0000
0000
0000
0000
,
0100
0000
0010
0000
0100
1000
0000
0001
0000
0000
0100
0000
1000
0000
0100
0000
,
0000
0001
0000
1000
0100
0000
0010
0000
0000
0000
0000
0000
0000
0000
0000
0000
,
0001
0000
0010
0000
0100
0000
0010
1000
0000
0000
0010
0000
0000
0000
0000
0000
,
0001
0000
1000
0000
0001
0000
0100
1000
0000
0000
0000
0000
0000
0000
0000
0000
,
0001
0000
1000
0000
0100
0000
0000
0010
0000
0000
0001
0000
0010
0000
0100
0000
,
2000
0000
0000
3020
0000
0000
0032
0000
0000
2003
0000
0000
3100
0000
0010
0100
,
0001
0000
0000
0000
1000
0000
0000
0100
0000
0010
0000
0001
0000
0000
1000
0000
,
0000
1020
0000
0000
0030
0100
0001
1000
,
0100
0000
0000
0000
1000
0000
0001
0000
0010
0000
0100
1000
0000
0000
0001
0000
,
0000
0201
0000
0000
0300
0010
1000
0100
,
0010
0000
0000
0000
0001
0000
0010
0001
0000
0000
1000
0000
0100
0000
0010
0000
,
0000
0210
0000
0000
0300
1000
0001
0010
,
0001
0100
0010
0100
0001
0000
1000
0100
,
0010
0000
0000
0001
0100
0000
0010
0000
,
0101
0011
0101
MMMM
,
1010
1100
1010
MMMM
,
1001
0110
1001
MMMM
,
1100
0011
1100
MMMM
,
0101
1010
1001
MMMM
,
0110
1100
0011
MMMM
,
0101
1010
1001
MM1M
,
1001
0101
1010
MMMM
,
1000
0100
0000
1000
0001
0000
0100
0001
0000
1000
0010
0000
1000
0000
0001
0000
,
0010
0001
0000
1000
0010
0000
0100
0001
0000
1000
0100
0000
0010
0000
0001
0000
,
0100
0010
0000
1000
0001
0000
0010
0100
0000
1000
0001
0000
0100
0000
0010
0000
,
1000
0100
0000
0010
0001
0000
0100
1000
0000
0001
0010
0000
1000
0000
0001
0000
,
1000
0010
0000
0100
0001
0000
1000
0100
0000
0010
0001
0000
1000
0000
0010
0000
,
0100
0001
0000
0010
0100
0000
0010
0001
0000
0100
0010
0000
0001
0000
0010
0000
,
1000
0100
0000
0010
0100
0000
1000
0010
0000
0100
1000
0000
0100
0000
0010
0000
,
1000
0001
0000
0100
0010
0000
0001
1000
0000
0100
0001
0000
1000
0000
0200
0000
,
0000
0000
0000
0000
0000
0000
0000
0300
;
