#TITLE:I Don't Like You;
#SUBTITLE:;
#ARTIST:Eva Simons;
#TITLETRANSLIT:;
#SUBTITLETRANSLIT:;
#ARTISTTRANSLIT:;
#GENRE:;
#CREDIT:;
#MUSIC:I Don't Like You.mp3;
#BANNER:;
#BACKGROUND:;
#CDTITLE:;
#SAMPLESTART:62.662;
#SAMPLELENGTH:15.234;
#SELECTABLE:YES;
#OFFSET:-0.084;
#BPMS:0.000=128.000;
#STOPS:;
#BGCHANGES:;
#FGCHANGES:;

//--------------- dance-single - ----------------
#NOTES:
     dance-single:
     Shortysnmn2010:
     Beginner:
     1:
     0.092712,0.13002,0.00889,0.062232,0,73,72,1,7,0,0,0.092712,0.13002,0.00889,0.062232,0,73,72,1,7,0,0:
0000
0000
0000
0000
,
0000
0000
0000
0000
,
0000
0000
0000
0000
,
0000
0000
0000
0000
,
0000
0000
0000
0000
,
0000
0000
1000
0000
,
0000
0000
0100
0000
,
0000
0000
0010
0000
,
0001
0000
0020
0000
,
0030
0000
0100
0000
,
0000
0000
1000
0000
,
0010
0000
1000
0000
,
0000
0000
0001
0000
,
0000
0000
0010
0000
,
0000
0000
0100
0000
,
0010
0000
0001
0000
,
0000
0000
1000
0000
,
0000
0000
0020
0000
,
0000
0030
0100
0000
,
0000
0000
0002
0000
,
0000
0003
1000
0000
,
0000
0000
0020
0000
,
0000
0030
1000
0000
,
0000
0000
0200
0000
,
0000
0300
0010
0000
,
0000
0000
0001
0000
,
0000
0000
1000
0000
,
1000
0000
0001
0000
,
0001
0000
1000
0000
,
0001
0000
0000
0000
,
0010
0000
0100
0000
,
0100
0000
0010
0000
,
0010
0000
0100
0000
,
0100
0000
0010
0000
,
0000
0001
0001
0000
,
0000
0000
1000
0000
,
0000
0010
0010
0000
,
0000
0000
0100
0000
,
0000
0000
0010
0000
,
0000
0000
1000
0000
,
0001
0000
0010
0000
,
0000
0000
0100
0000
,
0000
1000
1000
0000
,
0000
0000
0010
0000
,
0000
0100
0100
0000
,
0000
0000
0010
0000
,
0000
0000
1000
0000
,
0001
0000
0010
0000
,
0000
0000
0100
0000
,
0000
0000
1000
0000
,
0001
0000
1000
0000
,
0000
0000
0010
0000
,
0010
0000
0010
0000
,
0000
0000
1000
0000
,
0001
0000
0100
0000
,
0000
0000
0010
0000
,
0010
0000
0010
0000
,
0000
0000
2002
0000
,
0000
0000
3003
0000
;

//--------------- dance-single - ----------------
#NOTES:
     dance-single:
     Shortysnmn2010:
     Easy:
     3:
     0.167644,0.230035,0.01778,0.142244,0,132,130,2,16,0,0,0.167644,0.230035,0.01778,0.142244,0,132,130,2,16,0,0:
0000
0000
0000
0000
,
0000
0000
0000
0000
,
0000
0000
0000
0000
,
0000
0000
0000
0000
,
0000
0000
0000
0000
,
0000
0000
0000
0000
1000
0000
0000
0001
,
0000
0000
0000
0000
0010
0000
0000
0100
,
0000
0000
0000
0000
1000
0000
0000
0010
,
0000
0000
0000
0000
0100
0000
0000
0001
,
0000
0000
0000
0000
0020
0000
0000
0030
,
0000
0001
0000
1000
0000
0000
0010
0000
,
0100
0000
0000
0000
0020
0000
0000
0030
,
0000
1000
0000
0001
0000
0000
0010
0000
,
0000
0000
0100
0000
2000
0000
0000
3000
,
0000
0010
0000
0100
0000
0000
0001
0000
,
0010
0001
0000
1000
,
0000
0020
0000
0000
,
0000
0030
0100
0001
,
0100
0001
0010
0000
,
0100
0000
1000
0010
,
1000
0010
0100
0000
,
0001
1000
0001
0000
,
1000
0001
1000
0000
,
0010
0000
0100
0000
,
0010
0000
1000
0000
,
0100
0010
0110
0000
,
0000
0000
0001
0001
,
0001
0000
1000
0000
,
0001
0000
1000
0000
,
0010
0000
0100
0000
,
0000
0000
0010
0010
,
0010
0000
1000
0000
,
0001
0000
1000
0000
,
0001
0000
0000
0000
1000
0000
0000
0100
,
0000
0000
0000
0000
1000
0000
0000
0001
,
0000
0000
0000
0000
0010
0000
0000
0001
,
0000
0000
0000
0000
0010
0000
0000
0100
,
0000
0000
1000
0000
0001
0000
0000
0001
,
0000
1000
0020
0030
,
0100
0000
0010
0010
,
0010
0000
0100
0000
,
0000
0000
0010
0000
1000
0000
0000
0100
,
0000
0000
0000
0000
0010
0000
0000
0100
,
0000
0000
0000
0000
1000
0000
0000
0001
,
0000
0000
0100
0000
0010
0000
0000
0100
,
0000
0000
0000
0000
0001
0000
0000
0010
,
0000
0100
2000
3000
,
0001
0000
0100
0100
,
0100
0000
0010
0000
,
1000
0000
0002
2003
,
3002
0003
2000
3002
,
2003
3000
0001
0010
,
0100
1000
0001
0010
,
0200
2300
3002
0003
,
2000
3000
0001
0100
,
0010
1000
0001
0100
,
0010
1000
0001
0000
,
1000
0000
1001
0000
;

//--------------- dance-single - ----------------
#NOTES:
     dance-single:
     Shortysnmn2010:
     Medium:
     6:
     0.300998,0.360943,0.151134,0.177805,0.022226,237,220,17,20,0,0,0.300998,0.360943,0.151134,0.177805,0.022226,237,220,17,20,0,0:
0000
0000
0000
0000
,
0000
0000
0000
0000
,
0000
0000
0000
0000
,
0000
0000
0000
0000
,
0000
0000
0000
0000
,
0000
0000
0000
0000
1000
0000
0000
0010
,
0000
1000
0010
0000
0100
0000
0000
0001
,
0000
0010
0001
0000
0100
0000
0000
0010
,
0000
1000
0001
0000
0010
0000
0000
0001
,
0000
1000
0100
0000
0220
0000
0330
0000
,
0000
0001
0010
0001
0000
0000
0100
0000
,
0010
0000
1000
0001
0200
0000
0300
0000
,
0000
0010
1000
0100
0000
0000
1000
0001
,
1000
0000
0001
1000
0002
0000
0003
0000
,
0000
0010
0100
1000
0000
0000
0001
0000
,
0011
0000
0100
1000
0001
0000
0010
0100
,
1000
0000
0002
0020
0000
0000
0000
0000
,
0033
0000
0000
0000
0000
0000
0000
0000
1000
0000
0000
0001
0000
0000
1000
0000
,
0001
0000
0000
1000
0000
0000
0001
0000
0000
0000
0000
0000
0000
0000
0010
0000
,
1000
0000
0000
0000
0001
0000
0000
0000
0010
0000
0000
0100
0000
0000
0010
0000
,
0100
0000
0000
0010
0000
0000
0100
0000
0000
0000
0000
0000
0000
0000
1000
0000
,
0010
0000
0100
0001
0010
0000
0000
0000
,
0002
1000
0020
0033
,
0100
0000
1000
0000
0010
0000
0000
0100
,
0000
0010
0100
0000
0001
0000
1000
0000
,
0001
1000
0001
1000
0001
0000
0000
0000
,
0010
0100
0010
0000
0001
0000
1000
0000
,
0002
0003
1000
0100
,
1000
0010
1000
0100
,
0010
0100
0010
0000
0002
0000
0003
0000
,
0100
0010
0100
0000
0001
0000
1000
0000
,
0020
0100
1000
0130
,
0001
0000
0000
0000
1000
0000
0000
0000
0004
4000
0000
0000
0000
0000
0000
0000
,
0000
0000
3003
0000
0010
0000
0000
1000
,
0000
0100
1000
0000
1001
0000
0000
0001
,
0000
0010
0001
0000
0101
0000
0000
0010
,
0000
1000
0100
0000
0110
0000
0000
1000
,
0000
0001
0100
0000
1010
0000
0000
0001
,
1000
0000
0001
1000
0002
0000
0003
0000
,
1000
0100
1000
0100
1000
0000
0100
0000
,
0011
0000
0000
0100
1000
0000
0001
0000
,
0100
0010
0000
0010
1000
0000
0000
0100
,
0000
0010
0001
0000
0101
0000
0000
0010
,
0000
1000
0100
0000
0011
0000
0000
0100
,
0000
1000
0001
0000
0110
0000
0000
0001
,
0000
0010
0001
0000
0101
0000
0000
0010
,
1000
0000
0100
0010
0002
0000
0003
0000
,
1000
0100
0010
0100
1000
0000
0010
0000
,
0020
0000
0030
0100
0001
0000
0101
0000
,
0000
0001
1000
0000
1100
0000
1001
0000
,
1100
0000
1001
0000
0010
0000
0001
0100
,
0010
0000
0100
0000
0001
1000
0001
1000
,
0001
1000
0001
1000
0010
0000
0100
0000
,
0002
1000
0020
0003
,
0200
0000
0330
0000
1000
0100
1000
0100
,
1000
0100
0000
0010
0100
0010
0100
0010
,
0100
0000
1000
0002
0000
0000
0000
0000
,
0000
0013
2002
0000
,
3003
0000
0000
0000
;

//--------------- dance-single - ----------------
#NOTES:
     dance-single:
     Shortysnmn2010:
     Hard:
     8:
     0.40006,0.46407,0.231146,0.195585,0.124463,315,289,26,22,0,0,0.40006,0.46407,0.231146,0.195585,0.124463,315,289,26,22,0,0:
0000
0000
0000
0000
,
0000
0000
0000
0000
,
0000
0000
0000
0000
,
0000
0000
0000
0000
,
0000
0000
0000
0000
,
0000
0000
0000
0000
0000
0000
0000
0000
1000
0000
0000
0100
0000
0000
1000
0000
,
0000
0000
0100
0000
1000
0000
0100
0000
0010
0000
0000
0100
0000
0000
0010
0000
,
0000
0000
0001
0000
0010
0000
0001
0000
0100
0000
0000
0001
0000
0000
0100
0000
,
0000
0000
0010
0000
0100
0000
0010
0000
0100
0000
0000
0010
0000
0000
1000
0000
,
0000
0001
1000
0001
0010
0000
0100
0000
,
0100
1000
0010
0200
0001
0000
1000
0000
,
0310
0000
1000
0001
0010
0000
0100
0000
,
0100
0010
0001
2000
0000
3000
0010
0100
,
0001
0000
0010
0100
1000
0000
1001
0000
,
0001
0010
0100
2000
0100
0000
0010
0000
,
3001
0000
0100
0010
1000
0000
0001
0010
,
1000
0000
0000
0000
0010
0000
0001
0000
0100
0000
0000
0010
0000
0000
0100
0000
,
0000
0000
0001
0000
0100
0000
0010
0000
1000
0000
0000
0010
0000
0000
0100
0000
,
0010
0000
0000
1000
0000
0000
0002
0000
0000
0000
0003
0000
0000
0000
0100
0000
,
0010
0000
1000
0000
0001
0000
1000
0000
0100
0000
0000
0010
0000
0000
0100
0000
,
1000
0000
0000
0001
0000
0000
0020
0000
0000
0000
0030
0000
0000
0000
0001
0000
,
1000
0010
0001
0010
2000
0000
0001
0000
,
3100
0000
0010
0000
0001
0000
0010
0000
0100
0000
0000
1000
0000
0000
0010
0000
,
0000
0000
1000
0000
0001
0000
1000
0000
0001
0000
0000
0010
0000
0000
0001
0000
,
0000
0000
0100
0000
0010
0000
0100
0000
0001
0000
0000
0010
0000
0000
0100
0000
,
1000
0001
1000
0001
0020
0000
0030
0000
,
0001
0100
0010
0100
0001
0000
1100
0000
,
2002
3003
0101
1001
,
0010
0100
1001
0011
,
0100
1000
0010
1000
0200
0000
0300
0010
,
0001
0000
0100
0010
0100
0000
0001
0000
,
2000
0000
0010
0000
3100
0010
0100
0010
,
0001
0000
1000
0000
0001
0000
1000
0000
0040
0400
0000
0000
0000
0000
0000
0000
,
0000
0000
0000
0000
0330
0000
0000
0000
0001
0000
0000
0100
0000
0000
0001
0000
,
0000
0000
1000
0000
0100
0000
0000
0000
0110
0000
0000
0001
0000
0000
0010
0000
,
0000
0000
0001
0000
0100
0000
0000
0000
1010
0000
0000
0100
0000
0000
0001
0000
,
0000
0000
1000
0000
0100
0000
0000
0000
0110
0000
0000
0001
0000
0000
1000
0000
,
0000
0000
0001
0000
0100
0000
0000
0000
0101
0000
0000
0010
0000
0000
1000
0000
,
0100
0010
0001
1000
0002
0000
0010
0000
,
0103
0010
1000
0010
0100
0000
0101
0000
,
1001
0000
0100
0010
1000
0000
1001
0000
,
0010
0000
1000
0000
0100
0000
1000
0000
0010
0000
0000
0100
0000
0000
0010
0000
,
0000
0000
1000
0000
0100
0000
0000
0000
0011
0000
0000
0001
0000
0000
1000
0000
,
0000
0000
0010
0000
0100
0000
0000
0000
0101
0000
0000
0010
0000
0000
1000
0000
,
0000
0000
0100
0000
0010
0000
0000
0000
0110
0000
0000
1000
0000
0000
0001
0000
,
0000
0000
0100
0000
0001
0000
0000
0000
1010
0000
0000
0100
0000
0000
0001
0000
,
0010
1000
0010
0100
2000
0000
0010
0000
,
3001
0100
0010
0100
1000
0000
1100
0000
,
0101
0000
0100
0010
1000
0000
1001
0000
,
0010
0001
1000
0000
1100
0000
0101
0000
,
1100
0000
0000
0000
0010
0000
0000
0000
0100
0000
0000
0001
0000
0100
0001
0000
,
1000
0000
0000
0000
0010
0100
0001
0000
1000
0000
0100
0000
1000
0000
0100
0000
,
0010
0000
0001
0010
0000
0001
0010
0000
0002
0000
0000
0000
0100
0000
0000
0000
,
2003
0100
0002
3003
,
0220
0000
0330
0000
0001
0100
1000
0100
,
0010
0200
0000
0301
1000
0001
0010
0001
,
2000
0000
3010
0100
0001
0100
1000
0100
,
0010
1000
0001
0000
2002
0000
0000
0000
,
3003
0000
0000
0000
;
