#TITLE:Hot Girls;
#SUBTITLE:;
#ARTIST:Dony feat. Elena;
#TITLETRANSLIT:;
#SUBTITLETRANSLIT:;
#ARTISTTRANSLIT:;
#GENRE:;
#CREDIT:;
#MUSIC:Hot Girls.mp3;
#BANNER:;
#BACKGROUND:;
#CDTITLE:;
#SAMPLESTART:89.221;
#SAMPLELENGTH:15.100;
#SELECTABLE:YES;
#OFFSET:-0.392;
#BPMS:0.000=126.986;
#STOPS:;
#BGCHANGES:;
#FGCHANGES:;

//--------------- dance-single - ----------------
#NOTES:
     dance-single:
     Shortysnmn2010:
     Beginner:
     1:
     0.093436,0.129368,0,0.061558,0,85,85,0,8,0,0,0.093436,0.129368,0,0.061558,0,85,85,0,8,0,0:
0000
0000
0000
0000
,
0000
0000
0000
0000
,
0000
0000
0000
0000
,
0000
0000
0000
0000
,
0000
0000
0000
0000
,
0010
0000
0100
0000
,
0010
0000
0000
0000
,
0001
0000
0000
0000
,
1000
0000
0000
0000
,
0001
0000
0100
0000
,
0100
0000
0000
0000
,
0001
0000
1000
0000
,
0001
0000
0000
0000
,
1000
0000
1000
0000
,
0100
0000
0000
0000
,
0010
0000
0100
0000
,
0010
0000
0000
0000
,
0001
0000
0002
0000
,
0000
0000
0003
0000
,
1000
0000
2000
0000
,
0000
0000
3000
0000
,
0010
0000
0100
0000
,
0100
0000
0010
0000
,
0010
0000
0000
0000
,
0100
0000
0000
0000
,
0001
0000
0000
0000
,
0010
0000
0000
0000
,
0100
0000
0000
0000
,
1000
0000
0000
0000
,
0002
0000
0000
0003
,
0000
0000
0010
0000
,
0020
0000
0000
0030
,
0000
0000
0100
0000
,
0200
0000
0000
0300
,
1000
0000
1000
0000
,
2000
0000
3000
0000
,
0001
0000
0001
0000
,
0002
0000
0003
0000
,
1000
0000
0001
0000
,
0010
0000
0000
0000
,
0100
0000
0100
0000
,
1000
0000
0000
0000
,
0010
0000
0010
0000
,
0010
0000
0000
0000
,
1000
0000
1000
0000
,
1000
0000
0000
0000
,
0001
0000
0000
0000
,
0010
0000
0100
0000
,
0010
0000
0000
0000
,
0001
0000
0000
0000
,
1000
0000
0000
0000
,
0010
0000
1000
0000
,
0100
0000
0000
0000
,
0010
0000
0000
0000
,
0001
0000
0000
0000
,
1000
0000
0000
0000
,
0010
0000
0100
0000
,
0010
0000
0000
0000
,
1000
0000
0001
0000
,
0100
0000
0000
0000
,
0010
0000
0010
0000
,
0010
0000
0000
0000
,
0100
0000
0100
0000
,
0100
0000
0001
0000
,
0100
0000
0000
0000
,
0010
0000
1000
0000
,
0010
0000
0100
0200
,
0000
0300
0000
0000
;

//--------------- dance-single - ----------------
#NOTES:
     dance-single:
     Shortysnmn2010:
     Easy:
     2:
     0.108826,0.154087,0,0.030779,0,99,99,0,4,0,0,0.108826,0.154087,0,0.030779,0,99,99,0,4,0,0:
0000
0000
0000
0000
,
0000
0000
0000
0000
,
0000
0000
0000
0000
,
0000
0000
0000
0000
,
0000
0000
0000
0000
,
1000
0000
0001
0000
,
1000
0000
0000
0000
,
0001
0000
1000
0000
,
0001
0000
0000
0000
,
0010
0000
0010
0000
,
0010
0000
0001
0000
,
1000
0000
0000
0000
,
0100
0000
0000
0000
,
1000
0000
1000
0000
,
1000
0000
0010
0000
,
0100
0000
0000
0000
,
0010
0000
0000
0000
,
2000
0000
0000
0000
,
0001
0000
3001
0000
,
0002
0000
0000
0000
,
1000
0000
1003
0000
,
1000
0000
0000
0000
,
0010
0000
0000
0000
,
0100
0000
0010
0000
,
0100
0000
0000
0000
,
0001
0000
0000
0010
,
0010
0000
0000
0100
,
0100
0000
0000
1000
,
1000
0000
0001
0000
,
1000
1000
1000
0000
,
0001
0000
0000
0000
,
0010
0000
0010
0000
,
0010
0000
0000
0000
,
0100
0100
0100
0000
,
1000
0000
0000
0000
,
0010
0000
0010
0000
,
0010
0000
0000
0000
,
0100
0000
0001
0000
,
1000
0000
0001
0000
,
0100
0000
0000
0000
,
0010
0000
0000
0000
,
1000
0000
0001
0000
,
0010
0000
0001
0000
,
1000
0000
0000
0000
,
0001
0000
0000
0000
,
2000
0000
3000
0000
,
0002
0000
0003
0000
,
1000
0000
0010
0000
,
1000
0000
0000
0000
,
0001
0000
0100
0000
,
0001
0000
0000
0000
,
1000
0000
0001
0000
,
1000
0000
0000
0000
,
0001
0000
1000
0000
,
0001
0000
0000
0000
,
0010
0010
0010
0000
,
0001
0000
0000
0000
,
0100
0000
0100
0000
,
0100
0000
0000
0000
,
0010
0010
0010
0000
,
1000
0000
0000
0000
,
0100
0000
0100
0000
,
0100
0000
0000
0000
,
1000
0000
0100
0000
,
0001
0000
0100
0000
,
1000
0000
0000
0000
,
0001
0000
1000
1000
;

//--------------- dance-single - ----------------
#NOTES:
     dance-single:
     Shortysnmn2010:
     Medium:
     5:
     0.275911,0.333855,0.100032,0.030779,0,251,238,13,4,0,0,0.275911,0.333855,0.100032,0.030779,0,251,238,13,4,0,0:
0000
0000
0000
0000
,
0000
0000
0000
0000
,
0000
0000
0000
0000
,
0000
0000
0000
0000
,
0000
0000
0000
0000
,
0001
0000
0100
0000
0001
0000
1000
0001
,
0010
0010
0010
0000
,
0100
0100
0100
0000
,
0002
1003
2000
3001
,
0000
1000
0100
0000
0010
0000
0001
0000
,
0000
0100
0001
0000
1000
0000
0010
0000
,
0000
1000
0010
0000
0001
0000
0010
0000
,
1000
0000
0001
0000
0100
0100
0100
0000
,
0000
0001
0100
0000
0010
0000
0100
0000
,
0000
0010
1000
0000
0100
0000
0001
0000
,
0000
0100
1000
0000
0001
0000
0010
0000
,
0100
0000
1000
0000
0100
0100
0100
0000
,
0010
1100
0010
1100
,
0000
1000
0000
1000
0001
0000
0000
0000
,
0010
0101
0010
0101
,
0000
1000
0000
1000
0010
0000
0000
0000
,
0000
1000
0100
0000
0010
0000
0100
0000
,
0000
0010
0100
0000
1000
0000
0010
0000
,
0100
0001
0100
1000
,
0100
0001
1000
0000
0200
0000
0300
0000
,
1000
0100
0010
0100
,
0001
0100
0010
0100
,
1000
0100
0010
0100
,
0001
0100
0010
0000
0002
0000
0003
0000
,
0100
0000
0000
0000
0010
0000
1000
0001
,
0100
0000
0000
0000
0010
0000
0100
0001
,
1000
0000
0000
0000
0100
0000
0010
0100
,
1000
0000
0000
0000
0100
0000
0010
0100
,
0001
0000
0000
0000
0100
0000
1000
0001
,
0100
0000
0000
0001
1000
0000
0000
1000
,
0001
0000
0010
0001
,
1000
0000
0000
0001
1000
0000
0000
1000
,
0001
0000
0100
0000
0010
0000
0000
0100
,
0010
0000
0100
0000
0001
0000
0000
0010
,
0001
0000
0100
0000
0001
0000
0000
1000
,
0100
0000
1000
0000
0100
0000
0000
0010
,
0100
0000
0010
0000
0100
0000
0000
0010
,
0001
0000
0000
0100
0010
0000
0000
1000
,
0100
1000
0010
0100
,
0001
0000
0000
0100
0010
0000
0000
0100
,
0001
0000
1000
0000
,
0001
0000
0000
0000
,
1000
0010
0001
0010
,
1000
0100
0001
0100
,
1000
1000
1000
0000
,
0001
0001
0001
0000
,
1000
0001
0100
1000
,
0100
0001
1000
0100
,
0001
0001
0001
0000
,
0100
0100
0100
0000
,
1000
0010
1000
0001
,
0100
0001
1001
1001
,
1000
0010
1000
0001
,
0010
1000
1001
0110
,
1001
0000
1000
0100
1000
0000
0001
0000
,
0010
0000
0000
0010
0100
0000
0000
0100
,
1000
0010
0100
1000
,
0100
0000
0000
0100
0010
0000
0000
0010
,
1000
0100
1000
0010
,
1000
0001
0101
0101
,
0001
0010
0001
1000
,
0010
0100
1010
1010
;

//--------------- dance-single - ----------------
#NOTES:
     dance-single:
     Shortysnmn2010:
     Hard:
     7:
     0.370447,0.43658,0.13081,0.123116,0.069253,337,320,17,16,0,0,0.370447,0.43658,0.13081,0.123116,0.069253,337,320,17,16,0,0:
0000
0000
0000
0000
,
0000
0000
0000
0000
,
0000
0000
0000
0000
,
0000
0000
0000
0000
,
0000
0000
0000
0000
,
1000
0000
0100
0000
0010
0000
0100
1000
,
0100
0000
0100
0010
0001
0000
0100
0001
,
1000
0000
0001
0000
1000
0000
0001
0000
1000
0000
0001
0000
1000
0000
0000
0000
0000
0000
0001
0000
0000
0010
0000
0000
,
0200
0000
0320
0000
0230
0000
1300
0001
,
0010
0001
0100
1001
,
0100
1000
0010
1001
,
1000
0100
0010
0001
0010
0100
1000
0010
,
0100
0010
1000
0001
0100
0100
0100
0000
,
0010
1000
0100
1001
,
0100
0001
0010
1001
,
0001
0100
1000
0100
0010
0100
0001
1000
,
0001
0010
0100
1000
0010
0010
0010
0000
,
1000
0100
1000
0000
1000
0010
1000
0100
,
0000
0110
0000
0010
0001
0001
0001
0000
,
0001
0100
0001
0000
0001
0010
0001
0100
,
0000
0110
0000
0010
1000
1000
1000
0000
,
0000
0001
0010
0000
0100
1000
0010
0000
,
0000
1000
0001
0000
0010
0001
0100
0000
,
0001
1000
0001
0000
1000
0100
1000
0001
,
0010
0010
0100
0100
1000
0000
0001
0000
,
2010
0001
0010
3001
,
0102
0000
1000
0000
0100
0000
1003
0010
,
0100
1001
0100
1001
,
0010
1000
0002
0003
,
1000
0000
1000
0000
0100
0000
0010
0001
,
0100
0000
0100
0000
0001
0000
0010
0100
,
1000
0000
1000
0000
0010
0000
0100
0001
,
1000
0000
0010
0000
1000
0001
1000
0001
,
0100
0000
0100
0000
0001
0000
0010
0001
,
0100
0000
0000
0001
1000
0000
0000
1000
,
0001
0000
0001
0000
0010
0000
0100
1000
,
0010
0000
0000
1000
0001
0000
0000
0001
,
1000
0000
0100
0000
1000
0000
0000
0000
0001
0000
0000
0010
0000
0000
0100
0000
,
1000
0000
0000
0000
0001
0000
0000
0000
1000
0000
0000
0010
0000
0000
0100
0000
,
0001
0000
0000
0000
1000
0000
0000
0000
0001
0000
0000
0010
0000
0000
0001
0000
,
0100
0000
0000
0000
0010
0000
0000
0000
1000
0000
0000
0100
0000
0000
1000
0000
,
0010
0000
0000
0000
0100
0000
0000
0000
0010
0000
0000
1000
0000
0000
0001
0000
,
0100
0000
0000
0000
0001
0000
0000
0000
0010
0000
0000
0100
0000
0000
1000
0000
,
0010
0000
0100
0000
0002
0000
0003
1000
,
0100
0000
0000
0010
0001
0000
0000
0100
,
0020
1000
0001
0100
,
1030
0001
2002
3003
,
1000
0000
0100
0000
0010
0000
0001
0100
,
0001
0000
0010
0100
0010
0000
0001
1000
,
0010
0000
0100
0000
0010
0000
0100
0000
0010
0000
0100
0000
0010
0000
0000
0000
0000
0000
1000
0000
0000
0001
0000
0000
,
0020
0000
0230
0000
0320
0000
0031
1000
,
0001
0000
0100
0000
0010
0000
1000
0100
,
0001
0000
0001
0100
1000
0000
0010
0100
,
0001
0000
1000
0000
0001
0000
1000
0000
0001
0000
1000
0000
0001
0000
0000
0000
0000
0000
0010
0000
0000
0100
0000
0000
,
2000
3002
0203
0310
,
1000
0000
0001
0010
0100
0000
1000
0000
,
0001
0100
1001
1001
,
0010
0000
1000
0100
0010
0000
0001
0100
,
0010
0000
1000
0000
0100
0000
0010
0100
,
1000
0001
0001
0010
,
0001
0000
0000
0001
1000
0000
0000
1000
,
0001
0100
0010
0010
,
1000
0000
0000
0001
1000
0000
0000
1000
,
0001
0100
0001
1000
,
0001
0010
1001
1001
,
1000
0100
1000
0001
,
1000
0010
1001
1001
;

//--------------- dance-single - ----------------
#NOTES:
     dance-single:
     Shortysnmn2010:
     Challenge:
     9:
     0.507852,0.618657,0.346263,0.115421,0.211605,462,417,45,15,0,0,0.507852,0.618657,0.346263,0.115421,0.211605,462,417,45,15,0,0:
0000
0000
0000
0000
,
0000
0000
0000
0000
,
0000
0000
0000
0000
,
0000
0000
0000
0000
,
0000
0000
0000
0000
,
0010
0000
0001
0000
0001
0000
0100
0010
,
1000
1000
0001
0001
0100
0000
0010
0100
,
0001
0000
1000
0000
0001
0000
1000
0000
0001
0000
1000
0000
0001
0000
0000
0000
0000
0000
0010
0000
0000
0100
0000
0000
,
1000
0100
1000
0100
0000
0000
0010
0001
0010
0001
0000
0000
0100
0000
0010
0000
0100
0000
0010
0000
0000
1000
0000
0000
,
0000
0100
0010
0100
1000
0001
1000
0010
,
0000
0010
0100
0001
1000
0100
0001
0100
,
0000
0100
0010
0001
0010
0100
0100
0100
,
1000
0001
1000
0010
0100
0100
0100
0000
,
0000
0001
0100
0010
1000
0010
0001
0010
,
0000
0010
0100
0001
0010
1000
0010
0100
,
0000
0100
1000
0001
0010
1000
1000
1000
,
0010
0001
0100
0010
1000
1000
1000
0000
,
0001
0010
1000
0010
0100
1000
0100
0010
,
0000
0011
0000
0001
0100
1000
0100
0000
,
1000
0100
0001
0100
0010
1000
0010
0100
,
0000
0101
0000
0001
0010
1000
0010
0000
,
0000
0001
1000
0001
0010
0100
2000
0000
,
3000
0010
0100
0010
1000
0001
0020
0000
,
0130
1000
0100
1000
0010
0100
1000
0100
,
0010
0000
0010
0000
0010
0000
0010
0000
1000
0001
0000
0010
0000
0000
0000
0000
,
0100
0000
0000
0000
1100
0000
0000
0000
0010
0001
0000
0100
0001
0000
0000
0000
,
0100
0000
0000
0000
0101
0000
0000
0000
0010
1000
0000
0100
1000
0000
0100
0000
,
0010
0110
0001
1001
,
0010
0000
0100
0000
0010
0000
0100
0000
1000
0001
0010
0100
1000
0001
0100
0010
,
1000
0001
0100
1000
0100
0010
1000
0010
,
0001
0010
0100
0001
0010
0000
0110
0001
,
1000
0010
0001
1000
0100
0001
1000
0100
,
0010
0001
1000
0010
0200
0000
0001
0001
,
0301
0000
1000
0100
0010
1000
0010
0001
,
1000
0000
0000
1100
1100
0000
0000
0011
,
0011
0000
1000
0010
0100
0001
0100
1000
,
0100
0000
0000
1010
1010
0000
0000
1001
,
0100
0000
1000
0000
0100
0000
0000
0000
0110
0000
0000
0001
0000
0000
0010
0000
,
0100
0000
0000
0000
1100
0000
0000
0000
1001
0000
0000
0100
0000
0000
0010
0000
,
0001
0000
0000
0000
0101
0000
0000
0000
1001
0000
0000
0010
0000
0000
1000
0000
,
0010
0000
0000
0000
0110
0000
0000
0000
1010
0000
0000
0001
0000
0000
1000
0000
,
0100
0000
0000
0000
0011
0000
0000
0000
0110
0000
0000
1000
0000
0000
0010
0000
,
0100
0000
0000
0000
1001
0000
0000
0000
0110
0000
0000
1000
0000
0000
0100
0000
,
0010
0000
0000
0000
0110
0000
0000
0000
1000
0001
0000
0001
1000
0000
0010
0000
,
0100
0000
0000
0000
1010
0000
0000
0000
0001
0000
0000
0010
0000
0000
1000
0000
,
0020
0000
0000
0000
0000
0000
0032
0000
0000
0000
0000
0000
0103
0000
0000
0000
0000
0010
0100
0000
0000
0001
0000
0000
,
1000
0100
0010
0001
0100
1000
0200
0000
0000
0300
0000
0000
,
0010
0000
1000
0000
1000
0000
0001
0010
,
0100
0100
0001
0001
0100
0000
0010
0001
,
1000
0000
0010
0000
0100
0000
0001
0000
0100
0000
1000
0000
0100
0000
0000
0000
0000
0000
0010
0000
0000
1000
0000
0000
,
0001
1000
0001
1000
0000
0000
0010
0100
0010
0100
0000
0000
0001
0000
0100
0000
0010
0000
0001
0000
0000
0010
0000
0000
,
1000
0000
0100
0000
0100
0000
0010
0001
,
0010
0010
1000
1000
0010
0000
0100
1000
,
0010
0000
0100
0000
0001
0000
0100
0000
0001
0000
0010
0000
0100
0000
0000
0000
0000
0000
1000
0000
0000
0100
0000
0000
,
0010
0000
0100
0000
0010
0000
0100
0000
0000
0000
0000
0000
1000
0000
0001
0000
1000
0000
0001
0000
0000
0000
0000
0000
0010
0000
0000
0000
0100
0000
0000
0000
1000
0000
0000
0000
0100
0000
0000
0000
0000
0000
0010
0000
0000
0001
0000
0000
,
1000
0100
0010
1000
0010
0100
1000
0010
,
0100
1000
0100
0010
0100
0000
1001
0000
,
0001
0010
0100
0010
0001
0100
0010
0001
,
0010
0100
0001
0010
0200
0000
1000
1000
,
1300
0000
0010
0100
0001
0100
1000
0100
,
0001
0000
0000
1001
1001
0000
0000
0110
,
0110
0000
1000
0001
0100
0001
1000
0010
,
0001
0000
0000
0011
0011
0000
0000
0110
,
0210
0301
0012
0103
,
0120
0000
0031
0000
0110
1000
0011
0000
,
2100
3010
0120
1030
,
1200
0310
0011
2200
,
3300
0000
0000
0000
;
