#TITLE:Forged in Stars;
#SUBTITLE:;
#ARTIST:Chipzel;
#TITLETRANSLIT:;
#SUBTITLETRANSLIT:;
#ARTISTTRANSLIT:;
#GENRE:;
#CREDIT:;
#MUSIC:Forged In Stars.mp3;
#BANNER:;
#BACKGROUND:;
#CDTITLE:;
#SAMPLESTART:40.347;
#SAMPLELENGTH:13.409;
#SELECTABLE:YES;
#OFFSET:-0.040;
#BPMS:0.000=142.973;
#STOPS:;
#BGCHANGES:;
#FGCHANGES:;

//--------------- dance-single - ----------------
#NOTES:
     dance-single:
     Shortysnmn2010:
     Beginner:
     1:
     0.098724,0.146624,0.045465,0.054558,0,76,71,5,6,0,0,0.098724,0.146624,0.045465,0.054558,0,76,71,5,6,0,0:
0000
0000
0000
0000
,
0000
0000
0000
0000
,
0000
0000
0000
0000
,
0000
0000
0000
0000
,
1000
0000
0000
0000
,
0100
0000
0000
0000
,
1000
0000
1000
0000
,
1000
0000
0000
0000
,
0001
0000
0000
0000
,
0010
0000
0000
0000
,
0001
0000
0000
0000
,
0100
0000
0100
0000
,
0100
0000
0000
0000
,
0010
0000
0000
0000
,
1000
0000
0000
0000
,
0001
0000
0000
0000
,
1000
0000
1000
0000
,
1000
0000
0000
0000
,
0001
0000
0001
0000
,
0001
0000
0000
0000
,
0010
0000
0000
0000
,
0100
0000
0000
0000
,
0010
0000
0010
0000
,
0010
0000
0000
0000
,
0100
0000
0000
0000
,
1000
0000
0000
0000
,
0010
0000
0000
0000
,
0100
0000
0000
0000
,
0001
0000
0001
0000
,
1000
0000
0000
0000
,
1000
0000
1000
0000
,
0001
0000
0000
0000
,
0110
0000
0000
0000
,
1000
0000
0000
0000
,
0001
0000
0000
0000
,
1000
0000
0000
0000
,
1001
0000
0000
0000
,
0010
0000
0000
0000
,
0100
0000
0000
0000
,
1000
0000
0000
0000
,
0110
0000
0000
0000
,
0001
0000
0000
0000
,
1000
0000
0000
0000
,
0100
0000
0000
0000
,
1001
0000
0000
0000
,
0010
0000
0001
0000
,
0100
0000
0000
0000
,
0010
0000
0000
0000
,
0100
0000
0001
0000
,
0010
0000
0000
0000
,
0100
0000
0000
0000
,
1000
0000
0000
0000
,
0010
0000
0000
0000
,
1000
0000
0000
0000
,
0001
0000
1000
0000
,
0001
0000
0000
0000
,
2000
0000
3000
0000
,
0002
0000
0003
0000
,
2000
0000
3000
0000
,
0002
0000
0003
0000
,
0010
0000
0000
0000
,
0100
0000
0000
0000
,
0010
0000
0000
0000
,
0001
0000
0000
0000
,
2002
0000
3003
0000
;

//--------------- dance-single - ----------------
#NOTES:
     dance-single:
     Shortysnmn2010:
     Easy:
     4:
     0.264995,0.29268,0.09093,0.163674,0,204,194,10,18,0,0,0.264995,0.29268,0.09093,0.163674,0,204,194,10,18,0,0:
0000
0000
0000
0000
,
0000
0000
0000
0000
,
0000
0000
0000
0000
,
0000
0000
0000
0000
,
1000
0000
0100
0000
,
0010
0000
0001
0000
,
2000
3000
0002
0003
,
2000
3000
0002
0003
,
0010
0100
1000
0010
,
0100
0001
1000
0000
,
0001
0100
0010
1000
,
0100
1000
0001
0000
,
0010
0001
1000
0100
,
0001
0100
1000
0000
,
0001
0100
0010
0100
,
1000
0100
0001
0000
,
1000
0100
0010
0000
,
0001
0001
1100
0000
,
0010
1000
0100
0000
,
1000
1000
0101
0000
,
0010
1000
0001
0000
,
0010
0010
1001
0000
,
0100
1000
0001
0000
,
0100
0100
1010
0000
,
0001
0000
1000
1000
,
0100
0010
0001
1001
,
1000
0000
0001
0010
,
0001
0001
0100
0110
,
0010
0000
1000
1000
,
0001
0100
0001
1001
,
1000
0000
0100
0100
,
0010
0001
0200
0300
,
0000
0001
0000
0010
0000
0001
0000
0000
,
0000
1000
0000
0100
0000
1000
0000
0000
,
0000
0010
0000
0100
0000
0001
0000
0000
,
0000
0010
0000
0100
0000
1000
0000
0000
,
0000
0001
0000
1000
0000
0001
0000
0000
,
0000
0010
0000
0001
0000
0100
0000
0000
,
0000
0001
0000
1000
0000
0001
0000
0000
,
0000
1000
0000
0100
0000
0001
0000
0000
,
0200
1300
0200
0301
,
0200
1300
0001
0010
,
1000
0010
0001
0100
,
0010
0010
1001
0000
,
0200
0301
0200
1300
,
0200
0301
1000
0010
,
0001
0010
0100
0001
,
0010
0010
1001
0000
,
0002
0013
0002
0103
,
0002
0013
0100
1000
,
0010
1000
0100
0010
,
0001
0001
1100
0000
,
2000
3010
2000
3100
,
2000
3010
0100
0001
,
0010
0001
0100
1000
,
0000
0100
0000
0100
0000
0001
0000
0000
,
0000
1000
0000
0001
0000
1000
0000
0000
,
0000
0001
0000
1000
0000
0001
0000
0000
,
0000
0010
0000
0100
0000
0010
0000
0000
,
0000
0100
0000
1000
0000
0100
0000
0000
,
0000
1000
0000
1000
0000
0000
0000
0000
,
0000
0001
0000
0001
0000
0000
0000
0000
,
0000
0010
0000
0010
0000
0000
0000
0000
,
0000
0100
0000
0100
0000
1000
0000
0001
,
0000
0020
0000
0030
0000
0000
0000
0000
;

//--------------- dance-single - ----------------
#NOTES:
     dance-single:
     Shortysnmn2010:
     Medium:
     6:
     0.366317,0.380484,0.036372,0.045465,0,282,278,4,5,0,0,0.366317,0.380484,0.036372,0.045465,0,282,278,4,5,0,0:
0000
0000
0000
0000
,
0000
0000
0000
0000
,
0000
0000
0000
0000
,
0000
0000
0000
0000
,
1000
0000
0010
0100
0001
0000
0010
0100
,
1000
0000
0010
0100
0001
0000
0010
0100
,
1000
0000
0001
0000
,
0010
0000
0100
0000
,
1000
0000
0001
0010
0001
0000
1000
0100
,
1000
0000
0001
0010
0001
0000
0000
0000
,
1000
0000
0001
0100
0001
0000
1000
0010
,
1000
0000
0001
0100
0001
0000
0000
0000
,
1000
0000
0100
0010
0100
0000
0010
0100
,
0010
0000
0100
0010
0100
0000
0000
0000
,
1000
0000
0001
0100
0001
0000
0100
0001
,
0100
0000
0001
0100
0001
0000
0000
0000
,
0010
0000
0100
0000
1000
0100
0001
0000
,
0100
0010
0002
1000
,
1003
0000
0010
0000
1000
0001
1000
0000
,
0010
0100
0002
0010
,
0013
0100
1000
1001
,
0001
0000
0100
0000
0001
0010
0001
0010
,
0001
0000
1000
0100
0000
0000
1000
0100
,
0000
0000
1000
0010
0000
0000
1000
0000
,
0001
0000
1000
0000
0010
1000
0100
0000
,
1000
0001
0100
1001
,
0001
0000
1000
0000
0010
0100
0001
0000
,
0010
0100
0010
1001
,
1000
0000
0010
0000
1000
0100
0001
0000
,
0100
0010
0001
1001
,
0001
0000
0100
0000
0010
0100
0001
0000
,
1000
0100
0200
0300
,
0000
1000
0000
1000
0000
0010
0000
0010
,
0000
0100
0000
0100
0000
0001
0000
0001
,
0000
0010
0000
0100
0000
0010
0000
0100
,
0000
1000
0000
0001
0000
1000
0000
0001
,
0000
0100
0000
0100
0000
0001
0000
0001
,
0000
1000
0000
1000
0000
0010
0000
0010
,
0000
1000
0000
0100
0000
0010
0000
0001
,
0000
1000
0000
0010
0000
0100
0000
0001
,
1000
0000
0001
0010
0001
0000
0010
0001
,
0010
0000
0001
0010
0001
0000
0000
0000
,
0100
0000
0010
1000
0010
0000
1000
0010
,
1000
0000
0010
1000
0010
0000
0000
0000
,
1000
0000
0100
1000
0100
0000
1000
0100
,
1000
0000
0100
1000
0100
0000
0000
0000
,
0010
0000
0100
0010
0100
0000
0010
0001
,
0010
0000
0100
0010
0100
0000
0000
0000
,
1000
0000
0001
0100
0010
0000
1000
0000
,
0001
0000
1000
0100
0010
0000
0001
0000
,
1000
0000
0001
0100
0001
0000
1000
0000
,
0001
0000
1000
0100
1000
0000
0010
0000
,
1000
0000
0100
0010
0100
0000
0010
0000
,
0001
0000
0100
0010
0100
0000
0010
0000
,
1000
0000
0001
1000
0001
0000
0010
0000
,
0000
0100
0000
0100
0000
1000
0000
0000
,
0000
0001
0000
0010
0000
0001
0000
0010
,
0000
0100
0000
1000
0000
0100
0000
1000
,
0000
0010
1000
0010
0000
0100
0010
0100
,
0000
0001
0100
0001
0000
0010
0001
0010
,
0000
0100
0000
0100
0000
1000
0000
1000
,
0000
0010
0000
0010
0000
0100
0000
0100
,
0000
0001
0100
0001
0000
1000
0100
1000
,
0000
0001
0010
0001
0000
1000
0010
2000
,
0000
0002
0000
3003
0000
0000
0000
0000
;

//--------------- dance-single - ----------------
#NOTES:
     dance-single:
     Shortysnmn2010:
     Hard:
     8:
     0.49232,0.496107,0.036372,0.263696,0.063651,379,375,4,29,16,0,0.49232,0.496107,0.036372,0.263696,0.063651,379,375,4,29,16,0:
0000
0000
0000
0000
,
0000
0000
0000
0000
,
0000
0000
0000
0000
,
0000
0000
0000
0000
,
1000
0001
0010
0100
1000
0000
0100
1000
,
0100
0000
0010
0100
0010
0000
0001
0010
,
0002
0000
1003
0100
2000
0000
3010
0100
,
0002
0000
1003
0010
2000
0000
3001
0010
,
0100
0000
1000
1000
0100
0000
0001
0001
,
0100
0000
1000
1000
0010
0100
0001
1000
,
0010
0000
1000
1000
0001
0000
0010
0010
,
0001
0000
0100
0100
0010
1000
0001
1000
,
0110
0000
0001
0001
0010
0000
0001
0001
,
0100
0000
0010
0010
1000
0001
1000
0100
,
0010
0000
0001
0001
0100
0000
0010
0010
,
1000
0000
0100
0100
0010
0001
1000
0001
,
0100
0000
0000
0010
1000
0000
0001
0000
0100
0000
0001
0000
1000
0000
0100
0000
,
1000
0000
0000
0100
1000
0000
0100
0000
0010
0000
0001
0000
0010
0000
0001
0000
,
0200
0000
0310
1000
0002
0000
0013
0100
,
2000
0000
3010
0100
0001
0100
0010
1000
,
0200
0000
0000
0000
1300
0000
0001
0000
0010
0000
0000
0001
0010
0000
0001
0000
,
2000
0000
0000
0000
3100
0000
0010
0000
0100
0000
0000
0010
0001
0000
0010
0000
,
0100
0000
1000
1000
0001
0000
0001
0001
,
1000
0000
0001
0001
0200
0000
0300
0000
,
0010
1000
0001
1000
0100
1000
0010
1000
,
0001
1000
0010
0100
0001
0010
0001
0000
,
0100
0010
0100
0001
0100
1000
0100
0010
,
0100
1000
0100
0010
1000
0001
0010
0000
,
0100
1000
0100
0010
0100
0001
0100
0010
,
0100
0001
0100
0010
0001
1000
0010
0000
,
1000
0100
1000
0001
1000
0010
1000
0100
,
1000
0010
0100
0001
1000
0000
1001
0000
,
00M0
1000
0100
1000
00M0
0001
0100
0001
,
0M00
1000
0010
1000
0M00
0001
0010
0001
,
M000
0100
0010
0100
000M
0010
0100
0010
,
0M00
1000
0001
1000
00M0
0001
1000
0001
,
M000
0010
0100
1000
00M0
0001
0100
0010
,
000M
1000
0001
0010
0M00
1000
0010
0001
,
0M00
1000
0010
0001
00M0
1000
0100
0001
,
00M0
1000
0100
0001
00M0
1000
0010
0001
,
2000
0000
0000
3100
0020
0000
0000
0031
,
2000
0000
0000
3010
0100
0001
0001
0010
,
0200
0000
0000
1300
0002
0000
0000
0013
,
0200
0000
0000
1300
0010
0001
0001
0010
,
2000
0000
0000
3100
0002
0000
0000
1003
,
0020
0000
0000
0031
1000
0010
0010
0100
,
0002
0000
0000
0013
0200
0000
0000
1300
,
0020
0000
0000
0130
0001
1000
0100
0010
,
0001
0000
0000
1000
0100
0000
1000
0000
0100
0000
0000
0010
0001
0000
0010
0000
,
0001
0000
0000
1000
0100
0000
1000
0000
0100
0000
0010
0000
0001
0000
1000
0000
,
0010
0000
0000
0100
0001
0000
0100
0000
0001
0000
0000
1000
0010
0000
1000
0000
,
0010
0100
0000
0001
0000
1000
0000
0010
,
1000
0000
0000
0001
0100
0000
0010
0000
0100
0000
0000
0010
1000
0000
0010
0000
,
0100
0001
0000
1000
0000
0100
0000
0010
,
0001
0000
0000
1000
0100
0000
1000
0000
0001
0000
0000
0100
0001
0000
1000
0000
,
0010
0100
0000
0001
0000
1001
0000
1001
,
0000
1000
0010
1000
0000
0010
1000
0100
,
0000
0010
0100
0010
0000
0100
1000
0010
,
0000
0100
0001
0100
0000
0010
1000
0100
,
0000
0001
0100
0001
0000
0100
1000
0010
,
0000
0100
0000
0200
0000
0301
0000
0002
,
0000
0013
0000
0020
0000
0130
0000
0200
,
0000
1300
0000
2000
0000
3010
0000
0020
,
0000
0031
0000
0002
0000
1003
0000
1000
,
0100
0000
0001
1000
0000
0000
0000
0000
0000
0000
0000
0000
0000
0000
0000
0000
;

//--------------- dance-single - ----------------
#NOTES:
     dance-single:
     Shortysnmn2010:
     Challenge:
     10:
     0.675478,0.709252,0.254603,0.24551,0.445556,520,492,28,27,0,0,0.675478,0.709252,0.254603,0.24551,0.445556,520,492,28,27,0,0:
0000
0000
0000
0000
,
0000
0000
0000
0000
,
0000
0000
0000
0000
,
0000
0000
0000
0000
,
1000
0000
0001
0000
0100
0000
0010
0000
1000
0000
0000
0100
1000
0000
0100
0000
,
1000
0000
0000
0001
0100
0000
0001
0000
0100
0000
0000
0010
1000
0000
0010
0000
,
1000
0000
0000
2000
0000
0000
0000
3000
0001
0000
0000
0002
0000
0000
0000
0003
,
0010
0000
0000
0020
0000
0000
0000
0030
0100
0000
0000
0200
0000
0000
0000
0300
,
1000
0000
0110
0001
0100
0000
0110
1000
,
0100
0000
0110
0001
1000
0010
0100
0001
,
1000
0000
1001
0010
0100
0000
1001
0100
,
0010
0000
1001
0010
0100
1000
0001
0100
,
0010
0000
1010
0100
0001
0000
0011
0100
,
1000
0000
1010
0100
0001
1000
0100
0010
,
0001
0000
0101
0010
1000
0000
1100
0010
,
0001
0000
0101
0010
1000
0100
1000
0010
,
0100
0000
0000
0100
0002
0000
1000
0000
1003
0000
0100
0010
0100
0000
1000
0000
,
0010
0000
0000
0100
0002
0000
0010
0000
0013
0000
0100
0010
0001
0000
1000
0000
,
0010
0000
1000
0001
0010
0000
1000
0000
0010
0000
0001
1000
0010
0000
0001
0000
,
0010
0000
1000
0100
0010
0000
0100
0000
0001
0000
0100
0000
1000
0000
0001
0000
,
0100
0000
0010
0100
0010
0100
0010
0000
1000
0000
0000
1000
0001
0000
0100
0000
,
0010
0000
0001
0010
0001
0010
0100
0000
0001
0000
0000
0100
0010
0100
0001
1000
,
0001
0000
0010
0100
1000
0000
0010
0100
,
0001
0000
0010
0100
1000
0000
1001
0000
,
1000
0000
0001
0010
0001
0000
0100
0010
0100
0000
0001
0000
1000
0100
0010
0000
,
0001
0100
1000
0100
0001
1000
0001
0000
,
1000
0000
0100
0010
0001
0010
0100
1000
0100
0000
0010
0000
0001
1000
0001
0000
,
0100
0010
0001
0010
0100
0001
1000
0000
,
0100
0000
1000
0001
0100
0001
1000
0010
0100
0000
0001
0000
1000
0010
1000
0000
,
0001
0010
1000
0010
0001
1000
0001
0000
,
0100
0000
0010
1000
0001
0000
0100
0001
0010
0000
0100
0000
1000
0100
0010
0000
,
0001
0000
0100
0000
1000
0000
0100
0000
2002
0000
0000
3003
0220
0000
0000
0330
,
0001
0100
0001
0000
1000
0000
0100
0000
0010
0001
0010
0000
0100
0000
1000
0000
,
0001
1000
0001
0000
0010
0000
0100
0000
1000
0001
1000
0000
0010
0000
0100
0000
,
0001
0100
0010
0000
1000
0000
0010
0000
0100
0001
1000
0000
0010
0000
0100
0000
,
0010
1000
0001
0000
0010
0000
0100
0000
1000
0001
0010
0000
0100
0000
0010
0000
,
0100
1000
0001
0000
0010
0000
1000
0000
0010
1000
0010
0000
0001
0000
1000
0000
,
0100
0001
0100
0000
1000
0000
0010
0000
0001
0010
0001
0000
1000
0000
0100
0000
,
0001
0100
0001
0000
1000
0000
0010
0000
0001
0010
0100
0000
0001
0000
1000
0000
,
0100
0010
0001
0000
0100
0000
0010
0000
1000
0010
0100
0000
0001
0000
0010
0000
,
0001
0000
0000
1000
0100
0010
0001
0000
1000
0000
0000
0010
0100
0001
0100
0000
,
0010
0000
0000
1000
0001
1000
0100
0000
0010
0001
1000
0000
0100
0000
0010
0000
,
0001
0000
0000
0100
0010
0100
0010
0000
1000
0000
0000
0001
0010
0001
0010
0000
,
0100
0000
0000
1000
0001
1000
0001
0000
0010
0100
1000
0000
0001
0000
0100
0000
,
0010
0000
0010
1000
0100
0010
0001
0000
1000
0000
1000
0001
0100
0010
1000
0000
,
0001
0000
0001
0010
0100
1000
0001
0000
1000
0100
0010
0000
0001
0000
1000
0000
,
0010
0000
0100
0001
0100
0000
0010
0000
0001
0000
0010
0100
0010
0000
0100
0000
,
0001
0000
0010
0100
0010
0000
0001
0000
0000
0000
1000
0000
0010
0000
0100
0000
,
0001
0000
0000
0100
0010
0001
0010
0000
0100
0000
0000
0001
0010
0100
1000
0000
,
0001
0000
0000
0100
0001
1000
0010
0000
0100
0001
1000
0000
0100
0000
0010
0000
,
0100
0000
0000
0001
0100
0010
0001
0000
1000
0000
0000
0010
0100
0010
1000
0000
,
0000
0001
0000
1010
0000
0001
0000
1100
,
0010
0000
0000
1000
0001
0100
0010
0000
1000
0000
0000
0001
0010
0001
1000
0000
,
0000
0010
0000
1001
0000
0100
0000
1010
,
0001
0000
0000
0000
0010
0000
0100
1000
0001
0000
0100
0000
0010
0000
1000
0001
,
0000
1001
0000
1001
0000
0010
0100
0010
,
0000
0001
0200
1000
0300
0001
0020
1000
,
0030
0100
0020
0001
0030
0100
0020
1000
,
0030
0100
0020
1000
0030
0010
0200
0001
,
0300
0100
0020
0001
0030
0100
0020
0001
,
0030
1010
0000
0102
0000
0013
0000
1200
,
0000
0310
0000
1002
0000
0103
0000
1020
,
0000
0031
0000
1200
0000
0301
0000
0021
,
0000
0130
2000
0100
0000
3010
0200
0001
,
0000
0000
0000
0000
0310
0000
1000
0000
0000
0000
0001
0000
0000
0000
0010
0001
0000
0000
0000
0000
0100
0000
1000
0000
0002
0000
0000
0000
0000
0000
0000
0000
,
0003
0000
0000
0000
;
